<?xml version="1.0" standalone="no"?>
<!DOCTYPE svg PUBLIC "-//W3C//DTD SVG 1.1//EN" "http://www.w3.org/Graphics/SVG/1.1/DTD/svg11.dtd" >
<svg xmlns="http://www.w3.org/2000/svg" xmlns:xlink="http://www.w3.org/1999/xlink" version="1.1">
<metadata>
Created by FontForge 20201107 at Sat Apr 30 02:32:16 2022
 By 
Copyright 2015 The Public Sans Project Authors (https://github.com/uswds/public-sans)
</metadata>
<defs>
<font id="PublicSans-Medium" horiz-adv-x="0" >
  <font-face 
    font-family="Public Sans Medium"
    font-weight="500"
    font-stretch="normal"
    units-per-em="2000"
    panose-1="0 0 0 0 0 0 0 0 0 0"
    ascent="1600"
    descent="-400"
    x-height="1034"
    cap-height="1446"
    bbox="-319 -480 2524 2146"
    underline-thickness="140"
    underline-position="-440"
    unicode-range="U+000D-FB02"
  />
<missing-glyph horiz-adv-x="1357" 
d="M221 1652h918q35 0 35 -42v-1876q0 -56 -65 -56h-873q-31 0 -42 12t-11 36v1880q0 46 38 46zM1072 -113v1633q0 34 -29 34h-687zM285 1433v-1617q0 -19 9.5 -29.5t34.5 -10.5h670z" />
    <glyph glyph-name="fi" unicode="fi" horiz-adv-x="1298" 
d="M277 0v880h-211v154h211v157q0 124 65.5 189.5t193.5 65.5h207l1 -148h-150q-61 0 -83.5 -32.5t-22.5 -99.5v-132h246v-154h-242v-880h-215zM942 0v1034h206v-1034h-206zM937 1234v211h215v-211h-215z" />
    <glyph glyph-name="fl" unicode="fl" horiz-adv-x="1412" 
d="M277 0v880h-211v154h211v157q0 124 65.5 189.5t193.5 65.5h207l1 -148h-150q-61 0 -83.5 -32.5t-22.5 -99.5v-132h246v-154h-242v-880h-215zM1217 -14q-92 0 -147.5 24t-84.5 64.5t-38.5 92t-9.5 106.5v1213h211v-1191q0 -72 28.5 -110t87.5 -43l54 -2v-136
q-25 -8 -51.5 -13t-49.5 -5z" />
    <glyph glyph-name=".notdef" horiz-adv-x="1357" 
d="M221 1652h918q35 0 35 -42v-1876q0 -56 -65 -56h-873q-31 0 -42 12t-11 36v1880q0 46 38 46zM1072 -113v1633q0 34 -29 34h-687zM285 1433v-1617q0 -19 9.5 -29.5t34.5 -10.5h670z" />
    <glyph glyph-name="uni0000" horiz-adv-x="53" 
 />
    <glyph glyph-name="uni0000" horiz-adv-x="53" 
 />
    <glyph glyph-name="nonmarkingreturn" horiz-adv-x="666" 
 />
    <glyph glyph-name="CR" unicode="&#xd;" horiz-adv-x="469" 
 />
    <glyph glyph-name="space" unicode=" " horiz-adv-x="476" 
 />
    <glyph glyph-name="exclam" unicode="!" horiz-adv-x="519" 
d="M185 389l-59 1057h255l-56 -1057h-140zM129 0v255h247v-255h-247z" />
    <glyph glyph-name="quotedbl" unicode="&#x22;" horiz-adv-x="880" 
d="M569 954l-63 492h245l-65 -492h-117zM192 954l-63 492h245l-65 -492h-117z" />
    <glyph glyph-name="numbersign" unicode="#" horiz-adv-x="1213" 
d="M771 -4l-125 18l217 1435l124 -14zM68 464v123h1004v-123h-1004zM356 -4l-124 18l217 1435l123 -14zM132 874v123h1004v-123h-1004z" />
    <glyph glyph-name="dollar" unicode="$" horiz-adv-x="1329" 
d="M686 -20q-238 0 -391.5 100t-180.5 300l224 11q29 -116 121 -174.5t226 -58.5q80 0 149 27.5t111 76.5t42 114q0 92 -55.5 144t-173.5 82l-246 62q-162 39 -257.5 129.5t-96.5 243.5q-1 128 67.5 224t189.5 149.5t276 53.5q153 0 263.5 -57t171 -151.5t63.5 -206.5
l-217 -9q-20 120 -86.5 183.5t-193.5 63.5q-61 0 -116 -15t-97 -44t-66.5 -71.5t-24.5 -97.5q0 -74 51.5 -117t187.5 -83l239 -65q187 -50 268 -159t81 -256q0 -118 -66 -208t-185.5 -140.5t-277.5 -50.5zM585 -204v259h193v-259h-193zM595 1401v259h194v-259h-194z" />
    <glyph glyph-name="percent" unicode="%" horiz-adv-x="1827" 
d="M341 -8l977 1470h134l-972 -1470h-139zM452 644q-100 0 -179 52.5t-124.5 145t-45.5 212.5q0 122 46 215t125 146t178 53t177.5 -53t123.5 -146t45 -215q0 -120 -44.5 -212.5t-123 -145t-178.5 -52.5zM450 760q92 0 140 75t48 219q0 146 -48.5 222.5t-139.5 76.5
q-90 0 -138.5 -77t-48.5 -222q0 -143 48 -218.5t139 -75.5zM1369 -20q-100 0 -179.5 51.5t-124.5 144t-45 216.5q0 122 45.5 215t125 146t178.5 53q100 0 178.5 -53t123.5 -146t45 -215q0 -124 -44.5 -216.5t-123 -144t-179.5 -51.5zM1367 97q92 0 140 75t48 218
q0 146 -48.5 222.5t-139.5 76.5q-90 0 -138 -77t-48 -222q0 -142 47.5 -217.5t138.5 -75.5z" />
    <glyph glyph-name="ampersand" unicode="&#x26;" horiz-adv-x="1458" 
d="M533 -10q-146 0 -245 47.5t-149 131.5t-50 194q0 96 38.5 172.5t116 141.5t194.5 127q-55 59 -95 112.5t-61.5 109t-21.5 119.5q0 91 49 164t136 116t202 43q111 0 204 -38.5t149 -108t56 -163.5q0 -41 -16.5 -86.5t-54.5 -95.5t-103 -102.5t-162 -105.5l292 -342
q17 28 43 81t48 125t28 158h214q-17 -99 -53 -184.5t-82.5 -161t-92.5 -145.5l255 -299h-248l-136 156q-112 -89 -228 -127.5t-227 -38.5zM582 159q77 0 158 34t142 92l-337 392q-97 -54 -161 -131t-57 -175q4 -66 40.5 -113.5t93 -73t121.5 -25.5zM627 883
q95 56 146.5 101.5t70.5 86t19 81.5q0 63 -30.5 102t-78 56.5t-98.5 16.5q-88 -1 -135.5 -51t-47.5 -118q0 -45 19.5 -89.5t46.5 -82t51 -63.5z" />
    <glyph glyph-name="quotesingle" unicode="'" horiz-adv-x="503" 
d="M192 954l-63 492h245l-65 -492h-117z" />
    <glyph glyph-name="parenleft" unicode="(" horiz-adv-x="622" 
d="M406 -258q-82 141 -143.5 277.5t-95 283.5t-33.5 317q0 248 79.5 476.5t205.5 413.5h149q-103 -194 -168 -424t-65 -468q0 -225 56 -438t163 -438h-148z" />
    <glyph glyph-name="parenright" unicode=")" horiz-adv-x="633" 
d="M48 -258q107 225 163.5 438t56.5 438q0 238 -65 468t-168 424h148q127 -185 206.5 -413.5t79.5 -476.5q0 -170 -33.5 -317t-95 -283.5t-144.5 -277.5h-148z" />
    <glyph glyph-name="asterisk" unicode="*" horiz-adv-x="831" 
d="M255 733l-123 85l194 238l-272 76l48 132l258 -107l-19 289h151l-21 -290l262 114l42 -131l-265 -82l189 -230l-123 -88l-159 259z" />
    <glyph glyph-name="plus" unicode="+" horiz-adv-x="1128" 
d="M484 285l-1 886h163l1 -886h-163zM121 645v163l886 1v-163z" />
    <glyph glyph-name="comma" unicode="," horiz-adv-x="502" 
d="M89 -259l113 254l-91 6v238h248v-208l-178 -290h-92z" />
    <glyph glyph-name="hyphen" unicode="-" horiz-adv-x="763" 
d="M123 433v164l518 1v-163z" />
    <glyph glyph-name="period" unicode="." horiz-adv-x="474" 
d="M107 0v258h247v-258h-247z" />
    <glyph glyph-name="slash" unicode="/" horiz-adv-x="718" 
d="M26 -66l502 1512h160l-502 -1512h-160z" />
    <glyph glyph-name="zero" unicode="0" horiz-adv-x="1242" 
d="M621 -22q-245 0 -386 187.5t-141 552.5q0 245 65 411.5t183.5 251.5t279.5 85q241 0 383.5 -189.5t142.5 -556.5q0 -365 -141.5 -553.5t-385.5 -188.5zM622 160q148 0 222 130.5t74 428.5q0 304 -75 437.5t-222 133.5q-146 0 -223 -134.5t-77 -436.5q0 -297 76.5 -428
t224.5 -131z" />
    <glyph glyph-name="one" unicode="1" horiz-adv-x="825" 
d="M365 0v1132h-274v133q128 0 201.5 20.5t106 61t36.5 99.5h149v-1446h-219z" />
    <glyph glyph-name="two" unicode="2" horiz-adv-x="1213" 
d="M121 0v121v64q0 110 41.5 191t109.5 141.5t149.5 107.5t162.5 90t149 89.5t109.5 105t41.5 137.5q0 104 -73 169t-198 65q-133 0 -216 -75t-96 -207h-210q3 129 63 235t177 169t290 63q150 0 259.5 -52.5t169.5 -146.5t60 -219q0 -111 -41 -191t-107.5 -138
t-146.5 -102.5t-160 -85t-147 -85t-108 -100.5t-41 -135v-25h756v-186h-994z" />
    <glyph glyph-name="three" unicode="3" horiz-adv-x="1279" 
d="M616 -22q-156 1 -272 55.5t-181 154.5t-69 236h211q21 -131 106.5 -198.5t210.5 -67.5q102 0 176.5 31.5t115.5 87t41 129.5q0 80 -44.5 136t-122 85.5t-173.5 31.5l-133 3v178l124 4q91 2 161.5 34.5t110.5 85.5t40 117q0 58 -35.5 106t-102 76.5t-159.5 28.5
q-75 0 -142.5 -28t-111 -88.5t-47.5 -157.5h-210q0 145 69.5 244.5t186 151.5t258.5 52q153 0 271 -43t185.5 -127t67.5 -207q0 -107 -66.5 -192.5t-206.5 -133.5q91 -25 161 -73.5t109.5 -120.5t39.5 -167q0 -101 -43 -180t-120 -134t-181 -83t-225 -27z" />
    <glyph glyph-name="four" unicode="4" horiz-adv-x="1272" 
d="M768 0v356h-677v188l670 902h215v-905h235v-185h-235v-356h-208zM293 541h472v633z" />
    <glyph glyph-name="five" unicode="5" horiz-adv-x="1300" 
d="M669 -22q-136 0 -252 46.5t-199.5 128t-123.5 188.5l179 85q36 -78 89 -139.5t125 -96t165 -34.5q147 0 237 83.5t90 226.5q0 89 -42 156t-113 104.5t-159 37.5q-55 0 -103 -9.5t-95.5 -37t-100.5 -81.5q-8 -4 -11.5 -4t-13.5 5l-171 62l66 747h881l-7 -181h-697
l-34 -435q74 60 156 86.5t178 26.5q135 0 246.5 -54t178.5 -158.5t67 -257.5q0 -151 -66 -262t-186.5 -172t-283.5 -61z" />
    <glyph glyph-name="six" unicode="6" horiz-adv-x="1266" 
d="M656 -22q-172 0 -298.5 87.5t-195 249t-68.5 384.5q0 234 67 406.5t196 266.5t314 94q124 0 229.5 -46t174 -132.5t81.5 -209.5h-199q-28 100 -100.5 156.5t-181.5 56.5q-121 0 -202.5 -68.5t-118 -199.5t-23.5 -316q28 66 82.5 115.5t125.5 76.5t152 27q144 0 252 -55
t168.5 -157t60.5 -242q0 -144 -63.5 -255.5t-179.5 -175t-273 -63.5zM652 150q84 0 149.5 39.5t103.5 110t38 162.5q0 93 -35 159t-100.5 101t-156.5 35q-75 0 -143 -34.5t-111 -90.5t-43 -122q-2 -107 35.5 -188t105 -126.5t157.5 -45.5z" />
    <glyph glyph-name="seven" unicode="7" horiz-adv-x="1215" 
d="M352 0q14 96 53 239t105.5 313.5t161.5 353.5t221 359h-802v181h1033v-181q-75 -101 -149 -230t-140.5 -270.5t-120 -282t-87.5 -265t-42 -217.5h-233z" />
    <glyph glyph-name="eight" unicode="8" horiz-adv-x="1308" 
d="M653 -22q-168 0 -294 51.5t-195.5 145t-69.5 219.5q0 84 42 160.5t108 129.5t137 67q-96 42 -160 121.5t-64 195.5q0 128 65.5 216.5t178 135t252.5 46.5q142 0 254 -46.5t177 -135t65 -216.5q0 -116 -62.5 -195.5t-160.5 -121.5q72 -14 137.5 -67t108 -129.5
t42.5 -160.5q0 -126 -69.5 -219.5t-195.5 -145t-296 -51.5zM653 147q152 0 241.5 68.5t89.5 181.5q0 75 -40.5 133.5t-114.5 92t-176 33.5q-100 0 -174 -33.5t-114.5 -92t-40.5 -133.5q0 -113 89.5 -181.5t239.5 -68.5zM653 839q124 0 201.5 62t77.5 172q0 111 -78 175
t-201 64q-122 0 -200 -64.5t-78 -174.5t78 -172t200 -62z" />
    <glyph glyph-name="nine" unicode="9" horiz-adv-x="1268" 
d="M591 -22q-124 0 -231 47.5t-177.5 134t-84.5 206.5h206q23 -95 97.5 -154t182.5 -59q121 0 209 62t131.5 193t32.5 338q-26 -70 -79 -122.5t-126 -82.5t-162 -30q-144 0 -254 56t-172 159.5t-62 247.5t62.5 255t177 174t271.5 63q172 0 298 -87t194 -248t68 -384
q0 -248 -68 -419.5t-198.5 -260.5t-315.5 -89zM618 689q75 0 143 34t111.5 90.5t43.5 121.5q1 108 -36.5 189t-105 126.5t-158.5 45.5q-82 0 -146 -39.5t-100.5 -110t-36.5 -162.5q0 -137 74 -216t211 -79z" />
    <glyph glyph-name="colon" unicode=":" horiz-adv-x="475" 
d="M107 741v256h248v-256h-248zM107 6v255h248v-255h-248z" />
    <glyph glyph-name="semicolon" unicode=";" horiz-adv-x="501" 
d="M107 -292l119 292h-93v256h248v-227l-183 -321h-91zM128 735v259h248v-259h-248z" />
    <glyph glyph-name="less" unicode="&#x3c;" horiz-adv-x="1109" 
d="M986 259l-865 337v188l866 342v-195l-618 -242l617 -238v-192z" />
    <glyph glyph-name="equal" unicode="=" horiz-adv-x="1128" 
d="M121 838v162l886 1v-162zM121 390v163l886 1v-163z" />
    <glyph glyph-name="greater" unicode="&#x3e;" horiz-adv-x="1108" 
d="M122 259v192l618 238l-619 242v195l866 -342v-188z" />
    <glyph glyph-name="question" unicode="?" horiz-adv-x="1049" 
d="M402 394q0 113 36 195.5t89.5 147.5t106.5 122t89.5 117t36.5 135q0 92 -66 145t-171 53q-62 0 -121.5 -25.5t-106 -69.5t-68.5 -100l-188 52q64 143 191.5 221.5t293.5 78.5q137 0 239 -45t158 -123t56 -177q0 -101 -40 -174t-99 -133t-118 -119.5t-99 -131t-40 -169.5
h-179zM368 0v255h247v-255h-247z" />
    <glyph glyph-name="at" unicode="@" horiz-adv-x="1660" 
d="M845 -220q-178 0 -318 57t-238.5 157t-149.5 232t-51 283q0 158 56 298.5t160 248.5t249.5 170t325.5 62q128 0 251.5 -36.5t223.5 -112t159 -194t59 -283.5q0 -149 -49 -262.5t-135 -177.5t-196 -64q-79 0 -121.5 27.5t-58.5 72.5q-5 12 -9.5 12t-13.5 -11
q-43 -55 -109.5 -92t-157.5 -37q-77 0 -141.5 42.5t-103 120t-38.5 182.5q0 122 48 225t134.5 164.5t201.5 61.5q81 0 133.5 -32t86.5 -83q3 -4 8 -2.5t6 9.5l15 58h137l-74 -440q-13 -81 6.5 -111.5t64.5 -30.5q57 0 107 41.5t81 121t31 193.5q0 140 -47 236.5t-126.5 156
t-176.5 86.5t-197 27q-159 0 -278.5 -51.5t-200 -141t-121.5 -206.5t-41 -248t42 -241.5t123.5 -191.5t200.5 -125t272 -44q90 0 152.5 17t111.5 45t100 62l75 -100q-83 -66 -203.5 -108.5t-265.5 -42.5zM758 274q62 0 113.5 36t85 95t41.5 128q9 80 -12 135.5t-62 85
t-90 29.5q-66 0 -117.5 -40t-81 -106.5t-29.5 -148.5q0 -94 39 -154t113 -60z" />
    <glyph glyph-name="A" unicode="A" horiz-adv-x="1429" 
d="M75 0l522 1446h236l521 -1446h-216l-136 379h-573l-137 -379h-217zM482 573h464l-232 665z" />
    <glyph glyph-name="B" unicode="B" horiz-adv-x="1348" 
d="M183 0v1446h481q269 0 405.5 -97t136.5 -280q0 -113 -58.5 -194.5t-204.5 -136.5q86 -19 144 -54.5t91.5 -81.5t48 -100t14.5 -112q0 -197 -138.5 -293.5t-421.5 -96.5h-498zM397 174h285q168 0 255 57.5t87 172.5q0 83 -43 136t-116 78t-163 25h-305v-469zM397 820h305
q54 0 106 11t95 36.5t69 68.5t26 105q0 118 -89 175t-231 57h-281v-453z" />
    <glyph glyph-name="C" unicode="C" horiz-adv-x="1393" 
d="M730 -20q-196 0 -336 90.5t-214.5 258t-74.5 401.5q0 233 74 397.5t214 251.5t337 87q156 0 277 -64t194.5 -172t87.5 -239h-228q-15 82 -57.5 148.5t-112.5 105t-166 38.5q-123 0 -209 -58t-130.5 -181t-44.5 -317q0 -293 99 -428.5t285 -135.5q96 0 166 41.5t112.5 111
t57.5 151.5h228q-12 -95 -50 -182.5t-105.5 -156.5t-167.5 -108.5t-236 -39.5z" />
    <glyph glyph-name="D" unicode="D" horiz-adv-x="1401" 
d="M183 0v1446q8 0 47.5 -0.5t95.5 0t114.5 0t104.5 -1.5q265 -4 431 -88t243.5 -241.5t77.5 -383.5q0 -235 -83 -398.5t-253.5 -248t-431.5 -84.5h-346zM401 180h130q164 0 285.5 53.5t188.5 174t67 322.5q0 198 -64 315.5t-183.5 169t-287.5 51.5h-136v-1086z" />
    <glyph glyph-name="E" unicode="E" horiz-adv-x="1249" 
d="M183 0v1446h934l-1 -186h-718v-439h641v-183h-642v-449l737 -1v-188h-951z" />
    <glyph glyph-name="F" unicode="F" horiz-adv-x="1198" 
d="M183 0v1446h924l-1 -184h-705v-447h627v-182h-627v-633h-218z" />
    <glyph glyph-name="G" unicode="G" horiz-adv-x="1480" 
d="M729 -20q-193 0 -333 88t-215.5 253.5t-75.5 397.5q0 234 77.5 401.5t220.5 256.5t336 89q115 0 213.5 -39t174 -106t119.5 -152t50 -178h-228q-14 77 -59.5 142.5t-115.5 105.5t-158 40q-117 0 -207 -58t-140.5 -180.5t-50.5 -316.5q0 -151 31.5 -257t86.5 -171
t129 -94.5t158 -29.5q83 0 146 29t105.5 75t66 99.5t27.5 103.5l7 117h-338v154l561 -2v-748h-155v212q-38 -59 -95 -112t-140 -86.5t-198 -33.5z" />
    <glyph glyph-name="H" unicode="H" horiz-adv-x="1534" 
d="M183 0v1446h214v-606h740v606h214v-1446h-214v654h-740v-654h-214z" />
    <glyph glyph-name="I" unicode="I" horiz-adv-x="580" 
d="M183 0v1446h214v-1446h-214z" />
    <glyph glyph-name="J" unicode="J" horiz-adv-x="784" 
d="M313 -20q-74 0 -143 16t-95 25l11 202q31 -10 70.5 -24.5t96.5 -14.5q98 0 134 54t36 179v1029h215v-1088q0 -122 -27.5 -206.5t-97.5 -128t-200 -43.5z" />
    <glyph glyph-name="K" unicode="K" horiz-adv-x="1383" 
d="M183 0v1446h223v-725l615 725h252l-472 -566l516 -880h-238l-433 724l-240 -279v-445h-223z" />
    <glyph glyph-name="L" unicode="L" horiz-adv-x="1155" 
d="M183 0l1 1446h217v-1258h668v-188h-886z" />
    <glyph glyph-name="M" unicode="M" horiz-adv-x="1788" 
d="M183 0v1446h302l407 -1150l413 1150h300v-1446h-219v1152l-400 -1152h-187l-398 1143v-1143h-218z" />
    <glyph glyph-name="N" unicode="N" horiz-adv-x="1523" 
d="M183 0v1446h207l736 -1078v1078h215v-1446h-192l-752 1101v-1101h-214z" />
    <glyph glyph-name="O" unicode="O" horiz-adv-x="1482" 
d="M744 -20q-197 0 -340.5 87.5t-221 253t-77.5 399.5q0 236 78.5 402.5t222 255t338.5 88.5q194 0 336.5 -88.5t220 -255t77.5 -402.5q0 -234 -77 -399t-219.5 -253t-337.5 -88zM744 163q126 0 215.5 58t136.5 181t47 315q0 197 -47.5 322t-137 184.5t-214.5 59.5
t-215.5 -60t-139.5 -185t-49 -321q0 -193 49 -315.5t139.5 -180.5t215.5 -58z" />
    <glyph glyph-name="P" unicode="P" horiz-adv-x="1282" 
d="M183 0v1446h501q155 0 277.5 -53t193 -156t70.5 -253q0 -144 -64.5 -245.5t-180 -155t-267.5 -53.5h-312v-530h-218zM400 705h307q138 0 225 79.5t87 211.5q0 134 -90 205.5t-230 71.5h-299v-568z" />
    <glyph glyph-name="Q" unicode="Q" horiz-adv-x="1509" 
d="M1368 -243q-77 0 -157 17t-156.5 68.5t-142.5 154.5q-50 -8 -89.5 -12.5t-79.5 -4.5q-195 0 -338 86t-221.5 251.5t-78.5 402.5t78 403.5t221 254.5t339 88q195 0 338 -88t220 -254.5t77 -403.5q0 -217 -64.5 -374.5t-205.5 -255.5q33 -75 103.5 -113.5t156.5 -41.5v-178
zM743 163q191 0 296.5 132.5t105.5 422.5t-104.5 427.5t-297.5 137.5t-297.5 -138t-104.5 -429q0 -289 105.5 -421t296.5 -132z" />
    <glyph glyph-name="R" unicode="R" horiz-adv-x="1363" 
d="M183 0v1446h574q161 0 267 -49.5t158 -140.5t52 -215q0 -117 -39.5 -195t-102 -127t-131.5 -77l280 -642h-225l-256 605h-363v-605h-214zM397 778h302q151 0 234 65.5t83 187.5q0 120 -75.5 182t-204.5 62h-339v-497z" />
    <glyph glyph-name="S" unicode="S" horiz-adv-x="1352" 
d="M687 -20q-106 0 -203.5 26t-177 77.5t-131 128.5t-64.5 180h223q17 -78 67.5 -131t127 -80t169.5 -27q86 0 159 27t118 78t45 125q0 83 -55.5 131.5t-166.5 77.5l-290 72q-105 25 -185 71.5t-124 123t-44 189.5q0 126 69.5 219.5t189 144.5t270.5 51q173 0 291.5 -59
t180 -155.5t62.5 -209.5h-218q-9 92 -54.5 146.5t-115 78.5t-153.5 24q-148 0 -222.5 -65.5t-74.5 -155.5q0 -83 54.5 -131t161.5 -74l280 -69q132 -29 211.5 -86.5t114.5 -135t35 -169.5q0 -123 -69 -218.5t-192.5 -150t-288.5 -54.5z" />
    <glyph glyph-name="T" unicode="T" horiz-adv-x="1199" 
d="M502 0v1251h-458v195h1111v-195h-437v-1251h-216z" />
    <glyph glyph-name="U" unicode="U" horiz-adv-x="1414" 
d="M725 -20q-194 0 -313.5 64t-174 187t-54.5 300v915h221v-942q0 -172 84.5 -255.5t236.5 -83.5q101 0 174.5 36.5t112.5 112t39 190.5v942h217v-932q0 -169 -56 -288.5t-175.5 -182.5t-311.5 -63z" />
    <glyph glyph-name="V" unicode="V" horiz-adv-x="1362" 
d="M555 0l-511 1446h209l428 -1201l427 1201h210l-511 -1446h-252z" />
    <glyph glyph-name="W" unicode="W" horiz-adv-x="1915" 
d="M463 0l-419 1446h214l306 -1098l310 1098h164l310 -1098l310 1098h213l-423 -1446h-188l-305 1073l-309 -1073h-183z" />
    <glyph glyph-name="X" unicode="X" horiz-adv-x="1392" 
d="M75 0l488 737l-471 709h264l341 -529l338 529h232l-457 -685l507 -761h-266l-373 576l-368 -576h-235z" />
    <glyph glyph-name="Y" unicode="Y" horiz-adv-x="1247" 
d="M518 0v614l-496 832h234l370 -643l365 643h234l-493 -833v-613h-214z" />
    <glyph glyph-name="Z" unicode="Z" horiz-adv-x="1292" 
d="M122 0v113l776 1149h-738v184h1040v-108l-784 -1152h779v-186h-1073z" />
    <glyph glyph-name="bracketleft" unicode="[" horiz-adv-x="625" 
d="M172 -322l-1 1768h396v-131h-212l-1 -1505h212v-132h-394z" />
    <glyph glyph-name="backslash" unicode="\" horiz-adv-x="718" 
d="M527 -66l-501 1512h160l502 -1512h-161z" />
    <glyph glyph-name="bracketright" unicode="]" horiz-adv-x="625" 
d="M59 -322v132h212l-1 1505h-212v131h396l-1 -1768h-394z" />
    <glyph glyph-name="asciicircum" unicode="^" horiz-adv-x="952" 
d="M694 253l-225 565l-227 -563h-158l301 727q19 45 51 61.5t64.5 2t52.5 -62.5l302 -730h-161z" />
    <glyph glyph-name="underscore" unicode="_" horiz-adv-x="1054" 
d="M121 -248v163l808 1v-163z" />
    <glyph glyph-name="grave" unicode="`" horiz-adv-x="462" 
d="M290 1155l-280 291h236l206 -291h-162z" />
    <glyph glyph-name="a" unicode="a" horiz-adv-x="1113" 
d="M440 -20q-100 0 -177.5 36t-121.5 104t-44 164q0 172 121.5 257t389.5 90l170 5v75q0 89 -53 140t-164 50q-82 0 -147 -38t-85 -125h-185q6 103 59.5 173.5t147.5 106.5t220 36q142 0 233 -38.5t135.5 -112.5t44.5 -180v-723h-182l-16 190q-58 -119 -147 -164.5
t-199 -45.5zM507 129q49 0 97 17.5t87 48t62.5 68.5t24.5 78v171l-140 -3q-107 -1 -181.5 -22t-114 -65t-39.5 -117q0 -83 57.5 -129.5t146.5 -46.5z" />
    <glyph glyph-name="b" unicode="b" horiz-adv-x="1200" 
d="M674 -20q-87 0 -148 23t-100.5 59t-62 76t-34.5 74l-23 -212h-161v1486h216v-609q14 27 41.5 58t69 58t96.5 44t124 17q193 0 306.5 -136t113.5 -396q0 -164 -49 -285.5t-146.5 -189t-242.5 -67.5zM632 141q118 0 192.5 92t74.5 296q0 176 -69.5 269t-200.5 93
q-94 0 -153 -41.5t-86.5 -122.5t-28.5 -198q0 -207 64 -297.5t207 -90.5z" />
    <glyph glyph-name="c" unicode="c" horiz-adv-x="1089" 
d="M570 -20q-140 0 -249 61.5t-171 181t-62 290.5q0 161 57.5 283t165.5 190t259 68q117 0 207 -45.5t146.5 -126.5t68.5 -189h-186q-8 51 -38 95t-79 70.5t-117 26.5q-125 0 -203 -91t-78 -279q0 -172 73 -274t211 -102q68 0 117 28t78.5 72t37.5 91h182
q-12 -104 -68.5 -183t-146.5 -123t-205 -44z" />
    <glyph glyph-name="d" unicode="d" horiz-adv-x="1200" 
d="M526 -20q-203 0 -320.5 139.5t-117.5 402.5q0 161 47.5 280.5t140.5 185.5t232 66q69 0 124 -17t96 -44t69 -58t42 -58v609h216v-1486h-161l-24 212q-11 -34 -33.5 -74t-62 -76t-100.5 -59t-148 -23zM567 141q144 0 208 90.5t64 297.5q-1 117 -28.5 198t-86 122.5
t-153.5 41.5q-119 0 -194.5 -85.5t-75.5 -276.5q0 -188 68.5 -288t197.5 -100z" />
    <glyph glyph-name="e" unicode="e" horiz-adv-x="1139" 
d="M593 -20q-147 0 -259 63.5t-174.5 181.5t-62.5 281q0 161 57 284.5t165 193.5t260 70q149 0 252 -64t156 -179.5t53 -272.5v-71h-728q-1 -93 30 -166.5t92.5 -116t153.5 -42.5q93 0 160.5 42t88.5 125h198q-18 -106 -85 -180t-161 -111.5t-196 -37.5zM312 606h524
q0 81 -28 147.5t-85.5 105t-144.5 38.5q-89 0 -148 -43t-88.5 -110t-29.5 -138z" />
    <glyph glyph-name="f" unicode="f" horiz-adv-x="792" 
d="M277 0v880h-211v154h211v157q0 124 65.5 189.5t193.5 65.5h207l1 -148h-150q-61 0 -83.5 -32.5t-22.5 -99.5v-132h246v-154h-242v-880h-215z" />
    <glyph glyph-name="g" unicode="g" horiz-adv-x="1248" 
d="M594 -342q-252 0 -390 70.5t-138 196.5q0 55 26.5 93.5t63 63.5t67.5 39.5t40 20.5q-17 10 -43.5 25.5t-47.5 42t-21 69.5q0 50 47.5 92.5t143.5 62.5q-94 46 -146 124t-52 166q0 101 57 174.5t160.5 112.5t243.5 39q103 0 171.5 -23t126.5 -64q19 7 54.5 21.5t77.5 31.5
t80.5 33t62.5 26l-1 -186l-180 -33q14 -30 22.5 -66t8.5 -66q0 -90 -49 -165.5t-147 -120.5t-245 -45q-14 0 -36 0.5t-37 2.5q-93 -3 -128 -21.5t-35 -40.5q0 -28 45 -38t148 -17q37 -3 94.5 -6t127.5 -8q170 -10 259.5 -85t89.5 -199q0 -142 -129 -232.5t-392 -90.5z
M631 -211q137 0 207 39.5t70 117.5q0 58 -45 95t-135 43l-276 18q-41 2 -81.5 -18t-66.5 -55.5t-26 -78.5q0 -78 86 -119.5t267 -41.5zM593 524q104 0 167.5 50.5t63.5 145.5q0 98 -63.5 151.5t-167.5 53.5q-105 0 -169.5 -54t-64.5 -151q0 -92 61.5 -144t172.5 -52z" />
    <glyph glyph-name="h" unicode="h" horiz-adv-x="1162" 
d="M145 0v1486h211v-603q25 41 67.5 78t104 60.5t143.5 23.5q101 0 182.5 -37.5t130 -108t48.5 -167.5v-732h-214v693q0 87 -60 134t-154 47q-63 0 -119.5 -21.5t-91 -64t-34.5 -106.5v-682h-214z" />
    <glyph glyph-name="i" unicode="i" horiz-adv-x="505" 
d="M150 0v1034h206v-1034h-206zM145 1234v211h215v-211h-215z" />
    <glyph glyph-name="j" unicode="j" horiz-adv-x="539" 
d="M88 -332q-83 0 -106.5 12.5l-23.5 12.5v143l96 6q67 6 94.5 36t27.5 96v1060h214v-1066q0 -151 -68 -225.5t-234 -74.5zM170 1234v211h224v-211h-224z" />
    <glyph glyph-name="k" unicode="k" horiz-adv-x="1133" 
d="M145 0v1486h214v-945l457 493h240l-374 -399l396 -635h-222l-311 499l-186 -193v-306h-214z" />
    <glyph glyph-name="l" unicode="l" horiz-adv-x="620" 
d="M425 -14q-92 0 -147.5 24t-84.5 64.5t-38.5 92t-9.5 106.5v1213h211v-1191q0 -72 28.5 -110t87.5 -43l54 -2v-136q-25 -8 -51.5 -13t-49.5 -5z" />
    <glyph glyph-name="m" unicode="m" horiz-adv-x="1746" 
d="M145 0v1034h208v-149q44 68 120 118.5t196 50.5q56 0 113.5 -19t106 -56.5t76.5 -92.5q49 74 131 121t184 47q55 0 114 -17.5t109.5 -59t82 -114.5t31.5 -185v-678h-215v655q0 85 -28.5 133t-74 67.5t-96.5 19.5q-46 0 -96 -18t-85 -60t-35 -114v-683h-214v701
q0 57 -30.5 96t-76 58.5t-90.5 19.5q-50 0 -100 -20t-83.5 -62.5t-33.5 -109.5v-683h-214z" />
    <glyph glyph-name="n" unicode="n" horiz-adv-x="1163" 
d="M145 0v1034h209v-149q25 42 67.5 79t105 60t144.5 23q97 0 179.5 -38.5t132.5 -120t50 -210.5v-678h-214v655q0 111 -59.5 165t-153.5 54q-63 0 -120 -21t-92 -63.5t-35 -106.5v-683h-214z" />
    <glyph glyph-name="o" unicode="o" horiz-adv-x="1136" 
d="M569 -20q-145 0 -253 62.5t-168 181.5t-60 288q0 163 57 285t164.5 189.5t260.5 67.5q146 0 253 -63.5t166 -185t59 -293.5q0 -157 -55 -277t-161.5 -187.5t-262.5 -67.5zM570 145q89 0 148 46.5t89 131t30 195.5q0 103 -26.5 187.5t-85 134.5t-155.5 50
q-89 0 -149.5 -45.5t-90.5 -129t-30 -197.5q0 -101 27 -186t86.5 -136t156.5 -51z" />
    <glyph glyph-name="p" unicode="p" horiz-adv-x="1197" 
d="M145 -322v1356h214l2 -172q19 34 49 67.5t71.5 62t95 45.5t118.5 17q122 0 215.5 -56.5t146 -173t52.5 -295.5q0 -180 -52.5 -302t-149.5 -184.5t-230 -62.5q-64 0 -115 18t-90 47.5t-66.5 64t-45.5 68.5v-500h-215zM632 143q119 0 195.5 92.5t76.5 289.5
q0 169 -70.5 267.5t-201.5 98.5q-135 0 -204 -102.5t-69 -263.5q0 -105 30.5 -191.5t91.5 -138.5t151 -52z" />
    <glyph glyph-name="q" unicode="q" horiz-adv-x="1197" 
d="M837 -322v500q-18 -34 -45.5 -68.5t-66.5 -64t-90 -47.5t-115 -18q-122 0 -220 57t-155 178.5t-57 313.5q0 168 48.5 285.5t141.5 178.5t224 61q66 0 119 -17t95 -45.5t71.5 -62t48.5 -67.5l3 172h213v-1356h-215zM565 143q91 0 152 52t91.5 138.5t30.5 191.5
q0 161 -68.5 263.5t-205.5 102.5q-118 0 -195 -91t-77 -275q0 -181 71 -281.5t201 -100.5z" />
    <glyph glyph-name="r" unicode="r" horiz-adv-x="793" 
d="M145 0v1034h205v-212q26 76 72.5 127.5t108.5 78t131 26.5q21 0 40 -2.5t30 -8.5v-206q-13 6 -33.5 8t-35.5 3q-68 5 -124 -7t-96.5 -40t-62 -73t-21.5 -106v-622h-214z" />
    <glyph glyph-name="s" unicode="s" horiz-adv-x="1023" 
d="M530 -20q-108 0 -202.5 34t-158 107t-79.5 187h191q13 -59 49.5 -97.5t88 -57t110.5 -18.5q98 0 159 35.5t61 109.5q0 53 -33 85t-103 47l-206 49q-128 30 -205 95.5t-78 183.5q0 91 45.5 162t136 111.5t223.5 40.5q175 0 281.5 -78t109.5 -226h-185q-10 71 -64.5 111.5
t-143.5 40.5q-92 0 -151 -36.5t-59 -111.5q0 -51 43.5 -80.5t128.5 -48.5l196 -49q76 -20 125 -52.5t77 -71.5t39.5 -81t11.5 -79q0 -98 -49.5 -167.5t-140.5 -107t-218 -37.5z" />
    <glyph glyph-name="t" unicode="t" horiz-adv-x="793" 
d="M542 -7q-115 0 -178 31t-88 89.5t-25 141.5v625h-168v154h175l52 304h156v-303h232v-155h-232l1 -617q0 -51 10.5 -74.5t36 -30t69.5 -6.5h120v-139q-19 -8 -58.5 -14t-102.5 -6z" />
    <glyph glyph-name="u" unicode="u" horiz-adv-x="1169" 
d="M525 -20q-78 1 -149 23t-126.5 66t-88 109t-32.5 151v705h215v-682q0 -93 58 -151t175 -58q106 0 170 55.5t64 162.5v673h213v-1034h-166l-24 200q-18 -81 -64.5 -129.5t-110 -70t-134.5 -20.5z" />
    <glyph glyph-name="v" unicode="v" horiz-adv-x="1018" 
d="M420 0l-378 1034h198l262 -763h14l262 763h198l-376 -1034h-180z" />
    <glyph glyph-name="w" unicode="w" horiz-adv-x="1564" 
d="M370 0l-324 1034h195l226 -753h14l221 753h159l228 -751h14l218 751h198l-321 -1034h-196l-224 726l-215 -726h-193z" />
    <glyph glyph-name="x" unicode="x" horiz-adv-x="1142" 
d="M55 0l398 538l-365 496h230l254 -343l254 343h230l-368 -496l399 -538h-230l-286 387l-285 -387h-231z" />
    <glyph glyph-name="y" unicode="y" horiz-adv-x="1085" 
d="M264 -330q-95 0 -131.5 14l-36.5 14v138l105 -2q60 -3 99 7t61.5 27.5t34 37.5t17.5 37l32 87l-403 1004h214l290 -764l289 764h209l-431 -1092q-44 -108 -96.5 -167t-115.5 -82t-137 -23z" />
    <glyph glyph-name="z" unicode="z" horiz-adv-x="970" 
d="M73 0v128l563 751h-538v155h795v-128l-564 -751h568v-155h-824z" />
    <glyph glyph-name="braceleft" unicode="{" horiz-adv-x="686" 
d="M520 -322q-79 0 -141 26t-98 74.5t-36 117.5v425q0 47 -24 89.5t-74.5 69.5t-127.5 27v121q118 1 172 54t54 140v411q0 68 37 115.5t98.5 72.5t135.5 25h113v-131h-76q-53 0 -79.5 -12.5t-35.5 -36t-9 -54.5v-418q-2 -73 -31.5 -120t-75 -71t-94.5 -29q-12 -1 -12.5 -6
t12.5 -7q48 -4 93.5 -25.5t75.5 -69.5t32 -129v-421q0 -55 26 -80.5t99 -25.5h75v-132h-109z" />
    <glyph glyph-name="bar" unicode="|" horiz-adv-x="529" 
d="M184 -322l-1 1974h163v-1974h-162z" />
    <glyph glyph-name="braceright" unicode="}" horiz-adv-x="692" 
d="M36 -322v132h75q73 0 99 25.5t26 80.5v421q1 81 31 129t76 69.5t94 25.5q14 2 13 7t-13 6q-49 5 -94.5 29t-75.5 71t-31 120v418q0 31 -9 54.5t-36 36t-79 12.5h-76v131h113q74 0 135.5 -25t98.5 -72.5t37 -115.5v-411q0 -87 54 -140t172 -54v-121q-78 0 -127.5 -27
t-74 -69.5t-24.5 -89.5v-425q0 -69 -36 -117.5t-98.5 -74.5t-140.5 -26h-109z" />
    <glyph glyph-name="asciitilde" unicode="~" horiz-adv-x="1160" 
d="M177 591l-61 117q61 61 125.5 104.5t156.5 43.5q59 0 105.5 -17t88.5 -38.5t84.5 -38t91.5 -16.5q74 0 123 36.5t81 83.5l64 -117q-40 -66 -108.5 -106t-156.5 -40q-60 0 -107 16.5t-88.5 38.5t-83.5 38.5t-93 16.5q-76 0 -128 -38t-94 -84z" />
    <glyph glyph-name="uni00A0" unicode="&#xa0;" horiz-adv-x="476" 
 />
    <glyph glyph-name="exclamdown" unicode="&#xa1;" horiz-adv-x="520" 
d="M126 -322l59 965h139l57 -965h-255zM129 779v255h247v-255h-247z" />
    <glyph glyph-name="cent" unicode="&#xa2;" horiz-adv-x="1095" 
d="M588 202q-141 0 -250 61.5t-170.5 181t-61.5 290.5q0 161 57 283t165.5 190t259.5 68q116 0 206.5 -45.5t146.5 -126.5t68 -189h-185q-9 51 -38.5 95t-79 70.5t-117.5 26.5q-124 0 -202 -91t-78 -279q0 -172 72.5 -274t211.5 -102q67 0 116.5 28t78.5 72t37 91h182
q-11 -104 -67.5 -183t-147 -123t-204.5 -44zM508 0v300h152v-300h-152zM508 1146v300h152v-300h-152z" />
    <glyph glyph-name="sterling" unicode="&#xa3;" horiz-adv-x="1245" 
d="M33 0v182h73q76 0 127 60.5t51 194.5q0 50 -5 106.5t-17 141.5h-203v130h178l-27 169q-21 115 5.5 204t88 151t146.5 94.5t180 32.5q99 0 184 -32t147.5 -88.5t93.5 -130.5l-189 -63q-33 69 -80 102.5t-126 33.5q-61 0 -110 -24.5t-78 -71t-29 -112.5q0 -53 11.5 -121.5
t31.5 -142.5h314v-130h-296q9 -70 11 -120.5t-4 -103.5q-5 -78 -23.5 -131.5t-43.5 -88t-49 -58.5h326q101 0 158 36t91 126l183 -45q-47 -150 -151.5 -225.5t-266.5 -75.5h-702z" />
    <glyph glyph-name="currency" unicode="&#xa4;" horiz-adv-x="1100" 
d="M193 278l-98 103l123 121q-35 51 -52 105.5t-17 119.5q0 118 60 209q9 17 -3 29l-110 111l99 101l124 -126q48 34 106 52.5t117 18.5q119 0 214 -63q14 -8 24 2l108 109l98 -101l-119 -118q34 -49 52.5 -105t18.5 -118q0 -57 -15.5 -112.5t-47.5 -99.5q-7 -12 1 -20
l112 -108l-98 -101l-119 118q-49 -34 -106 -53.5t-119 -19.5q-118 0 -214 61q-16 11 -28 -3zM546 486q69 0 123.5 33.5t86 88.5t31.5 120q0 64 -31.5 119t-86 89t-123.5 34t-124 -34t-86.5 -89t-31.5 -119q0 -65 31.5 -120t86.5 -88.5t124 -33.5z" />
    <glyph glyph-name="yen" unicode="&#xa5;" horiz-adv-x="1249" 
d="M508 0v604l-504 842h278l367 -639l368 639h228l-493 -808v-638h-244zM205 255v127l851 1v-127zM205 553v128l851 2v-129z" />
    <glyph glyph-name="brokenbar" unicode="&#xa6;" horiz-adv-x="529" 
d="M184 847l-1 805h163v-805h-162zM184 -322l-1 806h163v-806h-162z" />
    <glyph glyph-name="section" unicode="&#xa7;" horiz-adv-x="993" 
d="M507 -147q-103 0 -190 30.5t-151.5 83t-97.5 118.5l138 71q44 -66 118.5 -113.5t181.5 -47.5q91 0 150 34.5t59 99.5q0 47 -38 88.5t-145 83.5l-167 63q-145 56 -209 127.5t-64 172.5q0 93 53 159t137 102q-72 40 -111.5 80.5t-54.5 83.5t-15 89q0 82 46.5 147t132.5 103
t203 38q94 0 172 -29.5t135 -77t89 -101.5l-138 -72q-45 56 -106 97t-143 41q-92 0 -143.5 -34.5t-51.5 -92.5q0 -41 33.5 -77t109.5 -67l163 -64q160 -63 230.5 -139.5t70.5 -185.5q0 -97 -50.5 -157t-123.5 -100q91 -51 136.5 -111t45.5 -143q0 -87 -48.5 -154.5
t-139 -106.5t-217.5 -39zM556 485q47 -4 84.5 16t59.5 55.5t20 78.5q-3 55 -36.5 96.5t-129.5 78.5l-103 40q-52 -4 -92 -26.5t-63 -57.5t-23 -73q0 -50 33 -84.5t136 -76.5z" />
    <glyph glyph-name="dieresis" unicode="&#xa8;" horiz-adv-x="638" 
d="M420 1251l2 195h206l-2 -195h-206zM10 1251l2 195h206l-2 -195h-206z" />
    <glyph glyph-name="copyright" unicode="&#xa9;" horiz-adv-x="1641" 
d="M816 -20q-154 0 -288.5 57.5t-237 159.5t-160 237t-57.5 290q0 153 57.5 287.5t160 236.5t237 160t288.5 58t288.5 -58t236.5 -160t160 -236.5t58 -287.5q0 -155 -58 -290t-160 -237t-236.5 -159.5t-288.5 -57.5zM821 312q-114 0 -201.5 52t-136.5 145.5t-49 216.5
q0 124 50 218.5t137.5 147.5t199.5 53q88 0 153.5 -34t110.5 -87t72 -112l-155 -29q-29 59 -70 98t-104 39q-94 0 -154 -76t-60 -214q0 -141 61.5 -217t159.5 -76q74 0 124.5 41.5t84.5 106.5l115 -37q-18 -40 -47.5 -81.5t-71 -76.5t-96 -56.5t-123.5 -21.5zM816 115
q125 0 233.5 43t190.5 122.5t128 192t46 251.5q0 138 -46 250t-128 192.5t-190.5 124t-233.5 43.5q-127 0 -236 -43.5t-190.5 -124t-126.5 -192.5t-45 -250q0 -139 45 -251.5t126.5 -192t190.5 -122.5t236 -43z" />
    <glyph glyph-name="ordfeminine" unicode="&#xaa;" horiz-adv-x="817" 
d="M313 793q-104 0 -160 49t-56 132q0 96 86 153.5t243 65.5l101 8v46q0 64 -38 89.5t-95 25.5q-48 0 -86 -19t-69 -73l-126 32q36 78 104.5 119.5t183.5 41.5q141 -1 203.5 -58t62.5 -156v-136v-103q0 -14 1 -38.5t2.5 -51t4.5 -47.5l13 -68h-146l-16 80
q-54 -47 -102 -69.5t-111 -22.5zM364 891q71 0 121 45q19 18 30.5 35t11.5 39v104l-84 -6q-98 -6 -149 -39t-51 -87q0 -41 33 -66t88 -25z" />
    <glyph glyph-name="guillemotleft" unicode="&#xab;" horiz-adv-x="934" 
d="M702 137l-256 365l256 381h120l-191 -381l189 -365h-118zM341 137l-255 365l255 381h120l-191 -381l189 -365h-118z" />
    <glyph glyph-name="logicalnot" unicode="&#xac;" horiz-adv-x="1128" 
d="M121 645v163l886 1v-163zM830 355l-2 402h179v-402h-177z" />
    <glyph glyph-name="uni00AD" unicode="&#xad;" horiz-adv-x="763" 
d="M123 433v164l518 1v-163z" />
    <glyph glyph-name="registered" unicode="&#xae;" horiz-adv-x="1085" 
d="M539 536q-130 0 -235.5 62t-168 167.5t-62.5 234.5t62.5 235t168 168.5t235.5 62.5q128 0 233.5 -62.5t168 -168.5t62.5 -235t-62.5 -234.5t-168 -167.5t-233.5 -62zM539 635q106 0 187 45t126 127t45 193t-45 193.5t-126 128t-187 45.5q-108 0 -189 -45.5t-126 -128
t-45 -193.5t45 -193t126 -127t189 -45zM358 767v461h210q78 0 121 -30t43 -89q0 -51 -29 -80.5t-66 -43.5l90 -218h-103l-75 209h-97v-209h-94zM452 1048h108q31 0 53 12t22 42q0 24 -18 39.5t-63 15.5h-102v-109z" />
    <glyph glyph-name="macron" unicode="&#xaf;" horiz-adv-x="691" 
d="M29 1227v146h625v-146h-625z" />
    <glyph glyph-name="degree" unicode="&#xb0;" horiz-adv-x="932" 
d="M462 1033q-93 0 -165 40.5t-113 113t-41 165.5t41 166t113 114t165 41q91 0 163 -41t114 -114t42 -166t-42 -165.5t-114 -113t-163 -40.5zM460 1162q82 0 130 52.5t48 135.5t-48 135t-132 52q-82 0 -131 -52t-48 -135q2 -83 50 -135.5t131 -52.5z" />
    <glyph glyph-name="plusminus" unicode="&#xb1;" horiz-adv-x="1128" 
d="M121 104v162l886 1v-162zM646 966l361 1v-163h-361v-361h-162v361l-363 -1v162l363 1l-1 362h163v-362z" />
    <glyph glyph-name="uni00B2" unicode="&#xb2;" horiz-adv-x="747" 
d="M63 747v79v39q0 82 34.5 138t89 96.5t115.5 72.5t115.5 63.5t89 72t34.5 96.5q0 65 -45 104.5t-122 39.5q-79 0 -132 -45t-61 -132h-136q0 82 38 149.5t112 108t184 40.5q142 0 225 -72.5t83 -191.5q0 -81 -34 -136.5t-87 -94t-113 -69t-113.5 -60.5t-87 -68.5
t-33.5 -94.5v-12h472v-123h-628z" />
    <glyph glyph-name="uni00B3" unicode="&#xb3;" horiz-adv-x="816" 
d="M393 736q-150 1 -238.5 78.5t-90.5 204.5h138q12 -82 65 -123.5t129 -41.5q95 0 150.5 42t55.5 108q0 70 -56.5 112.5t-153.5 43.5l-84 2v117l79 2q55 2 98 21.5t68.5 51.5t25.5 72q0 54 -48.5 91.5t-133.5 37.5q-47 0 -89 -18t-69 -55t-28 -97h-137q0 89 42.5 152.5
t116 97.5t165.5 34q97 0 171 -27t116.5 -80t42.5 -131q0 -67 -40.5 -119.5t-124.5 -83.5q82 -23 135.5 -79t53.5 -147q0 -85 -47.5 -145t-128.5 -91t-183 -30z" />
    <glyph glyph-name="acute" unicode="&#xb4;" horiz-adv-x="462" 
d="M10 1155l206 291h235l-280 -291h-161z" />
    <glyph glyph-name="uni00B5" unicode="&#xb5;" horiz-adv-x="1181" 
d="M129 -330v1390h220v-705q0 -47 26 -85.5t70.5 -61t98.5 -22.5q78 0 146 45t124 120v709h222l-3 -1060h-213v164q-78 -69 -138.5 -102.5t-129.5 -38.5q-56 -4 -107 6.5t-96 41.5v-401h-220z" />
    <glyph glyph-name="paragraph" unicode="&#xb6;" horiz-adv-x="1140" 
d="M506 -166v762q-123 5 -217.5 59t-147.5 146t-53 211q0 113 52 212.5t154.5 160.5t254.5 61h462v-128h-123v-1484h-138v1484h-105v-1484h-139z" />
    <glyph glyph-name="periodcentered" unicode="&#xb7;" horiz-adv-x="475" 
d="M107 609v239h248v-239h-248z" />
    <glyph glyph-name="cedilla" unicode="&#xb8;" horiz-adv-x="485" 
d="M226 -415q-56 0 -106.5 12t-94.5 39l33 83q28 -19 63 -33.5t79 -14.5q53 0 79.5 18.5t26.5 51.5q0 43 -37.5 64t-125.5 23q-10 0 -13.5 3t0.5 12l73 167h106l-46 -120q70 -2 110.5 -25t57.5 -56.5t17 -67.5q0 -50 -30.5 -85t-81 -53t-110.5 -18z" />
    <glyph glyph-name="uni00B9" unicode="&#xb9;" horiz-adv-x="488" 
d="M216 744v708h-171v89q118 -1 164.5 26.5t50.5 86.5h100v-910h-144z" />
    <glyph glyph-name="ordmasculine" unicode="&#xba;" horiz-adv-x="811" 
d="M405 795q-98 0 -169 42.5t-109.5 117.5t-38.5 172q0 101 40 177t111.5 118.5t165.5 42.5q97 0 168 -43t110 -119t39 -176q0 -97 -38 -172t-109.5 -117.5t-169.5 -42.5zM405 899q83 0 124 61t41 172q0 108 -41 168t-124 60q-82 0 -123 -60t-41 -168q0 -111 41 -172
t123 -61z" />
    <glyph glyph-name="guillemotright" unicode="&#xbb;" horiz-adv-x="975" 
d="M485 137l190 365l-192 381h120l254 -381l-254 -365h-118zM125 137l189 365l-191 381h119l254 -381l-254 -365h-117z" />
    <glyph glyph-name="onequarter" unicode="&#xbc;" horiz-adv-x="1605" 
d="M216 536v708h-171v89q118 -1 164.5 26.5t50.5 86.5h100v-910h-144zM352 -8l-138 2l976 1468h134zM1277 2v222h-422v121l419 566h139v-566h147v-121h-147v-222h-136zM989 345h287v385z" />
    <glyph glyph-name="onehalf" unicode="&#xbd;" horiz-adv-x="1752" 
d="M216 536v708h-171v89q118 -1 164.5 26.5t50.5 86.5h100v-910h-144zM352 -8l-138 2l976 1468h134zM1068 -1v79v39q0 82 34.5 138t89 96.5t115.5 72.5t115.5 63.5t89 72t34.5 96.5q0 65 -45 104.5t-122 39.5q-79 0 -132 -45t-61 -132h-136q0 82 38 149.5t112 108t184 40.5
q142 0 225 -72.5t83 -191.5q0 -81 -34 -136.5t-87 -94t-113 -69t-113.5 -60.5t-87 -68.5t-33.5 -94.5v-12h472v-123h-628z" />
    <glyph glyph-name="threequarters" unicode="&#xbe;" horiz-adv-x="1859" 
d="M393 526q-150 1 -238.5 78.5t-90.5 204.5h138q12 -82 65 -123.5t129 -41.5q95 0 150.5 42t55.5 108q0 70 -56.5 112.5t-153.5 43.5l-84 2v117l79 2q55 2 98 21.5t68.5 51.5t25.5 72q0 54 -48.5 91.5t-133.5 37.5q-47 0 -89 -18t-69 -55t-28 -97h-137q0 89 42.5 152.5
t116 97.5t165.5 34q97 0 171 -27t116.5 -80t42.5 -131q0 -67 -40.5 -119.5t-124.5 -83.5q82 -23 135.5 -79t53.5 -147q0 -85 -47.5 -145t-128.5 -91t-183 -30zM606 -8l-138 2l976 1468h134zM1532 2v222h-422v121l419 566h139v-566h147v-121h-147v-222h-136zM1244 345h287
v385z" />
    <glyph glyph-name="questiondown" unicode="&#xbf;" horiz-adv-x="1050" 
d="M517 -342q-146 0 -247 45.5t-153.5 124t-52.5 177.5q0 83 29 141t73.5 102.5t95 84t95.5 83t73.5 99.5t28.5 133h180q0 -90 -26 -156t-66.5 -115.5t-86.5 -90.5t-86.5 -80.5t-66.5 -85t-26 -105.5q0 -88 66 -141.5t171 -53.5q62 0 122 25t106 68t68 98l188 -52
q-64 -142 -190.5 -221.5t-294.5 -79.5zM426 779v255h248v-255h-248z" />
    <glyph glyph-name="Agrave" unicode="&#xc0;" horiz-adv-x="1429" 
d="M75 0l522 1446h236l521 -1446h-216l-136 379h-573l-137 -379h-217zM482 573h464l-232 665zM637 1567l-280 291h236l206 -291h-162z" />
    <glyph glyph-name="Aacute" unicode="&#xc1;" horiz-adv-x="1429" 
d="M75 0l522 1446h236l521 -1446h-216l-136 379h-573l-137 -379h-217zM482 573h464l-232 665zM626 1567l206 291h235l-280 -291h-161z" />
    <glyph glyph-name="Acircumflex" unicode="&#xc2;" horiz-adv-x="1429" 
d="M75 0l522 1446h236l521 -1446h-216l-136 379h-573l-137 -379h-217zM482 573h464l-232 665zM385 1567l254 234h152l249 -234h-189l-138 133l-150 -133h-178z" />
    <glyph glyph-name="Atilde" unicode="&#xc3;" horiz-adv-x="1429" 
d="M75 0l522 1446h236l521 -1446h-216l-136 379h-573l-137 -379h-217zM482 573h464l-232 665zM443 1624l-38 121q34 33 74 56t100 23q51 0 96 -14t88.5 -28.5t87.5 -14.5q47 0 82 18.5t65 40.5l33 -135q-27 -21 -71.5 -41.5t-108.5 -20.5q-54 0 -96 13.5t-81 26.5t-86 13
q-50 0 -81 -16t-64 -42z" />
    <glyph glyph-name="Adieresis" unicode="&#xc4;" horiz-adv-x="1429" 
d="M75 0l522 1446h236l521 -1446h-216l-136 379h-573l-137 -379h-217zM482 573h464l-232 665zM816 1663l2 195h206l-2 -195h-206zM406 1663l2 195h206l-2 -195h-206z" />
    <glyph glyph-name="Aring" unicode="&#xc5;" horiz-adv-x="1429" 
d="M75 0l522 1446h236l521 -1446h-216l-136 379h-573l-137 -379h-217zM482 573h464l-232 665zM715 1561q-87 0 -147.5 61.5t-60.5 151.5q0 84 61.5 143t146.5 59q59 0 106.5 -27.5t75.5 -74.5t28 -104q0 -88 -60.5 -148.5t-149.5 -60.5zM713 1662q44 0 74.5 32.5t30.5 74.5
q0 46 -30.5 75t-74.5 29q-42 0 -74 -29t-32 -75q0 -42 32 -74.5t74 -32.5z" />
    <glyph glyph-name="AE" unicode="&#xc6;" horiz-adv-x="1985" 
d="M0 0l793 1446h1053l-1 -183h-688v-443h610v-181h-610v-455h712v-184h-956v384h-486l-210 -384h-217zM511 573h402v724z" />
    <glyph glyph-name="Ccedilla" unicode="&#xc7;" horiz-adv-x="1393" 
d="M709 -415q-56 0 -106.5 12t-94.5 39l33 83q28 -19 63 -33.5t79 -14.5q53 0 79.5 18.5t26.5 51.5q0 43 -37.5 64t-124.5 23q-11 0 -14 3t0 12l73 167h106l-46 -120q70 -2 110.5 -25t58 -56.5t17.5 -67.5q0 -50 -31 -85t-81.5 -53t-110.5 -18zM730 -20q-196 0 -336 90.5
t-214.5 258t-74.5 401.5q0 233 74 397.5t214 251.5t337 87q156 0 277 -64t194.5 -172t87.5 -239h-228q-15 82 -57.5 148.5t-112.5 105t-166 38.5q-123 0 -209 -58t-130.5 -181t-44.5 -317q0 -293 99 -428.5t285 -135.5q96 0 166 41.5t112.5 111t57.5 151.5h228
q-12 -95 -50 -182.5t-105.5 -156.5t-167.5 -108.5t-236 -39.5z" />
    <glyph glyph-name="Egrave" unicode="&#xc8;" horiz-adv-x="1249" 
d="M183 0v1446h934l-1 -186h-718v-439h641v-183h-642v-449l737 -1v-188h-951zM574 1567l-280 291h236l206 -291h-162z" />
    <glyph glyph-name="Eacute" unicode="&#xc9;" horiz-adv-x="1249" 
d="M183 0v1446h934l-1 -186h-718v-439h641v-183h-642v-449l737 -1v-188h-951zM564 1567l206 291h235l-280 -291h-161z" />
    <glyph glyph-name="Ecircumflex" unicode="&#xca;" horiz-adv-x="1249" 
d="M183 0v1446h934l-1 -186h-718v-439h641v-183h-642v-449l737 -1v-188h-951zM324 1567l254 234h152l249 -234h-189l-138 133l-150 -133h-178z" />
    <glyph glyph-name="Edieresis" unicode="&#xcb;" horiz-adv-x="1249" 
d="M183 0v1446h934l-1 -186h-718v-439h641v-183h-642v-449l737 -1v-188h-951zM754 1663l2 195h206l-2 -195h-206zM344 1663l2 195h206l-2 -195h-206z" />
    <glyph glyph-name="Igrave" unicode="&#xcc;" horiz-adv-x="580" 
d="M183 0v1446h214v-1446h-214zM213 1567l-280 291h236l206 -291h-162z" />
    <glyph glyph-name="Iacute" unicode="&#xcd;" horiz-adv-x="580" 
d="M183 0v1446h214v-1446h-214zM202 1567l206 291h235l-280 -291h-161z" />
    <glyph glyph-name="Icircumflex" unicode="&#xce;" horiz-adv-x="580" 
d="M183 0v1446h214v-1446h-214zM-38 1567l254 234h152l249 -234h-189l-138 133l-150 -133h-178z" />
    <glyph glyph-name="Idieresis" unicode="&#xcf;" horiz-adv-x="580" 
d="M183 0v1446h214v-1446h-214zM392 1663l2 195h206l-2 -195h-206zM-18 1663l2 195h206l-2 -195h-206z" />
    <glyph glyph-name="Eth" unicode="&#xd0;" horiz-adv-x="1437" 
d="M70 639v166h685v-166h-685zM218 0v1446q8 0 47.5 -0.5t95.5 0t115 0t105 -1.5q265 -4 430.5 -88t243 -241.5t77.5 -383.5q0 -235 -83 -398.5t-253 -248t-432 -84.5h-346zM437 180h129q164 0 285.5 53.5t188.5 174t67 322.5q0 198 -63.5 315.5t-183.5 169t-287 51.5h-136
v-1086z" />
    <glyph glyph-name="Ntilde" unicode="&#xd1;" horiz-adv-x="1523" 
d="M183 0v1446h207l736 -1078v1078h215v-1446h-192l-752 1101v-1101h-214zM490 1624l-38 121q34 33 74 56t100 23q51 0 96 -14t88.5 -28.5t87.5 -14.5q47 0 82 18.5t65 40.5l33 -135q-27 -21 -71.5 -41.5t-108.5 -20.5q-54 0 -96 13.5t-81 26.5t-86 13q-50 0 -81 -16
t-64 -42z" />
    <glyph glyph-name="Ograve" unicode="&#xd2;" horiz-adv-x="1482" 
d="M744 -20q-197 0 -340.5 87.5t-221 253t-77.5 399.5q0 236 78.5 402.5t222 255t338.5 88.5q194 0 336.5 -88.5t220 -255t77.5 -402.5q0 -234 -77 -399t-219.5 -253t-337.5 -88zM744 163q126 0 215.5 58t136.5 181t47 315q0 197 -47.5 322t-137 184.5t-214.5 59.5
t-215.5 -60t-139.5 -185t-49 -321q0 -193 49 -315.5t139.5 -180.5t215.5 -58zM666 1567l-280 291h236l206 -291h-162z" />
    <glyph glyph-name="Oacute" unicode="&#xd3;" horiz-adv-x="1482" 
d="M744 -20q-197 0 -340.5 87.5t-221 253t-77.5 399.5q0 236 78.5 402.5t222 255t338.5 88.5q194 0 336.5 -88.5t220 -255t77.5 -402.5q0 -234 -77 -399t-219.5 -253t-337.5 -88zM744 163q126 0 215.5 58t136.5 181t47 315q0 197 -47.5 322t-137 184.5t-214.5 59.5
t-215.5 -60t-139.5 -185t-49 -321q0 -193 49 -315.5t139.5 -180.5t215.5 -58zM655 1567l206 291h235l-280 -291h-161z" />
    <glyph glyph-name="Ocircumflex" unicode="&#xd4;" horiz-adv-x="1482" 
d="M744 -20q-197 0 -340.5 87.5t-221 253t-77.5 399.5q0 236 78.5 402.5t222 255t338.5 88.5q194 0 336.5 -88.5t220 -255t77.5 -402.5q0 -234 -77 -399t-219.5 -253t-337.5 -88zM744 163q126 0 215.5 58t136.5 181t47 315q0 197 -47.5 322t-137 184.5t-214.5 59.5
t-215.5 -60t-139.5 -185t-49 -321q0 -193 49 -315.5t139.5 -180.5t215.5 -58zM415 1567l254 234h152l249 -234h-189l-138 133l-150 -133h-178z" />
    <glyph glyph-name="Otilde" unicode="&#xd5;" horiz-adv-x="1482" 
d="M744 -20q-197 0 -340.5 87.5t-221 253t-77.5 399.5q0 236 78.5 402.5t222 255t338.5 88.5q194 0 336.5 -88.5t220 -255t77.5 -402.5q0 -234 -77 -399t-219.5 -253t-337.5 -88zM744 163q126 0 215.5 58t136.5 181t47 315q0 197 -47.5 322t-137 184.5t-214.5 59.5
t-215.5 -60t-139.5 -185t-49 -321q0 -193 49 -315.5t139.5 -180.5t215.5 -58zM472 1624l-38 121q34 33 74 56t100 23q51 0 96 -14t88.5 -28.5t87.5 -14.5q47 0 82 18.5t65 40.5l33 -135q-27 -21 -71.5 -41.5t-108.5 -20.5q-54 0 -96 13.5t-81 26.5t-86 13q-50 0 -81 -16
t-64 -42z" />
    <glyph glyph-name="Odieresis" unicode="&#xd6;" horiz-adv-x="1482" 
d="M744 -20q-197 0 -340.5 87.5t-221 253t-77.5 399.5q0 236 78.5 402.5t222 255t338.5 88.5q194 0 336.5 -88.5t220 -255t77.5 -402.5q0 -234 -77 -399t-219.5 -253t-337.5 -88zM744 163q126 0 215.5 58t136.5 181t47 315q0 197 -47.5 322t-137 184.5t-214.5 59.5
t-215.5 -60t-139.5 -185t-49 -321q0 -193 49 -315.5t139.5 -180.5t215.5 -58zM845 1663l2 195h206l-2 -195h-206zM435 1663l2 195h206l-2 -195h-206z" />
    <glyph glyph-name="multiply" unicode="&#xd7;" horiz-adv-x="1100" 
d="M238 300l-115 116l738 740l116 -115zM861 300l-740 739l115 115l741 -738z" />
    <glyph glyph-name="Oslash" unicode="&#xd8;" horiz-adv-x="1515" 
d="M160 -27l-107 107l169 183q-51 88 -78.5 202t-27.5 253q0 236 78 403t221 256t339 89q135 0 244.5 -42.5t190.5 -125.5l162 173l107 -105l-175 -190q52 -88 79 -203t27 -253q0 -234 -77 -399.5t-220 -253t-339 -87.5q-135 0 -244.5 41.5t-188.5 120.5zM755 160
q174 0 265 113.5t100 351.5q5 96 -2.5 185t-28.5 172l-621 -687q94 -135 287 -135zM415 457l623 688q-46 73 -117 108t-167 35q-176 0 -270 -121t-103 -371q-4 -93 5 -178t29 -161z" />
    <glyph glyph-name="Ugrave" unicode="&#xd9;" horiz-adv-x="1414" 
d="M725 -20q-194 0 -313.5 64t-174 187t-54.5 300v915h221v-942q0 -172 84.5 -255.5t236.5 -83.5q101 0 174.5 36.5t112.5 112t39 190.5v942h217v-932q0 -169 -56 -288.5t-175.5 -182.5t-311.5 -63zM649 1567l-280 291h236l206 -291h-162z" />
    <glyph glyph-name="Uacute" unicode="&#xda;" horiz-adv-x="1414" 
d="M725 -20q-194 0 -313.5 64t-174 187t-54.5 300v915h221v-942q0 -172 84.5 -255.5t236.5 -83.5q101 0 174.5 36.5t112.5 112t39 190.5v942h217v-932q0 -169 -56 -288.5t-175.5 -182.5t-311.5 -63zM638 1567l206 291h235l-280 -291h-161z" />
    <glyph glyph-name="Ucircumflex" unicode="&#xdb;" horiz-adv-x="1414" 
d="M725 -20q-194 0 -313.5 64t-174 187t-54.5 300v915h221v-942q0 -172 84.5 -255.5t236.5 -83.5q101 0 174.5 36.5t112.5 112t39 190.5v942h217v-932q0 -169 -56 -288.5t-175.5 -182.5t-311.5 -63zM398 1567l254 234h152l249 -234h-189l-138 133l-150 -133h-178z" />
    <glyph glyph-name="Udieresis" unicode="&#xdc;" horiz-adv-x="1414" 
d="M725 -20q-194 0 -313.5 64t-174 187t-54.5 300v915h221v-942q0 -172 84.5 -255.5t236.5 -83.5q101 0 174.5 36.5t112.5 112t39 190.5v942h217v-932q0 -169 -56 -288.5t-175.5 -182.5t-311.5 -63zM828 1663l2 195h206l-2 -195h-206zM418 1663l2 195h206l-2 -195h-206z" />
    <glyph glyph-name="Yacute" unicode="&#xdd;" horiz-adv-x="1247" 
d="M518 0v614l-496 832h234l370 -643l365 643h234l-493 -833v-613h-214zM557 1569l206 291h235l-280 -291h-161z" />
    <glyph glyph-name="Thorn" unicode="&#xde;" horiz-adv-x="1318" 
d="M183 0v1446h218v-291h318q159 0 281 -44t191 -135t69 -230q0 -145 -69 -239t-189.5 -140.5t-275.5 -46.5h-325v-320h-218zM401 503h317q95 0 166.5 23.5t112 77t40.5 142.5q0 84 -40.5 133.5t-114 71t-172.5 21.5h-309v-469z" />
    <glyph glyph-name="germandbls" unicode="&#xdf;" horiz-adv-x="1199" 
d="M711 -20q-76 0 -149 19t-123 50l71 138q39 -23 82.5 -41.5t106.5 -18.5q98 0 158 46t60 132q0 63 -31.5 100.5t-83.5 62t-116 46.5q-53 21 -102 48.5t-80.5 72.5t-31.5 115q0 75 40.5 124.5t115.5 95.5q37 25 71.5 50t57.5 57t23 79q0 64 -47.5 103.5t-136.5 39.5
q-108 0 -173 -66t-65 -189v-1044h-211l-2 1005q1 93 30 173t86 140.5t144.5 94t205.5 33.5q128 0 208.5 -38t119.5 -102t39 -142q0 -75 -30.5 -124.5t-85.5 -85t-129 -69.5q-52 -27 -73.5 -44t-21.5 -47t20.5 -43.5t71.5 -30.5q63 -24 130 -53.5t124.5 -72.5t93.5 -107.5
t36 -160.5q0 -113 -52.5 -190t-143.5 -116.5t-207 -39.5z" />
    <glyph glyph-name="agrave" unicode="&#xe0;" horiz-adv-x="1113" 
d="M440 -20q-100 0 -177.5 36t-121.5 104t-44 164q0 172 121.5 257t389.5 90l170 5v75q0 89 -53 140t-164 50q-82 0 -147 -38t-85 -125h-185q6 103 59.5 173.5t147.5 106.5t220 36q142 0 233 -38.5t135.5 -112.5t44.5 -180v-723h-182l-16 190q-58 -119 -147 -164.5
t-199 -45.5zM507 129q49 0 97 17.5t87 48t62.5 68.5t24.5 78v171l-140 -3q-107 -1 -181.5 -22t-114 -65t-39.5 -117q0 -83 57.5 -129.5t146.5 -46.5zM495 1155l-280 291h236l206 -291h-162z" />
    <glyph glyph-name="aacute" unicode="&#xe1;" horiz-adv-x="1113" 
d="M440 -20q-100 0 -177.5 36t-121.5 104t-44 164q0 172 121.5 257t389.5 90l170 5v75q0 89 -53 140t-164 50q-82 0 -147 -38t-85 -125h-185q6 103 59.5 173.5t147.5 106.5t220 36q142 0 233 -38.5t135.5 -112.5t44.5 -180v-723h-182l-16 190q-58 -119 -147 -164.5
t-199 -45.5zM507 129q49 0 97 17.5t87 48t62.5 68.5t24.5 78v171l-140 -3q-107 -1 -181.5 -22t-114 -65t-39.5 -117q0 -83 57.5 -129.5t146.5 -46.5zM484 1155l206 291h235l-280 -291h-161z" />
    <glyph glyph-name="acircumflex" unicode="&#xe2;" horiz-adv-x="1113" 
d="M440 -20q-100 0 -177.5 36t-121.5 104t-44 164q0 172 121.5 257t389.5 90l170 5v75q0 89 -53 140t-164 50q-82 0 -147 -38t-85 -125h-185q6 103 59.5 173.5t147.5 106.5t220 36q142 0 233 -38.5t135.5 -112.5t44.5 -180v-723h-182l-16 190q-58 -119 -147 -164.5
t-199 -45.5zM507 129q49 0 97 17.5t87 48t62.5 68.5t24.5 78v171l-140 -3q-107 -1 -181.5 -22t-114 -65t-39.5 -117q0 -83 57.5 -129.5t146.5 -46.5zM244 1155l254 234h152l249 -234h-189l-138 133l-150 -133h-178z" />
    <glyph glyph-name="atilde" unicode="&#xe3;" horiz-adv-x="1113" 
d="M440 -20q-100 0 -177.5 36t-121.5 104t-44 164q0 172 121.5 257t389.5 90l170 5v75q0 89 -53 140t-164 50q-82 0 -147 -38t-85 -125h-185q6 103 59.5 173.5t147.5 106.5t220 36q142 0 233 -38.5t135.5 -112.5t44.5 -180v-723h-182l-16 190q-58 -119 -147 -164.5
t-199 -45.5zM507 129q49 0 97 17.5t87 48t62.5 68.5t24.5 78v171l-140 -3q-107 -1 -181.5 -22t-114 -65t-39.5 -117q0 -83 57.5 -129.5t146.5 -46.5zM301 1212l-38 121q34 33 74 56t100 23q51 0 96 -14t88.5 -28.5t87.5 -14.5q47 0 82 18.5t65 40.5l33 -135
q-27 -21 -71.5 -41.5t-108.5 -20.5q-54 0 -96 13.5t-81 26.5t-86 13q-50 0 -81 -16t-64 -42z" />
    <glyph glyph-name="adieresis" unicode="&#xe4;" horiz-adv-x="1113" 
d="M440 -20q-100 0 -177.5 36t-121.5 104t-44 164q0 172 121.5 257t389.5 90l170 5v75q0 89 -53 140t-164 50q-82 0 -147 -38t-85 -125h-185q6 103 59.5 173.5t147.5 106.5t220 36q142 0 233 -38.5t135.5 -112.5t44.5 -180v-723h-182l-16 190q-58 -119 -147 -164.5
t-199 -45.5zM507 129q49 0 97 17.5t87 48t62.5 68.5t24.5 78v171l-140 -3q-107 -1 -181.5 -22t-114 -65t-39.5 -117q0 -83 57.5 -129.5t146.5 -46.5zM674 1251l2 195h206l-2 -195h-206zM264 1251l2 195h206l-2 -195h-206z" />
    <glyph glyph-name="aring" unicode="&#xe5;" horiz-adv-x="1113" 
d="M440 -20q-100 0 -177.5 36t-121.5 104t-44 164q0 172 121.5 257t389.5 90l170 5v75q0 89 -53 140t-164 50q-82 0 -147 -38t-85 -125h-185q6 103 59.5 173.5t147.5 106.5t220 36q142 0 233 -38.5t135.5 -112.5t44.5 -180v-723h-182l-16 190q-58 -119 -147 -164.5
t-199 -45.5zM507 129q49 0 97 17.5t87 48t62.5 68.5t24.5 78v171l-140 -3q-107 -1 -181.5 -22t-114 -65t-39.5 -117q0 -83 57.5 -129.5t146.5 -46.5zM573 1149q-87 0 -147.5 61.5t-60.5 151.5q0 84 61.5 143t146.5 59q59 0 106.5 -27.5t75.5 -74.5t28 -104
q0 -88 -60.5 -148.5t-149.5 -60.5zM571 1250q44 0 74.5 32.5t30.5 74.5q0 46 -30.5 75t-74.5 29q-42 0 -74 -29t-32 -75q0 -42 32 -74.5t74 -32.5z" />
    <glyph glyph-name="ae" unicode="&#xe6;" horiz-adv-x="1828" 
d="M440 -20q-100 0 -177.5 36t-121.5 104t-44 164q0 172 122 257.5t390 89.5l169 5v75q0 93 -58.5 142t-158.5 48q-81 0 -146.5 -40t-85.5 -123h-185q6 94 59.5 165.5t148 111t219.5 39.5q131 0 221.5 -42.5t133.5 -118.5q57 77 143.5 119t198.5 42q150 0 252.5 -64
t155.5 -179.5t53 -272.5v-71h-728q0 -93 30.5 -166.5t92.5 -116t154 -42.5t159.5 42t88.5 125h198q-18 -106 -84.5 -180t-160.5 -111.5t-197 -37.5q-143 0 -253 61.5t-171 175.5q-24 -73 -83.5 -126.5t-145 -82t-189.5 -28.5zM507 129q81 0 141 37.5t93.5 93t33.5 109.5v143
l-137 -3q-106 -1 -181 -22t-114.5 -65t-39.5 -117q0 -83 57.5 -129.5t146.5 -46.5zM1001 606h524q0 81 -28 147.5t-85.5 105t-144.5 38.5q-89 0 -148 -43t-88.5 -110t-29.5 -138z" />
    <glyph glyph-name="ccedilla" unicode="&#xe7;" horiz-adv-x="1089" 
d="M546 -415q-56 0 -106.5 12t-94.5 39l33 83q28 -19 63 -33.5t79 -14.5q53 0 79.5 18.5t26.5 51.5q0 43 -37.5 64t-125.5 23q-10 0 -13 3t0 12l73 167h106l-46 -120q70 -2 110.5 -25t58 -56.5t17.5 -67.5q0 -50 -31 -85t-81.5 -53t-110.5 -18zM570 -20q-140 0 -249 61.5
t-171 181t-62 290.5q0 161 57.5 283t165.5 190t259 68q117 0 207 -45.5t146.5 -126.5t68.5 -189h-186q-8 51 -38 95t-79 70.5t-117 26.5q-125 0 -203 -91t-78 -279q0 -172 73 -274t211 -102q68 0 117 28t78.5 72t37.5 91h182q-12 -104 -68.5 -183t-146.5 -123t-205 -44z" />
    <glyph glyph-name="egrave" unicode="&#xe8;" horiz-adv-x="1139" 
d="M593 -20q-147 0 -259 63.5t-174.5 181.5t-62.5 281q0 161 57 284.5t165 193.5t260 70q149 0 252 -64t156 -179.5t53 -272.5v-71h-728q-1 -93 30 -166.5t92.5 -116t153.5 -42.5q93 0 160.5 42t88.5 125h198q-18 -106 -85 -180t-161 -111.5t-196 -37.5zM312 606h524
q0 81 -28 147.5t-85.5 105t-144.5 38.5q-89 0 -148 -43t-88.5 -110t-29.5 -138zM502 1155l-280 291h236l206 -291h-162z" />
    <glyph glyph-name="eacute" unicode="&#xe9;" horiz-adv-x="1139" 
d="M593 -20q-147 0 -259 63.5t-174.5 181.5t-62.5 281q0 161 57 284.5t165 193.5t260 70q149 0 252 -64t156 -179.5t53 -272.5v-71h-728q-1 -93 30 -166.5t92.5 -116t153.5 -42.5q93 0 160.5 42t88.5 125h198q-18 -106 -85 -180t-161 -111.5t-196 -37.5zM312 606h524
q0 81 -28 147.5t-85.5 105t-144.5 38.5q-89 0 -148 -43t-88.5 -110t-29.5 -138zM491 1155l206 291h235l-280 -291h-161z" />
    <glyph glyph-name="ecircumflex" unicode="&#xea;" horiz-adv-x="1139" 
d="M593 -20q-147 0 -259 63.5t-174.5 181.5t-62.5 281q0 161 57 284.5t165 193.5t260 70q149 0 252 -64t156 -179.5t53 -272.5v-71h-728q-1 -93 30 -166.5t92.5 -116t153.5 -42.5q93 0 160.5 42t88.5 125h198q-18 -106 -85 -180t-161 -111.5t-196 -37.5zM312 606h524
q0 81 -28 147.5t-85.5 105t-144.5 38.5q-89 0 -148 -43t-88.5 -110t-29.5 -138zM251 1155l254 234h152l249 -234h-189l-138 133l-150 -133h-178z" />
    <glyph glyph-name="edieresis" unicode="&#xeb;" horiz-adv-x="1139" 
d="M593 -20q-147 0 -259 63.5t-174.5 181.5t-62.5 281q0 161 57 284.5t165 193.5t260 70q149 0 252 -64t156 -179.5t53 -272.5v-71h-728q-1 -93 30 -166.5t92.5 -116t153.5 -42.5q93 0 160.5 42t88.5 125h198q-18 -106 -85 -180t-161 -111.5t-196 -37.5zM312 606h524
q0 81 -28 147.5t-85.5 105t-144.5 38.5q-89 0 -148 -43t-88.5 -110t-29.5 -138zM681 1251l2 195h206l-2 -195h-206zM271 1251l2 195h206l-2 -195h-206z" />
    <glyph glyph-name="igrave" unicode="&#xec;" horiz-adv-x="496" 
d="M145 0v1034h206v-1034h-206zM177 1155l-208 291h226l133 -290z" />
    <glyph glyph-name="iacute" unicode="&#xed;" horiz-adv-x="496" 
d="M145 0v1034h206v-1034h-206zM320 1155l-150 1l133 290h226z" />
    <glyph glyph-name="icircumflex" unicode="&#xee;" horiz-adv-x="496" 
d="M145 0v1034h206v-1034h-206zM-78 1155l254 234h152l249 -234h-189l-138 133l-150 -133h-178z" />
    <glyph glyph-name="idieresis" unicode="&#xef;" horiz-adv-x="648" 
d="M216 0v1034h206v-1034h-206zM425 1248l2 195h206l-2 -195h-206zM15 1248l2 195h206l-2 -195h-206z" />
    <glyph glyph-name="eth" unicode="&#xf0;" horiz-adv-x="1137" 
d="M566 -20q-154 0 -260.5 69.5t-162 188t-55.5 266.5q0 126 34.5 224.5t97 167.5t148 105t188.5 36q159 0 255.5 -83.5t120.5 -226.5l-154 137q-17 104 -63.5 196.5t-107.5 171.5t-124.5 141.5t-116.5 106.5h189q86 -62 173.5 -153t159.5 -209.5t116 -264t44 -318.5
q0 -165 -53.5 -290.5t-160.5 -195t-268 -69.5zM571 145q94 0 152.5 48.5t86.5 132t28 186.5q0 173 -67.5 269t-197.5 96q-139 0 -206 -101.5t-67 -263.5q0 -99 26.5 -183t86 -134t158.5 -50zM348 1130l-32 104l643 194l31 -105z" />
    <glyph glyph-name="ntilde" unicode="&#xf1;" horiz-adv-x="1163" 
d="M145 0v1034h209v-149q25 42 67.5 79t105 60t144.5 23q97 0 179.5 -38.5t132.5 -120t50 -210.5v-678h-214v655q0 111 -59.5 165t-153.5 54q-63 0 -120 -21t-92 -63.5t-35 -106.5v-683h-214zM329 1212l-38 121q34 33 74 56t100 23q51 0 96 -14t88.5 -28.5t87.5 -14.5
q47 0 82 18.5t65 40.5l33 -135q-27 -21 -71.5 -41.5t-108.5 -20.5q-54 0 -96 13.5t-81 26.5t-86 13q-50 0 -81 -16t-64 -42z" />
    <glyph glyph-name="ograve" unicode="&#xf2;" horiz-adv-x="1136" 
d="M569 -20q-145 0 -253 62.5t-168 181.5t-60 288q0 163 57 285t164.5 189.5t260.5 67.5q146 0 253 -63.5t166 -185t59 -293.5q0 -157 -55 -277t-161.5 -187.5t-262.5 -67.5zM570 145q89 0 148 46.5t89 131t30 195.5q0 103 -26.5 187.5t-85 134.5t-155.5 50
q-89 0 -149.5 -45.5t-90.5 -129t-30 -197.5q0 -101 27 -186t86.5 -136t156.5 -51zM491 1155l-280 291h236l206 -291h-162z" />
    <glyph glyph-name="oacute" unicode="&#xf3;" horiz-adv-x="1136" 
d="M569 -20q-145 0 -253 62.5t-168 181.5t-60 288q0 163 57 285t164.5 189.5t260.5 67.5q146 0 253 -63.5t166 -185t59 -293.5q0 -157 -55 -277t-161.5 -187.5t-262.5 -67.5zM570 145q89 0 148 46.5t89 131t30 195.5q0 103 -26.5 187.5t-85 134.5t-155.5 50
q-89 0 -149.5 -45.5t-90.5 -129t-30 -197.5q0 -101 27 -186t86.5 -136t156.5 -51zM480 1155l206 291h235l-280 -291h-161z" />
    <glyph glyph-name="ocircumflex" unicode="&#xf4;" horiz-adv-x="1136" 
d="M569 -20q-145 0 -253 62.5t-168 181.5t-60 288q0 163 57 285t164.5 189.5t260.5 67.5q146 0 253 -63.5t166 -185t59 -293.5q0 -157 -55 -277t-161.5 -187.5t-262.5 -67.5zM570 145q89 0 148 46.5t89 131t30 195.5q0 103 -26.5 187.5t-85 134.5t-155.5 50
q-89 0 -149.5 -45.5t-90.5 -129t-30 -197.5q0 -101 27 -186t86.5 -136t156.5 -51zM240 1155l254 234h152l249 -234h-189l-138 133l-150 -133h-178z" />
    <glyph glyph-name="otilde" unicode="&#xf5;" horiz-adv-x="1136" 
d="M569 -20q-145 0 -253 62.5t-168 181.5t-60 288q0 163 57 285t164.5 189.5t260.5 67.5q146 0 253 -63.5t166 -185t59 -293.5q0 -157 -55 -277t-161.5 -187.5t-262.5 -67.5zM570 145q89 0 148 46.5t89 131t30 195.5q0 103 -26.5 187.5t-85 134.5t-155.5 50
q-89 0 -149.5 -45.5t-90.5 -129t-30 -197.5q0 -101 27 -186t86.5 -136t156.5 -51zM297 1212l-38 121q34 33 74 56t100 23q51 0 96 -14t88.5 -28.5t87.5 -14.5q47 0 82 18.5t65 40.5l33 -135q-27 -21 -71.5 -41.5t-108.5 -20.5q-54 0 -96 13.5t-81 26.5t-86 13q-50 0 -81 -16
t-64 -42z" />
    <glyph glyph-name="odieresis" unicode="&#xf6;" horiz-adv-x="1136" 
d="M569 -20q-145 0 -253 62.5t-168 181.5t-60 288q0 163 57 285t164.5 189.5t260.5 67.5q146 0 253 -63.5t166 -185t59 -293.5q0 -157 -55 -277t-161.5 -187.5t-262.5 -67.5zM570 145q89 0 148 46.5t89 131t30 195.5q0 103 -26.5 187.5t-85 134.5t-155.5 50
q-89 0 -149.5 -45.5t-90.5 -129t-30 -197.5q0 -101 27 -186t86.5 -136t156.5 -51zM670 1251l2 195h206l-2 -195h-206zM260 1251l2 195h206l-2 -195h-206z" />
    <glyph glyph-name="divide" unicode="&#xf7;" horiz-adv-x="1128" 
d="M121 645v163l886 1v-163zM439 243v242h252v-242h-252zM439 970v242h252v-242h-252z" />
    <glyph glyph-name="oslash" unicode="&#xf8;" horiz-adv-x="1186" 
d="M124 -12l-81 85l1011 970l80 -85zM597 -20q-145 0 -253.5 62.5t-168 181.5t-59.5 288q0 163 56.5 285t164.5 189.5t261 67.5q146 0 253 -63.5t166 -185t59 -293.5q0 -157 -55.5 -277t-162 -187.5t-261.5 -67.5zM598 145q88 0 147.5 46.5t89.5 131t30 195.5
q0 103 -26.5 187.5t-85.5 134.5t-155 50q-90 0 -150 -45.5t-90.5 -129t-30.5 -197.5q0 -101 27 -186t87 -136t157 -51z" />
    <glyph glyph-name="ugrave" unicode="&#xf9;" horiz-adv-x="1169" 
d="M525 -20q-78 1 -149 23t-126.5 66t-88 109t-32.5 151v705h215v-682q0 -93 58 -151t175 -58q106 0 170 55.5t64 162.5v673h213v-1034h-166l-24 200q-18 -81 -64.5 -129.5t-110 -70t-134.5 -20.5zM502 1155l-280 291h236l206 -291h-162z" />
    <glyph glyph-name="uacute" unicode="&#xfa;" horiz-adv-x="1169" 
d="M525 -20q-78 1 -149 23t-126.5 66t-88 109t-32.5 151v705h215v-682q0 -93 58 -151t175 -58q106 0 170 55.5t64 162.5v673h213v-1034h-166l-24 200q-18 -81 -64.5 -129.5t-110 -70t-134.5 -20.5zM491 1155l206 291h235l-280 -291h-161z" />
    <glyph glyph-name="ucircumflex" unicode="&#xfb;" horiz-adv-x="1169" 
d="M525 -20q-78 1 -149 23t-126.5 66t-88 109t-32.5 151v705h215v-682q0 -93 58 -151t175 -58q106 0 170 55.5t64 162.5v673h213v-1034h-166l-24 200q-18 -81 -64.5 -129.5t-110 -70t-134.5 -20.5zM251 1155l254 234h152l249 -234h-189l-138 133l-150 -133h-178z" />
    <glyph glyph-name="udieresis" unicode="&#xfc;" horiz-adv-x="1169" 
d="M525 -20q-78 1 -149 23t-126.5 66t-88 109t-32.5 151v705h215v-682q0 -93 58 -151t175 -58q106 0 170 55.5t64 162.5v673h213v-1034h-166l-24 200q-18 -81 -64.5 -129.5t-110 -70t-134.5 -20.5zM681 1251l2 195h206l-2 -195h-206zM271 1251l2 195h206l-2 -195h-206z" />
    <glyph glyph-name="yacute" unicode="&#xfd;" horiz-adv-x="1085" 
d="M264 -330q-95 0 -131.5 14l-36.5 14v138l105 -2q60 -3 99 7t61.5 27.5t34 37.5t17.5 37l32 87l-403 1004h214l290 -764l289 764h209l-431 -1092q-44 -108 -96.5 -167t-115.5 -82t-137 -23zM457 1155l206 291h235l-280 -291h-161z" />
    <glyph glyph-name="thorn" unicode="&#xfe;" horiz-adv-x="1187" 
d="M145 -322v1768h213v-551q27 30 67.5 67.5t102.5 64.5t153 27q118 0 212.5 -57.5t150 -174t55.5 -293.5q0 -180 -55.5 -302t-154.5 -184.5t-227 -62.5q-85 0 -152 27t-119 72q-19 17 -25.5 14.5t-6.5 -26.5v-389h-214zM594 125q85 0 149.5 44t101 133.5t36.5 227.5
q0 136 -37.5 219.5t-100.5 121t-141 37.5q-71 0 -126 -30.5t-86 -76.5t-31 -92v-467q50 -52 107 -84.5t128 -32.5z" />
    <glyph glyph-name="ydieresis" unicode="&#xff;" horiz-adv-x="1085" 
d="M264 -330q-95 0 -131.5 14l-36.5 14v138l105 -2q60 -3 99 7t61.5 27.5t34 37.5t17.5 37l32 87l-403 1004h214l290 -764l289 764h209l-431 -1092q-44 -108 -96.5 -167t-115.5 -82t-137 -23zM647 1251l2 195h206l-2 -195h-206zM237 1251l2 195h206l-2 -195h-206z" />
    <glyph glyph-name="Amacron" unicode="&#x100;" horiz-adv-x="1429" 
d="M75 0l522 1446h236l521 -1446h-216l-136 379h-573l-137 -379h-217zM482 573h464l-232 665zM402 1639v146h625v-146h-625z" />
    <glyph glyph-name="amacron" unicode="&#x101;" horiz-adv-x="1113" 
d="M440 -20q-100 0 -177.5 36t-121.5 104t-44 164q0 172 121.5 257t389.5 90l170 5v75q0 89 -53 140t-164 50q-82 0 -147 -38t-85 -125h-185q6 103 59.5 173.5t147.5 106.5t220 36q142 0 233 -38.5t135.5 -112.5t44.5 -180v-723h-182l-16 190q-58 -119 -147 -164.5
t-199 -45.5zM507 129q49 0 97 17.5t87 48t62.5 68.5t24.5 78v171l-140 -3q-107 -1 -181.5 -22t-114 -65t-39.5 -117q0 -83 57.5 -129.5t146.5 -46.5zM260 1227v146h625v-146h-625z" />
    <glyph glyph-name="Abreve" unicode="&#x102;" horiz-adv-x="1429" 
d="M75 0l522 1446h236l521 -1446h-216l-136 379h-573l-137 -379h-217zM482 573h464l-232 665zM714 1565q-76 0 -142 26t-111.5 77t-61.5 124h148q16 -48 59.5 -78.5t107.5 -30.5q63 0 108 30.5t62 78.5h147q-15 -72 -60 -122.5t-111.5 -77.5t-145.5 -27z" />
    <glyph glyph-name="abreve" unicode="&#x103;" horiz-adv-x="1113" 
d="M440 -20q-100 0 -177.5 36t-121.5 104t-44 164q0 172 121.5 257t389.5 90l170 5v75q0 89 -53 140t-164 50q-82 0 -147 -38t-85 -125h-185q6 103 59.5 173.5t147.5 106.5t220 36q142 0 233 -38.5t135.5 -112.5t44.5 -180v-723h-182l-16 190q-58 -119 -147 -164.5
t-199 -45.5zM507 129q49 0 97 17.5t87 48t62.5 68.5t24.5 78v171l-140 -3q-107 -1 -181.5 -22t-114 -65t-39.5 -117q0 -83 57.5 -129.5t146.5 -46.5zM572 1153q-76 0 -142 26t-111.5 77t-61.5 124h148q16 -48 59.5 -78.5t107.5 -30.5q63 0 108 30.5t62 78.5h147
q-15 -72 -60 -122.5t-111.5 -77.5t-145.5 -27z" />
    <glyph glyph-name="Aogonek" unicode="&#x104;" horiz-adv-x="1429" 
d="M75 0l522 1446h236l521 -1446h-216l-136 379h-573l-137 -379h-217zM482 573h464l-232 665zM1206 -337q-99 0 -151 42t-52 118q0 58 41 105.5t160 85.5l153 -10q-102 -42 -145.5 -77.5t-43.5 -82.5q0 -35 20.5 -53t66.5 -18q47 0 83.5 13t60.5 26v-106q-26 -16 -79 -29.5
t-114 -13.5z" />
    <glyph glyph-name="aogonek" unicode="&#x105;" horiz-adv-x="1113" 
d="M440 -20q-100 0 -177.5 36t-121.5 104t-44 164q0 172 121.5 257t389.5 90l170 5v75q0 89 -53 140t-164 50q-82 0 -147 -38t-85 -125h-185q6 103 59.5 173.5t147.5 106.5t220 36q142 0 233 -38.5t135.5 -112.5t44.5 -180v-723h-182l-16 190q-58 -119 -147 -164.5
t-199 -45.5zM507 129q49 0 97 17.5t87 48t62.5 68.5t24.5 78v171l-140 -3q-107 -1 -181.5 -22t-114 -65t-39.5 -117q0 -83 57.5 -129.5t146.5 -46.5zM826 -331q-99 0 -151 42t-52 118q0 58 41 105.5t160 85.5l153 -10q-102 -42 -145.5 -77.5t-43.5 -82.5q0 -35 20.5 -53
t66.5 -18q47 0 83.5 13t60.5 26v-106q-26 -16 -79 -29.5t-114 -13.5z" />
    <glyph glyph-name="Cacute" unicode="&#x106;" horiz-adv-x="1393" 
d="M730 -20q-196 0 -336 90.5t-214.5 258t-74.5 401.5q0 233 74 397.5t214 251.5t337 87q156 0 277 -64t194.5 -172t87.5 -239h-228q-15 82 -57.5 148.5t-112.5 105t-166 38.5q-123 0 -209 -58t-130.5 -181t-44.5 -317q0 -293 99 -428.5t285 -135.5q96 0 166 41.5t112.5 111
t57.5 151.5h228q-12 -95 -50 -182.5t-105.5 -156.5t-167.5 -108.5t-236 -39.5zM637 1567l206 291h235l-280 -291h-161z" />
    <glyph glyph-name="cacute" unicode="&#x107;" horiz-adv-x="1089" 
d="M570 -20q-140 0 -249 61.5t-171 181t-62 290.5q0 161 57.5 283t165.5 190t259 68q117 0 207 -45.5t146.5 -126.5t68.5 -189h-186q-8 51 -38 95t-79 70.5t-117 26.5q-125 0 -203 -91t-78 -279q0 -172 73 -274t211 -102q68 0 117 28t78.5 72t37.5 91h182
q-12 -104 -68.5 -183t-146.5 -123t-205 -44zM482 1155l206 291h235l-280 -291h-161z" />
    <glyph glyph-name="Ccircumflex" unicode="&#x108;" horiz-adv-x="1393" 
d="M730 -20q-196 0 -336 90.5t-214.5 258t-74.5 401.5q0 233 74 397.5t214 251.5t337 87q156 0 277 -64t194.5 -172t87.5 -239h-228q-15 82 -57.5 148.5t-112.5 105t-166 38.5q-123 0 -209 -58t-130.5 -181t-44.5 -317q0 -293 99 -428.5t285 -135.5q96 0 166 41.5t112.5 111
t57.5 151.5h228q-12 -95 -50 -182.5t-105.5 -156.5t-167.5 -108.5t-236 -39.5zM397 1567l254 234h152l249 -234h-189l-138 133l-150 -133h-178z" />
    <glyph glyph-name="ccircumflex" unicode="&#x109;" horiz-adv-x="1089" 
d="M570 -20q-140 0 -249 61.5t-171 181t-62 290.5q0 161 57.5 283t165.5 190t259 68q117 0 207 -45.5t146.5 -126.5t68.5 -189h-186q-8 51 -38 95t-79 70.5t-117 26.5q-125 0 -203 -91t-78 -279q0 -172 73 -274t211 -102q68 0 117 28t78.5 72t37.5 91h182
q-12 -104 -68.5 -183t-146.5 -123t-205 -44zM242 1155l254 234h152l249 -234h-189l-138 133l-150 -133h-178z" />
    <glyph glyph-name="Cdotaccent" unicode="&#x10a;" horiz-adv-x="1393" 
d="M730 -20q-196 0 -336 90.5t-214.5 258t-74.5 401.5q0 233 74 397.5t214 251.5t337 87q156 0 277 -64t194.5 -172t87.5 -239h-228q-15 82 -57.5 148.5t-112.5 105t-166 38.5q-123 0 -209 -58t-130.5 -181t-44.5 -317q0 -293 99 -428.5t285 -135.5q96 0 166 41.5t112.5 111
t57.5 151.5h228q-12 -95 -50 -182.5t-105.5 -156.5t-167.5 -108.5t-236 -39.5zM619 1663v195h212v-195h-212z" />
    <glyph glyph-name="cdotaccent" unicode="&#x10b;" horiz-adv-x="1089" 
d="M570 -20q-140 0 -249 61.5t-171 181t-62 290.5q0 161 57.5 283t165.5 190t259 68q117 0 207 -45.5t146.5 -126.5t68.5 -189h-186q-8 51 -38 95t-79 70.5t-117 26.5q-125 0 -203 -91t-78 -279q0 -172 73 -274t211 -102q68 0 117 28t78.5 72t37.5 91h182
q-12 -104 -68.5 -183t-146.5 -123t-205 -44zM464 1251v195h212v-195h-212z" />
    <glyph glyph-name="Ccaron" unicode="&#x10c;" horiz-adv-x="1393" 
d="M730 -20q-196 0 -336 90.5t-214.5 258t-74.5 401.5q0 233 74 397.5t214 251.5t337 87q156 0 277 -64t194.5 -172t87.5 -239h-228q-15 82 -57.5 148.5t-112.5 105t-166 38.5q-123 0 -209 -58t-130.5 -181t-44.5 -317q0 -293 99 -428.5t285 -135.5q96 0 166 41.5t112.5 111
t57.5 151.5h228q-12 -95 -50 -182.5t-105.5 -156.5t-167.5 -108.5t-236 -39.5zM650 1567l-254 235h179l150 -139l138 139h189l-249 -235h-153z" />
    <glyph glyph-name="ccaron" unicode="&#x10d;" horiz-adv-x="1089" 
d="M570 -20q-140 0 -249 61.5t-171 181t-62 290.5q0 161 57.5 283t165.5 190t259 68q117 0 207 -45.5t146.5 -126.5t68.5 -189h-186q-8 51 -38 95t-79 70.5t-117 26.5q-125 0 -203 -91t-78 -279q0 -172 73 -274t211 -102q68 0 117 28t78.5 72t37.5 91h182
q-12 -104 -68.5 -183t-146.5 -123t-205 -44zM495 1155l-254 235h179l150 -139l138 139h189l-249 -235h-153z" />
    <glyph glyph-name="Dcaron" unicode="&#x10e;" horiz-adv-x="1401" 
d="M183 0v1446q8 0 47.5 -0.5t95.5 0t114.5 0t104.5 -1.5q265 -4 431 -88t243.5 -241.5t77.5 -383.5q0 -235 -83 -398.5t-253.5 -248t-431.5 -84.5h-346zM401 180h130q164 0 285.5 53.5t188.5 174t67 322.5q0 198 -64 315.5t-183.5 169t-287.5 51.5h-136v-1086zM615 1567
l-254 235h179l150 -139l138 139h189l-249 -235h-153z" />
    <glyph glyph-name="dcaron" unicode="&#x10f;" horiz-adv-x="1188" 
d="M526 -20q-203 0 -320.5 139.5t-117.5 402.5q0 161 47.5 280.5t140.5 185.5t232 66q69 0 124 -17t96 -44t69 -58t42 -58v609h216v-1486h-161l-24 212q-11 -34 -33.5 -74t-62 -76t-100.5 -59t-148 -23zM567 141q144 0 208 90.5t64 297.5q-1 117 -28.5 198t-86 122.5
t-153.5 41.5q-119 0 -194.5 -85.5t-75.5 -276.5q0 -188 68.5 -288t197.5 -100zM1161 1085l78 189l-59 10v202h165v-212l-81 -189h-103z" />
    <glyph glyph-name="Dcroat" unicode="&#x110;" horiz-adv-x="1437" 
d="M70 639v166h685v-166h-685zM218 0v1446q8 0 47.5 -0.5t95.5 0t115 0t105 -1.5q265 -4 430.5 -88t243 -241.5t77.5 -383.5q0 -235 -83 -398.5t-253 -248t-432 -84.5h-346zM437 180h129q164 0 285.5 53.5t188.5 174t67 322.5q0 198 -63.5 315.5t-183.5 169t-287 51.5h-136
v-1086z" />
    <glyph glyph-name="dcroat" unicode="&#x111;" horiz-adv-x="1246" 
d="M553 1183v129h633v-129h-633zM526 -20q-203 0 -320.5 139.5t-117.5 402.5q0 161 47.5 280.5t140.5 185.5t232 66q69 0 124 -17t96 -44t69 -58t42 -58v609h216v-1486h-161l-24 212q-11 -34 -33.5 -74t-62 -76t-100.5 -59t-148 -23zM567 141q144 0 208 90.5t64 297.5
q-1 117 -28.5 198t-86 122.5t-153.5 41.5q-119 0 -194.5 -85.5t-75.5 -276.5q0 -188 68.5 -288t197.5 -100z" />
    <glyph glyph-name="Emacron" unicode="&#x112;" horiz-adv-x="1249" 
d="M183 0v1446h934l-1 -186h-718v-439h641v-183h-642v-449l737 -1v-188h-951zM340 1639v146h625v-146h-625z" />
    <glyph glyph-name="emacron" unicode="&#x113;" horiz-adv-x="1139" 
d="M593 -20q-147 0 -259 63.5t-174.5 181.5t-62.5 281q0 161 57 284.5t165 193.5t260 70q149 0 252 -64t156 -179.5t53 -272.5v-71h-728q-1 -93 30 -166.5t92.5 -116t153.5 -42.5q93 0 160.5 42t88.5 125h198q-18 -106 -85 -180t-161 -111.5t-196 -37.5zM312 606h524
q0 81 -28 147.5t-85.5 105t-144.5 38.5q-89 0 -148 -43t-88.5 -110t-29.5 -138zM267 1227v146h625v-146h-625z" />
    <glyph glyph-name="Ebreve" unicode="&#x114;" horiz-adv-x="1249" 
d="M183 0v1446h934l-1 -186h-718v-439h641v-183h-642v-449l737 -1v-188h-951zM651 1565q-76 0 -142 26t-111.5 77t-61.5 124h148q16 -48 59.5 -78.5t107.5 -30.5q63 0 108 30.5t62 78.5h147q-15 -72 -60 -122.5t-111.5 -77.5t-145.5 -27z" />
    <glyph glyph-name="ebreve" unicode="&#x115;" horiz-adv-x="1139" 
d="M593 -20q-147 0 -259 63.5t-174.5 181.5t-62.5 281q0 161 57 284.5t165 193.5t260 70q149 0 252 -64t156 -179.5t53 -272.5v-71h-728q-1 -93 30 -166.5t92.5 -116t153.5 -42.5q93 0 160.5 42t88.5 125h198q-18 -106 -85 -180t-161 -111.5t-196 -37.5zM312 606h524
q0 81 -28 147.5t-85.5 105t-144.5 38.5q-89 0 -148 -43t-88.5 -110t-29.5 -138zM578 1153q-76 0 -142 26t-111.5 77t-61.5 124h148q16 -48 59.5 -78.5t107.5 -30.5q63 0 108 30.5t62 78.5h147q-15 -72 -60 -122.5t-111.5 -77.5t-145.5 -27z" />
    <glyph glyph-name="Edotaccent" unicode="&#x116;" horiz-adv-x="1249" 
d="M183 0v1446h934l-1 -186h-718v-439h641v-183h-642v-449l737 -1v-188h-951zM546 1663v195h212v-195h-212z" />
    <glyph glyph-name="edotaccent" unicode="&#x117;" horiz-adv-x="1139" 
d="M593 -20q-147 0 -259 63.5t-174.5 181.5t-62.5 281q0 161 57 284.5t165 193.5t260 70q149 0 252 -64t156 -179.5t53 -272.5v-71h-728q-1 -93 30 -166.5t92.5 -116t153.5 -42.5q93 0 160.5 42t88.5 125h198q-18 -106 -85 -180t-161 -111.5t-196 -37.5zM312 606h524
q0 81 -28 147.5t-85.5 105t-144.5 38.5q-89 0 -148 -43t-88.5 -110t-29.5 -138zM473 1251v195h212v-195h-212z" />
    <glyph glyph-name="Eogonek" unicode="&#x118;" horiz-adv-x="1249" 
d="M183 0v1446h934l-1 -186h-718v-439h641v-183h-642v-449l737 -1v-188h-951zM1001 -335q-99 0 -151 42t-52 118q0 58 41 105.5t160 85.5l153 -10q-102 -42 -145.5 -77.5t-43.5 -82.5q0 -35 20.5 -53t66.5 -18q47 0 83.5 13t60.5 26v-106q-26 -16 -79 -29.5t-114 -13.5z" />
    <glyph glyph-name="eogonek" unicode="&#x119;" horiz-adv-x="1139" 
d="M670 -313q-98 0 -150.5 42t-52.5 118q0 38 17 72.5t62 63.5q-134 10 -235 75t-157.5 179t-56.5 269q0 161 57 284.5t165 193.5t260 70q149 0 252 -64t156 -179.5t53 -272.5v-71h-728q-1 -93 30 -166.5t92.5 -116t153.5 -42.5q93 0 160.5 42t88.5 125h198
q-18 -103 -79.5 -171t-159.5 -117q-83 -40 -123.5 -74.5t-40.5 -78.5q0 -35 21 -53t66 -18q47 0 84 13t60 26v-107q-26 -15 -78.5 -28.5t-114.5 -13.5zM312 606h524q0 81 -28 147.5t-85.5 105t-144.5 38.5q-89 0 -148 -43t-88.5 -110t-29.5 -138z" />
    <glyph glyph-name="Ecaron" unicode="&#x11a;" horiz-adv-x="1249" 
d="M183 0v1446h934l-1 -186h-718v-439h641v-183h-642v-449l737 -1v-188h-951zM577 1567l-254 235h179l150 -139l138 139h189l-249 -235h-153z" />
    <glyph glyph-name="ecaron" unicode="&#x11b;" horiz-adv-x="1129" 
d="M593 -20q-147 0 -259 63.5t-174.5 181.5t-62.5 281q0 161 57 284.5t165 193.5t260 70q149 0 252 -64t156 -179.5t53 -272.5v-71h-728q-1 -93 30 -166.5t92.5 -116t153.5 -42.5q93 0 160.5 42t88.5 125h198q-18 -106 -85 -180t-161 -111.5t-196 -37.5zM312 606h524
q0 81 -28 147.5t-85.5 105t-144.5 38.5q-89 0 -148 -43t-88.5 -110t-29.5 -138zM497 1155l-254 235h179l150 -139l138 139h189l-249 -235h-153z" />
    <glyph glyph-name="Gcircumflex" unicode="&#x11c;" horiz-adv-x="1480" 
d="M729 -20q-193 0 -333 88t-215.5 253.5t-75.5 397.5q0 234 77.5 401.5t220.5 256.5t336 89q115 0 213.5 -39t174 -106t119.5 -152t50 -178h-228q-14 77 -59.5 142.5t-115.5 105.5t-158 40q-117 0 -207 -58t-140.5 -180.5t-50.5 -316.5q0 -151 31.5 -257t86.5 -171
t129 -94.5t158 -29.5q83 0 146 29t105.5 75t66 99.5t27.5 103.5l7 117h-338v154l561 -2v-748h-155v212q-38 -59 -95 -112t-140 -86.5t-198 -33.5zM405 1567l254 234h152l249 -234h-189l-138 133l-150 -133h-178z" />
    <glyph glyph-name="gcircumflex" unicode="&#x11d;" horiz-adv-x="1248" 
d="M594 -342q-252 0 -390 70.5t-138 196.5q0 55 26.5 93.5t63 63.5t67.5 39.5t40 20.5q-17 10 -43.5 25.5t-47.5 42t-21 69.5q0 50 47.5 92.5t143.5 62.5q-94 46 -146 124t-52 166q0 101 57 174.5t160.5 112.5t243.5 39q103 0 171.5 -23t126.5 -64q19 7 54.5 21.5t77.5 31.5
t80.5 33t62.5 26l-1 -186l-180 -33q14 -30 22.5 -66t8.5 -66q0 -90 -49 -165.5t-147 -120.5t-245 -45q-14 0 -36 0.5t-37 2.5q-93 -3 -128 -21.5t-35 -40.5q0 -28 45 -38t148 -17q37 -3 94.5 -6t127.5 -8q170 -10 259.5 -85t89.5 -199q0 -142 -129 -232.5t-392 -90.5z
M631 -211q137 0 207 39.5t70 117.5q0 58 -45 95t-135 43l-276 18q-41 2 -81.5 -18t-66.5 -55.5t-26 -78.5q0 -78 86 -119.5t267 -41.5zM593 524q104 0 167.5 50.5t63.5 145.5q0 98 -63.5 151.5t-167.5 53.5q-105 0 -169.5 -54t-64.5 -151q0 -92 61.5 -144t172.5 -52z
M274 1155l254 234h152l249 -234h-189l-138 133l-150 -133h-178z" />
    <glyph glyph-name="Gbreve" unicode="&#x11e;" horiz-adv-x="1480" 
d="M729 -20q-193 0 -333 88t-215.5 253.5t-75.5 397.5q0 234 77.5 401.5t220.5 256.5t336 89q115 0 213.5 -39t174 -106t119.5 -152t50 -178h-228q-14 77 -59.5 142.5t-115.5 105.5t-158 40q-117 0 -207 -58t-140.5 -180.5t-50.5 -316.5q0 -151 31.5 -257t86.5 -171
t129 -94.5t158 -29.5q83 0 146 29t105.5 75t66 99.5t27.5 103.5l7 117h-338v154l561 -2v-748h-155v212q-38 -59 -95 -112t-140 -86.5t-198 -33.5zM733 1565q-76 0 -142 26t-111.5 77t-61.5 124h148q16 -48 59.5 -78.5t107.5 -30.5q63 0 108 30.5t62 78.5h147
q-15 -72 -60 -122.5t-111.5 -77.5t-145.5 -27z" />
    <glyph glyph-name="gbreve" unicode="&#x11f;" horiz-adv-x="1248" 
d="M594 -342q-252 0 -390 70.5t-138 196.5q0 55 26.5 93.5t63 63.5t67.5 39.5t40 20.5q-17 10 -43.5 25.5t-47.5 42t-21 69.5q0 50 47.5 92.5t143.5 62.5q-94 46 -146 124t-52 166q0 101 57 174.5t160.5 112.5t243.5 39q103 0 171.5 -23t126.5 -64q19 7 54.5 21.5t77.5 31.5
t80.5 33t62.5 26l-1 -186l-180 -33q14 -30 22.5 -66t8.5 -66q0 -90 -49 -165.5t-147 -120.5t-245 -45q-14 0 -36 0.5t-37 2.5q-93 -3 -128 -21.5t-35 -40.5q0 -28 45 -38t148 -17q37 -3 94.5 -6t127.5 -8q170 -10 259.5 -85t89.5 -199q0 -142 -129 -232.5t-392 -90.5z
M631 -211q137 0 207 39.5t70 117.5q0 58 -45 95t-135 43l-276 18q-41 2 -81.5 -18t-66.5 -55.5t-26 -78.5q0 -78 86 -119.5t267 -41.5zM593 524q104 0 167.5 50.5t63.5 145.5q0 98 -63.5 151.5t-167.5 53.5q-105 0 -169.5 -54t-64.5 -151q0 -92 61.5 -144t172.5 -52z
M601 1153q-76 0 -142 26t-111.5 77t-61.5 124h148q16 -48 59.5 -78.5t107.5 -30.5q63 0 108 30.5t62 78.5h147q-15 -72 -60 -122.5t-111.5 -77.5t-145.5 -27z" />
    <glyph glyph-name="Gdotaccent" unicode="&#x120;" horiz-adv-x="1480" 
d="M729 -20q-193 0 -333 88t-215.5 253.5t-75.5 397.5q0 234 77.5 401.5t220.5 256.5t336 89q115 0 213.5 -39t174 -106t119.5 -152t50 -178h-228q-14 77 -59.5 142.5t-115.5 105.5t-158 40q-117 0 -207 -58t-140.5 -180.5t-50.5 -316.5q0 -151 31.5 -257t86.5 -171
t129 -94.5t158 -29.5q83 0 146 29t105.5 75t66 99.5t27.5 103.5l7 117h-338v154l561 -2v-748h-155v212q-38 -59 -95 -112t-140 -86.5t-198 -33.5zM628 1663v195h212v-195h-212z" />
    <glyph glyph-name="gdotaccent" unicode="&#x121;" horiz-adv-x="1248" 
d="M594 -342q-252 0 -390 70.5t-138 196.5q0 55 26.5 93.5t63 63.5t67.5 39.5t40 20.5q-17 10 -43.5 25.5t-47.5 42t-21 69.5q0 50 47.5 92.5t143.5 62.5q-94 46 -146 124t-52 166q0 101 57 174.5t160.5 112.5t243.5 39q103 0 171.5 -23t126.5 -64q19 7 54.5 21.5t77.5 31.5
t80.5 33t62.5 26l-1 -186l-180 -33q14 -30 22.5 -66t8.5 -66q0 -90 -49 -165.5t-147 -120.5t-245 -45q-14 0 -36 0.5t-37 2.5q-93 -3 -128 -21.5t-35 -40.5q0 -28 45 -38t148 -17q37 -3 94.5 -6t127.5 -8q170 -10 259.5 -85t89.5 -199q0 -142 -129 -232.5t-392 -90.5z
M631 -211q137 0 207 39.5t70 117.5q0 58 -45 95t-135 43l-276 18q-41 2 -81.5 -18t-66.5 -55.5t-26 -78.5q0 -78 86 -119.5t267 -41.5zM593 524q104 0 167.5 50.5t63.5 145.5q0 98 -63.5 151.5t-167.5 53.5q-105 0 -169.5 -54t-64.5 -151q0 -92 61.5 -144t172.5 -52z
M496 1251v195h212v-195h-212z" />
    <glyph glyph-name="uni0122" unicode="&#x122;" horiz-adv-x="1480" 
d="M729 -20q-193 0 -333 88t-215.5 253.5t-75.5 397.5q0 234 77.5 401.5t220.5 256.5t336 89q115 0 213.5 -39t174 -106t119.5 -152t50 -178h-228q-14 77 -59.5 142.5t-115.5 105.5t-158 40q-117 0 -207 -58t-140.5 -180.5t-50.5 -316.5q0 -151 31.5 -257t86.5 -171
t129 -94.5t158 -29.5q83 0 146 29t105.5 75t66 99.5t27.5 103.5l7 117h-338v154l561 -2v-748h-155v212q-38 -59 -95 -112t-140 -86.5t-198 -33.5zM613 -397l84 131l-67 7v163h203v-137l-137 -164h-83z" />
    <glyph glyph-name="uni0123" unicode="&#x123;" horiz-adv-x="1248" 
d="M594 -342q-252 0 -390 70.5t-138 196.5q0 55 26.5 93.5t63 63.5t67.5 39.5t40 20.5q-17 10 -43.5 25.5t-47.5 42t-21 69.5q0 50 47.5 92.5t143.5 62.5q-94 46 -146 124t-52 166q0 101 57 174.5t160.5 112.5t243.5 39q103 0 171.5 -23t126.5 -64q19 7 54.5 21.5t77.5 31.5
t80.5 33t62.5 26l-1 -186l-180 -33q14 -30 22.5 -66t8.5 -66q0 -90 -49 -165.5t-147 -120.5t-245 -45q-14 0 -36 0.5t-37 2.5q-93 -3 -128 -21.5t-35 -40.5q0 -28 45 -38t148 -17q37 -3 94.5 -6t127.5 -8q170 -10 259.5 -85t89.5 -199q0 -142 -129 -232.5t-392 -90.5z
M631 -211q137 0 207 39.5t70 117.5q0 58 -45 95t-135 43l-276 18q-41 2 -81.5 -18t-66.5 -55.5t-26 -78.5q0 -78 86 -119.5t267 -41.5zM593 524q104 0 167.5 50.5t63.5 145.5q0 98 -63.5 151.5t-167.5 53.5q-105 0 -169.5 -54t-64.5 -151q0 -92 61.5 -144t172.5 -52z
M503 1155v174l117 172h90l-79 -153l68 -6v-187h-196z" />
    <glyph glyph-name="Hcircumflex" unicode="&#x124;" horiz-adv-x="1534" 
d="M183 0v1446h214v-606h740v606h214v-1446h-214v654h-740v-654h-214zM437 1574l254 234h152l249 -234h-189l-138 133l-150 -133h-178z" />
    <glyph glyph-name="hcircumflex" unicode="&#x125;" horiz-adv-x="1162" 
d="M145 0v1486h211v-603q25 41 67.5 78t104 60.5t143.5 23.5q101 0 182.5 -37.5t130 -108t48.5 -167.5v-732h-214v693q0 87 -60 134t-154 47q-63 0 -119.5 -21.5t-91 -64t-34.5 -106.5v-682h-214zM-80 1567l254 234h152l249 -234h-189l-138 133l-150 -133h-178z" />
    <glyph glyph-name="Hbar" unicode="&#x126;" horiz-adv-x="1601" 
d="M29 1108v132h1543v-132h-1543zM223 0v1446h214v-606h741v606h214v-1446h-214v654h-741v-654h-214z" />
    <glyph glyph-name="hbar" unicode="&#x127;" horiz-adv-x="1194" 
d="M40 1183v129h633v-129h-633zM177 0v1486h211v-603q25 41 67.5 78t104 60.5t143.5 23.5q101 0 182.5 -37.5t130 -108t48.5 -167.5v-732h-214v693q0 87 -60 134t-154 47q-63 0 -119.5 -21.5t-91 -64t-34.5 -106.5v-682h-214z" />
    <glyph glyph-name="Itilde" unicode="&#x128;" horiz-adv-x="580" 
d="M183 0v1446h214v-1446h-214zM19 1624l-38 121q34 33 74 56t100 23q51 0 96 -14t88.5 -28.5t87.5 -14.5q47 0 82 18.5t65 40.5l33 -135q-27 -21 -71.5 -41.5t-108.5 -20.5q-54 0 -96 13.5t-81 26.5t-86 13q-50 0 -81 -16t-64 -42z" />
    <glyph glyph-name="itilde" unicode="&#x129;" horiz-adv-x="592" 
d="M187 0v1034h206v-1034h-206zM21 1212l-38 121q34 33 74 56t100 23q51 0 96 -14t88.5 -28.5t87.5 -14.5q47 0 82 18.5t65 40.5l33 -135q-27 -21 -71.5 -41.5t-108.5 -20.5q-54 0 -96 13.5t-81 26.5t-86 13q-50 0 -81 -16t-64 -42z" />
    <glyph glyph-name="Imacron" unicode="&#x12a;" horiz-adv-x="580" 
d="M183 0v1446h214v-1446h-214zM-22 1639v146h625v-146h-625z" />
    <glyph glyph-name="imacron" unicode="&#x12b;" horiz-adv-x="605" 
d="M197 0v1034h206v-1034h-206zM-11 1227v146h625v-146h-625z" />
    <glyph glyph-name="Ibreve" unicode="&#x12c;" horiz-adv-x="580" 
d="M183 0v1446h214v-1446h-214zM290 1565q-76 0 -142 26t-111.5 77t-61.5 124h148q16 -48 59.5 -78.5t107.5 -30.5q63 0 108 30.5t62 78.5h147q-15 -72 -60 -122.5t-111.5 -77.5t-145.5 -27z" />
    <glyph glyph-name="ibreve" unicode="&#x12d;" horiz-adv-x="496" 
d="M145 0v1034h206v-1034h-206zM249 1153q-76 0 -142 26t-111.5 77t-61.5 124h148q16 -48 59.5 -78.5t107.5 -30.5q63 0 108 30.5t62 78.5h147q-15 -72 -60 -122.5t-111.5 -77.5t-145.5 -27z" />
    <glyph glyph-name="Iogonek" unicode="&#x12e;" horiz-adv-x="580" 
d="M183 0v1446h214v-1446h-214zM244 -340q-99 0 -151 42t-52 118q0 58 41 105.5t160 85.5l153 -10q-102 -42 -145.5 -77.5t-43.5 -82.5q0 -35 20.5 -53t66.5 -18q47 0 83.5 13t60.5 26v-106q-26 -16 -79 -29.5t-114 -13.5z" />
    <glyph glyph-name="iogonek" unicode="&#x12f;" horiz-adv-x="496" 
d="M145 0v1034h206v-1034h-206zM144 1251v195h212v-195h-212zM200 -333q-99 0 -151 42t-52 118q0 58 41 105.5t160 85.5l153 -10q-102 -42 -145.5 -77.5t-43.5 -82.5q0 -35 20.5 -53t66.5 -18q47 0 83.5 13t60.5 26v-106q-26 -16 -79 -29.5t-114 -13.5z" />
    <glyph glyph-name="Idotaccent" unicode="&#x130;" horiz-adv-x="580" 
d="M183 0v1446h214v-1446h-214zM184 1663v195h212v-195h-212z" />
    <glyph glyph-name="dotlessi" unicode="&#x131;" horiz-adv-x="496" 
d="M145 0v1034h206v-1034h-206z" />
    <glyph glyph-name="Jcircumflex" unicode="&#x134;" horiz-adv-x="784" 
d="M313 -20q-74 0 -143 16t-95 25l11 202q31 -10 70.5 -24.5t96.5 -14.5q98 0 134 54t36 179v1029h215v-1088q0 -122 -27.5 -206.5t-97.5 -128t-200 -43.5zM197 1567l254 234h152l249 -234h-189l-138 133l-150 -133h-178z" />
    <glyph glyph-name="jcircumflex" unicode="&#x135;" horiz-adv-x="536" 
d="M88 -332q-83 0 -106.5 9t-23.5 16v143l96 6q67 6 95 36t28 96v1060h214v-1066q0 -151 -69 -225.5t-234 -74.5zM-46 1155l254 234h152l249 -234h-189l-138 133l-150 -133h-178z" />
    <glyph glyph-name="uni0136" unicode="&#x136;" horiz-adv-x="1383" 
d="M183 0v1446h223v-725l615 725h252l-472 -566l516 -880h-238l-433 724l-240 -279v-445h-223zM571 -397l84 131l-67 7v163h203v-137l-137 -164h-83z" />
    <glyph glyph-name="uni0137" unicode="&#x137;" horiz-adv-x="1133" 
d="M145 0v1486h214v-945l457 493h240l-374 -399l396 -635h-222l-311 499l-186 -193v-306h-214zM448 -397l84 131l-67 7v163h203v-137l-137 -164h-83z" />
    <glyph glyph-name="kgreenlandic" unicode="&#x138;" horiz-adv-x="1160" 
d="M145 0v1034h214v-511l483 511h229l-353 -358l387 -676h-249l-284 518l-213 -212v-306h-214z" />
    <glyph glyph-name="Lacute" unicode="&#x139;" horiz-adv-x="1155" 
d="M183 0l1 1446h217v-1258h668v-188h-886zM201 1567l206 291h235l-280 -291h-161z" />
    <glyph glyph-name="lacute" unicode="&#x13a;" horiz-adv-x="620" 
d="M425 -14q-92 0 -147.5 24t-84.5 64.5t-38.5 92t-9.5 106.5v1213h211v-1191q0 -72 28.5 -110t87.5 -43l54 -2v-136q-25 -8 -51.5 -13t-49.5 -5zM159 1648l206 291h235l-280 -291h-161z" />
    <glyph glyph-name="uni013B" unicode="&#x13b;" horiz-adv-x="1155" 
d="M183 0l1 1446h217v-1258h668v-188h-886zM500 -397l84 131l-67 7v163h203v-137l-137 -164h-83z" />
    <glyph glyph-name="uni013C" unicode="&#x13c;" horiz-adv-x="620" 
d="M425 -14q-92 0 -147.5 24t-84.5 64.5t-38.5 92t-9.5 106.5v1213h211v-1191q0 -72 28.5 -110t87.5 -43l54 -2v-136q-25 -8 -51.5 -13t-49.5 -5zM146 -396l84 131l-67 7v163h203v-137l-137 -164h-83z" />
    <glyph glyph-name="Lcaron" unicode="&#x13d;" horiz-adv-x="1155" 
d="M183 0l1 1446h217v-1258h668v-188h-886zM767 1045l78 189l-59 10v202h165v-212l-81 -189h-103z" />
    <glyph glyph-name="lcaron" unicode="&#x13e;" horiz-adv-x="620" 
d="M425 -14q-92 0 -147.5 24t-84.5 64.5t-38.5 92t-9.5 106.5v1213h211v-1191q0 -72 28.5 -110t87.5 -43l54 -2v-136q-25 -8 -51.5 -13t-49.5 -5zM462 1085l78 189l-59 10v202h165v-212l-81 -189h-103z" />
    <glyph glyph-name="Ldot" unicode="&#x13f;" horiz-adv-x="1155" 
d="M183 0l1 1446h217v-1258h668v-188h-886zM747 673v239h248v-239h-248z" />
    <glyph glyph-name="ldot" unicode="&#x140;" horiz-adv-x="741" 
d="M425 -14q-92 0 -147.5 24t-84.5 64.5t-38.5 92t-9.5 106.5v1213h211v-1191q0 -72 28.5 -110t87.5 -43l54 -2v-136q-25 -8 -51.5 -13t-49.5 -5zM497 655v239h248v-239h-248z" />
    <glyph glyph-name="Lslash" unicode="&#x141;" horiz-adv-x="1167" 
d="M17 592v182l705 184v-173zM195 0l1 1446h217v-1258h668v-188h-886z" />
    <glyph glyph-name="lslash" unicode="&#x142;" horiz-adv-x="715" 
d="M70 316v192l536 416v-182zM499 -14q-91 0 -147 24t-84.5 64.5t-38 92t-9.5 106.5v1213h210v-1191q0 -72 29 -110t88 -43l53 -2v-136q-25 -8 -51.5 -13t-49.5 -5z" />
    <glyph glyph-name="Nacute" unicode="&#x143;" horiz-adv-x="1523" 
d="M183 0v1446h207l736 -1078v1078h215v-1446h-192l-752 1101v-1101h-214zM673 1567l206 291h235l-280 -291h-161z" />
    <glyph glyph-name="nacute" unicode="&#x144;" horiz-adv-x="1163" 
d="M145 0v1034h209v-149q25 42 67.5 79t105 60t144.5 23q97 0 179.5 -38.5t132.5 -120t50 -210.5v-678h-214v655q0 111 -59.5 165t-153.5 54q-63 0 -120 -21t-92 -63.5t-35 -106.5v-683h-214zM511 1155l206 291h235l-280 -291h-161z" />
    <glyph glyph-name="uni0145" unicode="&#x145;" horiz-adv-x="1523" 
d="M183 0v1446h207l736 -1078v1078h215v-1446h-192l-752 1101v-1101h-214zM618 -397l84 131l-67 7v163h203v-137l-137 -164h-83z" />
    <glyph glyph-name="uni0146" unicode="&#x146;" horiz-adv-x="1163" 
d="M145 0v1034h209v-149q25 42 67.5 79t105 60t144.5 23q97 0 179.5 -38.5t132.5 -120t50 -210.5v-678h-214v655q0 111 -59.5 165t-153.5 54q-63 0 -120 -21t-92 -63.5t-35 -106.5v-683h-214zM473 -397l84 131l-67 7v163h203v-137l-137 -164h-83z" />
    <glyph glyph-name="Ncaron" unicode="&#x147;" horiz-adv-x="1523" 
d="M183 0v1446h207l736 -1078v1078h215v-1446h-192l-752 1101v-1101h-214zM686 1567l-254 235h179l150 -139l138 139h189l-249 -235h-153z" />
    <glyph glyph-name="ncaron" unicode="&#x148;" horiz-adv-x="1163" 
d="M145 0v1034h209v-149q25 42 67.5 79t105 60t144.5 23q97 0 179.5 -38.5t132.5 -120t50 -210.5v-678h-214v655q0 111 -59.5 165t-153.5 54q-63 0 -120 -21t-92 -63.5t-35 -106.5v-683h-214zM524 1155l-254 235h179l150 -139l138 139h189l-249 -235h-153z" />
    <glyph glyph-name="Eng" unicode="&#x14a;" horiz-adv-x="1523" 
d="M1016 -480q-75 0 -144 16t-95 25l11 202q31 -10 70.5 -24.5t96.5 -14.5q91 0 131 46.5t40 157.5v104l-729 1069v-1101h-214v1446h207l736 -1078v1078h215l-1 -1547q0 -130 -30 -214t-100.5 -124.5t-193.5 -40.5z" />
    <glyph glyph-name="eng" unicode="&#x14b;" horiz-adv-x="1179" 
d="M736 -332q-80 0 -99 7.5t-19 14.5v145l81 3q65 5 93 35t28 98v736q0 83 -43.5 134t-140.5 51q-73 0 -141.5 -39t-133.5 -108v-745h-216l3 1034h207v-159q68 63 127.5 102t117.5 58t122 19q145 0 228.5 -82.5t83.5 -217.5v-774q0 -98 -35 -168t-101.5 -107t-161.5 -37z
" />
    <glyph glyph-name="Omacron" unicode="&#x14c;" horiz-adv-x="1482" 
d="M744 -20q-197 0 -340.5 87.5t-221 253t-77.5 399.5q0 236 78.5 402.5t222 255t338.5 88.5q194 0 336.5 -88.5t220 -255t77.5 -402.5q0 -234 -77 -399t-219.5 -253t-337.5 -88zM744 163q126 0 215.5 58t136.5 181t47 315q0 197 -47.5 322t-137 184.5t-214.5 59.5
t-215.5 -60t-139.5 -185t-49 -321q0 -193 49 -315.5t139.5 -180.5t215.5 -58zM431 1639v146h625v-146h-625z" />
    <glyph glyph-name="omacron" unicode="&#x14d;" horiz-adv-x="1136" 
d="M569 -20q-145 0 -253 62.5t-168 181.5t-60 288q0 163 57 285t164.5 189.5t260.5 67.5q146 0 253 -63.5t166 -185t59 -293.5q0 -157 -55 -277t-161.5 -187.5t-262.5 -67.5zM570 145q89 0 148 46.5t89 131t30 195.5q0 103 -26.5 187.5t-85 134.5t-155.5 50
q-89 0 -149.5 -45.5t-90.5 -129t-30 -197.5q0 -101 27 -186t86.5 -136t156.5 -51zM256 1227v146h625v-146h-625z" />
    <glyph glyph-name="Obreve" unicode="&#x14e;" horiz-adv-x="1482" 
d="M744 -20q-197 0 -340.5 87.5t-221 253t-77.5 399.5q0 236 78.5 402.5t222 255t338.5 88.5q194 0 336.5 -88.5t220 -255t77.5 -402.5q0 -234 -77 -399t-219.5 -253t-337.5 -88zM744 163q126 0 215.5 58t136.5 181t47 315q0 197 -47.5 322t-137 184.5t-214.5 59.5
t-215.5 -60t-139.5 -185t-49 -321q0 -193 49 -315.5t139.5 -180.5t215.5 -58zM742 1565q-76 0 -142 26t-111.5 77t-61.5 124h148q16 -48 59.5 -78.5t107.5 -30.5q63 0 108 30.5t62 78.5h147q-15 -72 -60 -122.5t-111.5 -77.5t-145.5 -27z" />
    <glyph glyph-name="obreve" unicode="&#x14f;" horiz-adv-x="1136" 
d="M569 -20q-145 0 -253 62.5t-168 181.5t-60 288q0 163 57 285t164.5 189.5t260.5 67.5q146 0 253 -63.5t166 -185t59 -293.5q0 -157 -55 -277t-161.5 -187.5t-262.5 -67.5zM570 145q89 0 148 46.5t89 131t30 195.5q0 103 -26.5 187.5t-85 134.5t-155.5 50
q-89 0 -149.5 -45.5t-90.5 -129t-30 -197.5q0 -101 27 -186t86.5 -136t156.5 -51zM568 1153q-76 0 -142 26t-111.5 77t-61.5 124h148q16 -48 59.5 -78.5t107.5 -30.5q63 0 108 30.5t62 78.5h147q-15 -72 -60 -122.5t-111.5 -77.5t-145.5 -27z" />
    <glyph glyph-name="Ohungarumlaut" unicode="&#x150;" horiz-adv-x="1482" 
d="M744 -20q-197 0 -340.5 87.5t-221 253t-77.5 399.5q0 236 78.5 402.5t222 255t338.5 88.5q194 0 336.5 -88.5t220 -255t77.5 -402.5q0 -234 -77 -399t-219.5 -253t-337.5 -88zM744 163q126 0 215.5 58t136.5 181t47 315q0 197 -47.5 322t-137 184.5t-214.5 59.5
t-215.5 -60t-139.5 -185t-49 -321q0 -193 49 -315.5t139.5 -180.5t215.5 -58zM817 1567l239 291h219l-297 -291h-161zM518 1567l197 291h213l-249 -291h-161z" />
    <glyph glyph-name="ohungarumlaut" unicode="&#x151;" horiz-adv-x="1136" 
d="M569 -20q-145 0 -253 62.5t-168 181.5t-60 288q0 163 57 285t164.5 189.5t260.5 67.5q146 0 253 -63.5t166 -185t59 -293.5q0 -157 -55 -277t-161.5 -187.5t-262.5 -67.5zM570 145q89 0 148 46.5t89 131t30 195.5q0 103 -26.5 187.5t-85 134.5t-155.5 50
q-89 0 -149.5 -45.5t-90.5 -129t-30 -197.5q0 -101 27 -186t86.5 -136t156.5 -51zM642 1155l239 291h219l-297 -291h-161zM343 1155l197 291h213l-249 -291h-161z" />
    <glyph glyph-name="OE" unicode="&#x152;" horiz-adv-x="2241" 
d="M1389 638v-449l736 -1v-188h-950v200q-70 -108 -179.5 -164t-251.5 -56q-197 0 -340.5 87.5t-221 253t-77.5 399.5q0 236 78.5 402.5t222 255t338.5 88.5q142 0 251.5 -56t179.5 -165v201h934l-1 -186h-718v-439h641v-183h-642zM744 163q126 0 215.5 58t136.5 181t47 315
q0 197 -47.5 322t-137 184.5t-214.5 59.5t-215.5 -60t-139.5 -185t-49 -321q0 -193 49 -315.5t139.5 -180.5t215.5 -58z" />
    <glyph glyph-name="oe" unicode="&#x153;" horiz-adv-x="1888" 
d="M1789 538v-71h-728q0 -93 30.5 -166.5t92.5 -116t154 -42.5t159.5 42t88.5 125h198q-18 -106 -84.5 -180t-160.5 -111.5t-197 -37.5q-131 0 -233 55.5t-160 158.5q-53 -100 -147.5 -157t-232.5 -57q-145 0 -253 62.5t-168 181.5t-60 288q0 163 57 285t164.5 189.5
t260.5 67.5q129 0 227 -54t153 -162q55 103 151 159.5t228 56.5q149 0 251.5 -64t155.5 -179.5t53 -272.5zM570 145q89 0 148 46.5t89 131t30 195.5q0 103 -26.5 187.5t-85 134.5t-155.5 50q-89 0 -149.5 -45.5t-90.5 -129t-30 -197.5q0 -101 27 -186t86.5 -136t156.5 -51z
M1062 606h524q0 81 -28.5 147.5t-85.5 105t-145 38.5t-147.5 -43t-89 -110t-28.5 -138z" />
    <glyph glyph-name="Racute" unicode="&#x154;" horiz-adv-x="1363" 
d="M183 0v1446h574q161 0 267 -49.5t158 -140.5t52 -215q0 -117 -39.5 -195t-102 -127t-131.5 -77l280 -642h-225l-256 605h-363v-605h-214zM397 778h302q151 0 234 65.5t83 187.5q0 120 -75.5 182t-204.5 62h-339v-497zM576 1567l206 291h235l-280 -291h-161z" />
    <glyph glyph-name="racute" unicode="&#x155;" horiz-adv-x="793" 
d="M145 0v1034h205v-212q26 76 72.5 127.5t108.5 78t131 26.5q21 0 40 -2.5t30 -8.5v-206q-13 6 -33.5 8t-35.5 3q-68 5 -124 -7t-96.5 -40t-62 -73t-21.5 -106v-622h-214zM341 1155l206 291h235l-280 -291h-161z" />
    <glyph glyph-name="uni0156" unicode="&#x156;" horiz-adv-x="1363" 
d="M183 0v1446h574q161 0 267 -49.5t158 -140.5t52 -215q0 -117 -39.5 -195t-102 -127t-131.5 -77l280 -642h-225l-256 605h-363v-605h-214zM397 778h302q151 0 234 65.5t83 187.5q0 120 -75.5 182t-204.5 62h-339v-497zM564 -397l84 131l-67 7v163h203v-137l-137 -164h-83z
" />
    <glyph glyph-name="uni0157" unicode="&#x157;" horiz-adv-x="793" 
d="M145 0v1034h205v-212q26 76 72.5 127.5t108.5 78t131 26.5q21 0 40 -2.5t30 -8.5v-206q-13 6 -33.5 8t-35.5 3q-68 5 -124 -7t-96.5 -40t-62 -73t-21.5 -106v-622h-214zM134 -397l84 131l-67 7v163h203v-137l-137 -164h-83z" />
    <glyph glyph-name="Rcaron" unicode="&#x158;" horiz-adv-x="1363" 
d="M183 0v1446h574q161 0 267 -49.5t158 -140.5t52 -215q0 -117 -39.5 -195t-102 -127t-131.5 -77l280 -642h-225l-256 605h-363v-605h-214zM397 778h302q151 0 234 65.5t83 187.5q0 120 -75.5 182t-204.5 62h-339v-497zM589 1567l-254 235h179l150 -139l138 139h189
l-249 -235h-153z" />
    <glyph glyph-name="rcaron" unicode="&#x159;" horiz-adv-x="793" 
d="M145 0v1034h205v-212q26 76 72.5 127.5t108.5 78t131 26.5q21 0 40 -2.5t30 -8.5v-206q-13 6 -33.5 8t-35.5 3q-68 5 -124 -7t-96.5 -40t-62 -73t-21.5 -106v-622h-214zM354 1155l-254 235h179l150 -139l138 139h189l-249 -235h-153z" />
    <glyph glyph-name="Sacute" unicode="&#x15a;" horiz-adv-x="1352" 
d="M687 -20q-106 0 -203.5 26t-177 77.5t-131 128.5t-64.5 180h223q17 -78 67.5 -131t127 -80t169.5 -27q86 0 159 27t118 78t45 125q0 83 -55.5 131.5t-166.5 77.5l-290 72q-105 25 -185 71.5t-124 123t-44 189.5q0 126 69.5 219.5t189 144.5t270.5 51q173 0 291.5 -59
t180 -155.5t62.5 -209.5h-218q-9 92 -54.5 146.5t-115 78.5t-153.5 24q-148 0 -222.5 -65.5t-74.5 -155.5q0 -83 54.5 -131t161.5 -74l280 -69q132 -29 211.5 -86.5t114.5 -135t35 -169.5q0 -123 -69 -218.5t-192.5 -150t-288.5 -54.5zM585 1567l206 291h235l-280 -291h-161
z" />
    <glyph glyph-name="sacute" unicode="&#x15b;" horiz-adv-x="1023" 
d="M530 -20q-108 0 -202.5 34t-158 107t-79.5 187h191q13 -59 49.5 -97.5t88 -57t110.5 -18.5q98 0 159 35.5t61 109.5q0 53 -33 85t-103 47l-206 49q-128 30 -205 95.5t-78 183.5q0 91 45.5 162t136 111.5t223.5 40.5q175 0 281.5 -78t109.5 -226h-185q-10 71 -64.5 111.5
t-143.5 40.5q-92 0 -151 -36.5t-59 -111.5q0 -51 43.5 -80.5t128.5 -48.5l196 -49q76 -20 125 -52.5t77 -71.5t39.5 -81t11.5 -79q0 -98 -49.5 -167.5t-140.5 -107t-218 -37.5zM442 1155l206 291h235l-280 -291h-161z" />
    <glyph glyph-name="Scircumflex" unicode="&#x15c;" horiz-adv-x="1352" 
d="M687 -20q-106 0 -203.5 26t-177 77.5t-131 128.5t-64.5 180h223q17 -78 67.5 -131t127 -80t169.5 -27q86 0 159 27t118 78t45 125q0 83 -55.5 131.5t-166.5 77.5l-290 72q-105 25 -185 71.5t-124 123t-44 189.5q0 126 69.5 219.5t189 144.5t270.5 51q173 0 291.5 -59
t180 -155.5t62.5 -209.5h-218q-9 92 -54.5 146.5t-115 78.5t-153.5 24q-148 0 -222.5 -65.5t-74.5 -155.5q0 -83 54.5 -131t161.5 -74l280 -69q132 -29 211.5 -86.5t114.5 -135t35 -169.5q0 -123 -69 -218.5t-192.5 -150t-288.5 -54.5zM345 1567l254 234h152l249 -234h-189
l-138 133l-150 -133h-178z" />
    <glyph glyph-name="scircumflex" unicode="&#x15d;" horiz-adv-x="1023" 
d="M530 -20q-108 0 -202.5 34t-158 107t-79.5 187h191q13 -59 49.5 -97.5t88 -57t110.5 -18.5q98 0 159 35.5t61 109.5q0 53 -33 85t-103 47l-206 49q-128 30 -205 95.5t-78 183.5q0 91 45.5 162t136 111.5t223.5 40.5q175 0 281.5 -78t109.5 -226h-185q-10 71 -64.5 111.5
t-143.5 40.5q-92 0 -151 -36.5t-59 -111.5q0 -51 43.5 -80.5t128.5 -48.5l196 -49q76 -20 125 -52.5t77 -71.5t39.5 -81t11.5 -79q0 -98 -49.5 -167.5t-140.5 -107t-218 -37.5zM202 1155l254 234h152l249 -234h-189l-138 133l-150 -133h-178z" />
    <glyph glyph-name="Scedilla" unicode="&#x15e;" horiz-adv-x="1352" 
d="M642 -415q-56 0 -106.5 12t-94.5 39l33 83q28 -19 63 -33.5t79 -14.5q53 0 79.5 18.5t26.5 51.5q0 43 -37.5 64t-125.5 23q-10 0 -13 3t0 12l73 167h106l-46 -120q70 -2 110.5 -25t58 -56.5t17.5 -67.5q0 -50 -31 -85t-81.5 -53t-110.5 -18zM687 -20q-106 0 -203.5 26
t-177 77.5t-131 128.5t-64.5 180h223q17 -78 67.5 -131t127 -80t169.5 -27q86 0 159 27t118 78t45 125q0 83 -55.5 131.5t-166.5 77.5l-290 72q-105 25 -185 71.5t-124 123t-44 189.5q0 126 69.5 219.5t189 144.5t270.5 51q173 0 291.5 -59t180 -155.5t62.5 -209.5h-218
q-9 92 -54.5 146.5t-115 78.5t-153.5 24q-148 0 -222.5 -65.5t-74.5 -155.5q0 -83 54.5 -131t161.5 -74l280 -69q132 -29 211.5 -86.5t114.5 -135t35 -169.5q0 -123 -69 -218.5t-192.5 -150t-288.5 -54.5z" />
    <glyph glyph-name="scedilla" unicode="&#x15f;" horiz-adv-x="1023" 
d="M491 -415q-56 0 -106.5 12t-94.5 39l34 83q27 -19 62 -33.5t79 -14.5q53 0 79.5 18.5t26.5 51.5q0 43 -37.5 64t-124.5 23q-11 0 -14 3t0 12l73 167h107l-47 -120q70 -2 110.5 -25t58 -56.5t17.5 -67.5q0 -50 -31 -85t-81.5 -53t-110.5 -18zM530 -20q-108 0 -202.5 34
t-158 107t-79.5 187h191q13 -59 49.5 -97.5t88 -57t110.5 -18.5q98 0 159 35.5t61 109.5q0 53 -33 85t-103 47l-206 49q-128 30 -205 95.5t-78 183.5q0 91 45.5 162t136 111.5t223.5 40.5q175 0 281.5 -78t109.5 -226h-185q-10 71 -64.5 111.5t-143.5 40.5q-92 0 -151 -36.5
t-59 -111.5q0 -51 43.5 -80.5t128.5 -48.5l196 -49q76 -20 125 -52.5t77 -71.5t39.5 -81t11.5 -79q0 -98 -49.5 -167.5t-140.5 -107t-218 -37.5z" />
    <glyph glyph-name="Scaron" unicode="&#x160;" horiz-adv-x="1352" 
d="M687 -20q-106 0 -203.5 26t-177 77.5t-131 128.5t-64.5 180h223q17 -78 67.5 -131t127 -80t169.5 -27q86 0 159 27t118 78t45 125q0 83 -55.5 131.5t-166.5 77.5l-290 72q-105 25 -185 71.5t-124 123t-44 189.5q0 126 69.5 219.5t189 144.5t270.5 51q173 0 291.5 -59
t180 -155.5t62.5 -209.5h-218q-9 92 -54.5 146.5t-115 78.5t-153.5 24q-148 0 -222.5 -65.5t-74.5 -155.5q0 -83 54.5 -131t161.5 -74l280 -69q132 -29 211.5 -86.5t114.5 -135t35 -169.5q0 -123 -69 -218.5t-192.5 -150t-288.5 -54.5zM598 1567l-254 235h179l150 -139
l138 139h189l-249 -235h-153z" />
    <glyph glyph-name="scaron" unicode="&#x161;" horiz-adv-x="1023" 
d="M530 -20q-108 0 -202.5 34t-158 107t-79.5 187h191q13 -59 49.5 -97.5t88 -57t110.5 -18.5q98 0 159 35.5t61 109.5q0 53 -33 85t-103 47l-206 49q-128 30 -205 95.5t-78 183.5q0 91 45.5 162t136 111.5t223.5 40.5q175 0 281.5 -78t109.5 -226h-185q-10 71 -64.5 111.5
t-143.5 40.5q-92 0 -151 -36.5t-59 -111.5q0 -51 43.5 -80.5t128.5 -48.5l196 -49q76 -20 125 -52.5t77 -71.5t39.5 -81t11.5 -79q0 -98 -49.5 -167.5t-140.5 -107t-218 -37.5zM455 1155l-254 235h179l150 -139l138 139h189l-249 -235h-153z" />
    <glyph glyph-name="uni0162" unicode="&#x162;" horiz-adv-x="1199" 
d="M595 -413q-56 0 -106.5 12t-94.5 39l33 83q28 -19 63 -33t79 -14q53 0 79.5 18.5t26.5 51.5q0 42 -37.5 63t-124.5 23q-11 0 -14 3t0 12l73 167h106l-46 -119q70 -3 110.5 -26t58 -56.5t17.5 -67.5q0 -50 -31 -85t-81.5 -53t-110.5 -18zM502 0v1251h-458v195h1111v-195
h-437v-1251h-216z" />
    <glyph glyph-name="uni0163" unicode="&#x163;" horiz-adv-x="793" 
d="M446 -408q-56 0 -106.5 12t-94.5 40l33 83q28 -19 63 -33.5t79 -14.5q53 0 79.5 18.5t26.5 51.5q0 42 -37.5 63.5t-125.5 22.5q-10 0 -13 3.5t0 11.5l73 168h106l-46 -120q70 -3 110.5 -25.5t58 -56t17.5 -67.5q0 -50 -31 -85t-81.5 -53.5t-110.5 -18.5zM542 -7
q-115 0 -178 31t-88 89.5t-25 141.5v625h-168v154h175l52 304h156v-303h232v-155h-232l1 -617q0 -51 10.5 -74.5t36 -30t69.5 -6.5h120v-139q-19 -8 -58.5 -14t-102.5 -6z" />
    <glyph glyph-name="Tcaron" unicode="&#x164;" horiz-adv-x="1199" 
d="M502 0v1251h-458v195h1111v-195h-437v-1251h-216zM544 1567l-254 235h179l150 -139l138 139h189l-249 -235h-153z" />
    <glyph glyph-name="tcaron" unicode="&#x165;" horiz-adv-x="860" 
d="M542 -7q-115 0 -178 31t-88 89.5t-25 141.5v625h-168v154h175l52 304h156v-303h232v-155h-232l1 -617q0 -51 10.5 -74.5t36 -30t69.5 -6.5h120v-139q-19 -8 -58.5 -14t-102.5 -6zM547 1129l78 189l-59 10v202h165v-212l-81 -189h-103z" />
    <glyph glyph-name="Tbar" unicode="&#x166;" horiz-adv-x="1199" 
d="M211 635v166h776v-166h-776zM502 0v1251h-458v195h1111v-195h-437v-1251h-216z" />
    <glyph glyph-name="tbar" unicode="&#x167;" horiz-adv-x="793" 
d="M96 527v130h589v-130h-589zM542 -7q-115 0 -178 31t-88 89.5t-25 141.5v625h-168v154h175l52 304h156v-303h232v-155h-232l1 -617q0 -51 10.5 -74.5t36 -30t69.5 -6.5h120v-139q-19 -8 -58.5 -14t-102.5 -6z" />
    <glyph glyph-name="Utilde" unicode="&#x168;" horiz-adv-x="1414" 
d="M725 -20q-194 0 -313.5 64t-174 187t-54.5 300v915h221v-942q0 -172 84.5 -255.5t236.5 -83.5q101 0 174.5 36.5t112.5 112t39 190.5v942h217v-932q0 -169 -56 -288.5t-175.5 -182.5t-311.5 -63zM455 1624l-38 121q34 33 74 56t100 23q51 0 96 -14t88.5 -28.5t87.5 -14.5
q47 0 82 18.5t65 40.5l33 -135q-27 -21 -71.5 -41.5t-108.5 -20.5q-54 0 -96 13.5t-81 26.5t-86 13q-50 0 -81 -16t-64 -42z" />
    <glyph glyph-name="utilde" unicode="&#x169;" horiz-adv-x="1169" 
d="M525 -20q-78 1 -149 23t-126.5 66t-88 109t-32.5 151v705h215v-682q0 -93 58 -151t175 -58q106 0 170 55.5t64 162.5v673h213v-1034h-166l-24 200q-18 -81 -64.5 -129.5t-110 -70t-134.5 -20.5zM308 1212l-38 121q34 33 74 56t100 23q51 0 96 -14t88.5 -28.5t87.5 -14.5
q47 0 82 18.5t65 40.5l33 -135q-27 -21 -71.5 -41.5t-108.5 -20.5q-54 0 -96 13.5t-81 26.5t-86 13q-50 0 -81 -16t-64 -42z" />
    <glyph glyph-name="Umacron" unicode="&#x16a;" horiz-adv-x="1414" 
d="M725 -20q-194 0 -313.5 64t-174 187t-54.5 300v915h221v-942q0 -172 84.5 -255.5t236.5 -83.5q101 0 174.5 36.5t112.5 112t39 190.5v942h217v-932q0 -169 -56 -288.5t-175.5 -182.5t-311.5 -63zM414 1639v146h625v-146h-625z" />
    <glyph glyph-name="umacron" unicode="&#x16b;" horiz-adv-x="1169" 
d="M525 -20q-78 1 -149 23t-126.5 66t-88 109t-32.5 151v705h215v-682q0 -93 58 -151t175 -58q106 0 170 55.5t64 162.5v673h213v-1034h-166l-24 200q-18 -81 -64.5 -129.5t-110 -70t-134.5 -20.5zM267 1227v146h625v-146h-625z" />
    <glyph glyph-name="Ubreve" unicode="&#x16c;" horiz-adv-x="1414" 
d="M725 -20q-194 0 -313.5 64t-174 187t-54.5 300v915h221v-942q0 -172 84.5 -255.5t236.5 -83.5q101 0 174.5 36.5t112.5 112t39 190.5v942h217v-932q0 -169 -56 -288.5t-175.5 -182.5t-311.5 -63zM725 1565q-76 0 -142 26t-111.5 77t-61.5 124h148q16 -48 59.5 -78.5
t107.5 -30.5q63 0 108 30.5t62 78.5h147q-15 -72 -60 -122.5t-111.5 -77.5t-145.5 -27z" />
    <glyph glyph-name="ubreve" unicode="&#x16d;" horiz-adv-x="1169" 
d="M525 -20q-78 1 -149 23t-126.5 66t-88 109t-32.5 151v705h215v-682q0 -93 58 -151t175 -58q106 0 170 55.5t64 162.5v673h213v-1034h-166l-24 200q-18 -81 -64.5 -129.5t-110 -70t-134.5 -20.5zM579 1153q-76 0 -142 26t-111.5 77t-61.5 124h148q16 -48 59.5 -78.5
t107.5 -30.5q63 0 108 30.5t62 78.5h147q-15 -72 -60 -122.5t-111.5 -77.5t-145.5 -27z" />
    <glyph glyph-name="Uring" unicode="&#x16e;" horiz-adv-x="1414" 
d="M725 -20q-194 0 -313.5 64t-174 187t-54.5 300v915h221v-942q0 -172 84.5 -255.5t236.5 -83.5q101 0 174.5 36.5t112.5 112t39 190.5v942h217v-932q0 -169 -56 -288.5t-175.5 -182.5t-311.5 -63zM727 1561q-87 0 -147.5 61.5t-60.5 151.5q0 84 61.5 143t146.5 59
q59 0 106.5 -27.5t75.5 -74.5t28 -104q0 -88 -60.5 -148.5t-149.5 -60.5zM725 1662q44 0 74.5 32.5t30.5 74.5q0 46 -30.5 75t-74.5 29q-42 0 -74 -29t-32 -75q0 -42 32 -74.5t74 -32.5z" />
    <glyph glyph-name="uring" unicode="&#x16f;" horiz-adv-x="1169" 
d="M525 -20q-78 1 -149 23t-126.5 66t-88 109t-32.5 151v705h215v-682q0 -93 58 -151t175 -58q106 0 170 55.5t64 162.5v673h213v-1034h-166l-24 200q-18 -81 -64.5 -129.5t-110 -70t-134.5 -20.5zM580 1149q-87 0 -147.5 61.5t-60.5 151.5q0 84 61.5 143t146.5 59
q59 0 106.5 -27.5t75.5 -74.5t28 -104q0 -88 -60.5 -148.5t-149.5 -60.5zM578 1250q44 0 74.5 32.5t30.5 74.5q0 46 -30.5 75t-74.5 29q-42 0 -74 -29t-32 -75q0 -42 32 -74.5t74 -32.5z" />
    <glyph glyph-name="Uhungarumlaut" unicode="&#x170;" horiz-adv-x="1414" 
d="M725 -20q-194 0 -313.5 64t-174 187t-54.5 300v915h221v-942q0 -172 84.5 -255.5t236.5 -83.5q101 0 174.5 36.5t112.5 112t39 190.5v942h217v-932q0 -169 -56 -288.5t-175.5 -182.5t-311.5 -63zM800 1567l239 291h219l-297 -291h-161zM501 1567l197 291h213l-249 -291
h-161z" />
    <glyph glyph-name="uhungarumlaut" unicode="&#x171;" horiz-adv-x="1169" 
d="M525 -20q-78 1 -149 23t-126.5 66t-88 109t-32.5 151v705h215v-682q0 -93 58 -151t175 -58q106 0 170 55.5t64 162.5v673h213v-1034h-166l-24 200q-18 -81 -64.5 -129.5t-110 -70t-134.5 -20.5zM653 1155l239 291h219l-297 -291h-161zM354 1155l197 291h213l-249 -291
h-161z" />
    <glyph glyph-name="Uogonek" unicode="&#x172;" horiz-adv-x="1414" 
d="M746 -335q-98 0 -150.5 42.5t-52.5 117.5q0 58 41 105.5t160 85.5l153 -10q-102 -41 -145.5 -77t-43.5 -83q0 -34 21 -52t66 -18q47 0 84 12.5t60 26.5v-107q-26 -15 -78.5 -29t-114.5 -14zM725 -20q-194 0 -313.5 64t-174 187t-54.5 300v915h221v-942
q0 -172 84.5 -255.5t236.5 -83.5q101 0 174.5 36.5t112.5 112t39 190.5v942h217v-932q0 -169 -56 -288.5t-175.5 -182.5t-311.5 -63z" />
    <glyph glyph-name="uogonek" unicode="&#x173;" horiz-adv-x="1169" 
d="M525 -20q-78 1 -149 23t-126.5 66t-88 109t-32.5 151v705h215v-682q0 -93 58 -151t175 -58q106 0 170 55.5t64 162.5v673h213v-1034h-166l-24 200q-18 -81 -64.5 -129.5t-110 -70t-134.5 -20.5zM865 -334q-99 0 -151 42t-52 118q0 58 41 105.5t160 85.5l153 -10
q-102 -42 -145.5 -77.5t-43.5 -82.5q0 -35 20.5 -53t66.5 -18q47 0 83.5 13t60.5 26v-106q-26 -16 -79 -29.5t-114 -13.5z" />
    <glyph glyph-name="Wcircumflex" unicode="&#x174;" horiz-adv-x="1915" 
d="M463 0l-419 1446h214l306 -1098l310 1098h164l310 -1098l310 1098h213l-423 -1446h-188l-305 1073l-309 -1073h-183zM627 1567l254 234h152l249 -234h-189l-138 133l-150 -133h-178z" />
    <glyph glyph-name="wcircumflex" unicode="&#x175;" horiz-adv-x="1564" 
d="M370 0l-324 1034h195l226 -753h14l221 753h159l228 -751h14l218 751h198l-321 -1034h-196l-224 726l-215 -726h-193zM462 1155l254 234h152l249 -234h-189l-138 133l-150 -133h-178z" />
    <glyph glyph-name="Ycircumflex" unicode="&#x176;" horiz-adv-x="1247" 
d="M518 0v614l-496 832h234l370 -643l365 643h234l-493 -833v-613h-214zM317 1569l254 234h152l249 -234h-189l-138 133l-150 -133h-178z" />
    <glyph glyph-name="ycircumflex" unicode="&#x177;" horiz-adv-x="1085" 
d="M264 -330q-95 0 -131.5 14l-36.5 14v138l105 -2q60 -3 99 7t61.5 27.5t34 37.5t17.5 37l32 87l-403 1004h214l290 -764l289 764h209l-431 -1092q-44 -108 -96.5 -167t-115.5 -82t-137 -23zM222 1155l254 234h152l249 -234h-189l-138 133l-150 -133h-178z" />
    <glyph glyph-name="Ydieresis" unicode="&#x178;" horiz-adv-x="1247" 
d="M518 0v614l-496 832h234l370 -643l365 643h234l-493 -833v-613h-214zM747 1665l2 195h206l-2 -195h-206zM337 1665l2 195h206l-2 -195h-206z" />
    <glyph glyph-name="Zacute" unicode="&#x179;" horiz-adv-x="1292" 
d="M122 0v113l776 1149h-738v184h1040v-108l-784 -1152h779v-186h-1073zM601 1567l206 291h235l-280 -291h-161z" />
    <glyph glyph-name="zacute" unicode="&#x17a;" horiz-adv-x="970" 
d="M73 0v128l563 751h-538v155h795v-128l-564 -751h568v-155h-824zM404 1155l206 291h235l-280 -291h-161z" />
    <glyph glyph-name="Zdotaccent" unicode="&#x17b;" horiz-adv-x="1292" 
d="M122 0v113l776 1149h-738v184h1040v-108l-784 -1152h779v-186h-1073zM583 1663v195h212v-195h-212z" />
    <glyph glyph-name="zdotaccent" unicode="&#x17c;" horiz-adv-x="970" 
d="M73 0v128l563 751h-538v155h795v-128l-564 -751h568v-155h-824zM386 1251v195h212v-195h-212z" />
    <glyph glyph-name="Zcaron" unicode="&#x17d;" horiz-adv-x="1292" 
d="M122 0v113l776 1149h-738v184h1040v-108l-784 -1152h779v-186h-1073zM614 1567l-254 235h179l150 -139l138 139h189l-249 -235h-153z" />
    <glyph glyph-name="zcaron" unicode="&#x17e;" horiz-adv-x="970" 
d="M73 0v128l563 751h-538v155h795v-128l-564 -751h568v-155h-824zM417 1155l-254 235h179l150 -139l138 139h189l-249 -235h-153z" />
    <glyph glyph-name="uni018F" unicode="&#x18f;" horiz-adv-x="1480" 
d="M740 -20q-190 0 -332.5 85.5t-222 262.5t-79.5 452h1015q0 229 -99 355.5t-286 126.5q-93 0 -165 -28.5t-121.5 -74.5t-75 -100t-25.5 -104h-244q0 84 44 173.5t127 166t200.5 124t263.5 47.5q199 0 341 -87t218 -251.5t76 -397.5q0 -250 -79.5 -416.5t-222 -250
t-333.5 -83.5zM740 173q125 0 208.5 57.5t126.5 157t45 226.5l-753 1q0 -128 42.5 -228t126 -157t204.5 -57z" />
    <glyph glyph-name="florin" unicode="&#x192;" horiz-adv-x="946" 
d="M-115 -334l22 149l117 1q66 1 98.5 33.5t46.5 117.5l160 913h-167l27 154h167l27 157q23 124 102.5 189.5t202.5 65.5h206l-24 -148h-143q-50 0 -88.5 -38t-49.5 -98l-23 -128h248l-28 -154h-242l-167 -951q-21 -123 -99 -193t-207 -70h-186z" />
    <glyph glyph-name="Ohorn" unicode="&#x1a0;" horiz-adv-x="1598" 
d="M744 -20q-197 0 -340.5 87.5t-221 253t-77.5 399.5q0 236 78.5 402.5t222 255t338.5 88.5q143 0 258.5 -48t197.5 -141q42 1 71 8t48 27.5t30 60.5t14 107h160q0 -106 -23.5 -176.5t-76 -106.5t-140.5 -41q46 -85 70.5 -194.5t24.5 -241.5q0 -234 -77 -399t-219.5 -253
t-337.5 -88zM744 163q126 0 215.5 58t136.5 181t47 315q0 197 -47.5 322t-137 184.5t-214.5 59.5t-215.5 -60t-139.5 -185t-49 -321q0 -193 49 -315.5t139.5 -180.5t215.5 -58z" />
    <glyph glyph-name="ohorn" unicode="&#x1a1;" horiz-adv-x="1225" 
d="M569 -20q-145 0 -253 62.5t-168 181.5t-60 288q0 163 57 285t164.5 189.5t260.5 67.5q110 0 198.5 -36.5t150.5 -106.5q46 4 74.5 20t43 58.5t19.5 123.5h159q0 -102 -21.5 -171.5t-70.5 -106t-131 -43.5q56 -114 56 -280q0 -157 -55 -277t-161.5 -187.5t-262.5 -67.5z
M570 145q89 0 148 46.5t89 131t30 195.5q0 103 -26.5 187.5t-85 134.5t-155.5 50q-89 0 -149.5 -45.5t-90.5 -129t-30 -197.5q0 -101 27 -186t86.5 -136t156.5 -51z" />
    <glyph glyph-name="Uhorn" unicode="&#x1af;" horiz-adv-x="1648" 
d="M725 -20q-194 0 -313.5 64t-174 187t-54.5 300v915h221v-942q0 -172 84.5 -255.5t236.5 -83.5q101 0 174.5 36.5t112.5 112t39 190.5v942h217v-169q45 2 72.5 19t42 60.5t19.5 123.5h160q-1 -117 -29.5 -190.5t-92 -105.5t-172.5 -27v-643q0 -169 -56 -288.5
t-175.5 -182.5t-311.5 -63z" />
    <glyph glyph-name="uhorn" unicode="&#x1b0;" horiz-adv-x="1336" 
d="M525 -20q-78 1 -149 23t-126.5 66t-88 109t-32.5 151v705h215v-682q0 -93 58 -151t175 -58q106 0 170 55.5t64 162.5v673h213v-124q50 1 80.5 17t45.5 59.5t20 126.5h160q-1 -118 -30.5 -192t-96 -105.5t-179.5 -24.5v-791h-166l-24 200q-18 -81 -64.5 -129.5t-110 -70
t-134.5 -20.5z" />
    <glyph glyph-name="uni01D4" unicode="&#x1d4;" horiz-adv-x="1169" 
d="M525 -20q-78 1 -149 23t-126.5 66t-88 109t-32.5 151v705h215v-682q0 -93 58 -151t175 -58q106 0 170 55.5t64 162.5v673h213v-1034h-166l-24 200q-18 -81 -64.5 -129.5t-110 -70t-134.5 -20.5zM504 1155l-254 235h179l150 -139l138 139h189l-249 -235h-153z" />
    <glyph glyph-name="uni01EA" unicode="&#x1ea;" horiz-adv-x="1482" 
d="M774 -337q-99 0 -151 42.5t-52 117.5q0 59 41 106.5t160 84.5l153 -10q-102 -41 -145.5 -77t-43.5 -82q0 -35 20.5 -53t66.5 -18q47 0 84 13t60 26v-107q-26 -15 -78.5 -29t-114.5 -14zM744 -20q-197 0 -340.5 87.5t-221 253t-77.5 399.5q0 236 78.5 402.5t222 255
t338.5 88.5q194 0 336.5 -88.5t220 -255t77.5 -402.5q0 -234 -77 -399t-219.5 -253t-337.5 -88zM744 163q126 0 215.5 58t136.5 181t47 315q0 197 -47.5 322t-137 184.5t-214.5 59.5t-215.5 -60t-139.5 -185t-49 -321q0 -193 49 -315.5t139.5 -180.5t215.5 -58z" />
    <glyph glyph-name="uni01EB" unicode="&#x1eb;" horiz-adv-x="1136" 
d="M596 -332q-98 0 -150.5 42.5t-52.5 117.5q0 58 41 105.5t160 85.5l154 -10q-103 -41 -146 -77t-43 -83q0 -35 20.5 -52.5t65.5 -17.5q48 0 84.5 12.5t59.5 25.5v-106q-25 -15 -78 -29t-115 -14zM569 -20q-145 0 -253 62.5t-168 181.5t-60 288q0 163 57 285t164.5 189.5
t260.5 67.5q146 0 253 -63.5t166 -185t59 -293.5q0 -157 -55 -277t-161.5 -187.5t-262.5 -67.5zM570 145q89 0 148 46.5t89 131t30 195.5q0 103 -26.5 187.5t-85 134.5t-155.5 50q-89 0 -149.5 -45.5t-90.5 -129t-30 -197.5q0 -101 27 -186t86.5 -136t156.5 -51z" />
    <glyph glyph-name="Aringacute" unicode="&#x1fa;" horiz-adv-x="1429" 
d="M849 1880l-59 -139q57 -21 92.5 -69.5t35.5 -112.5q0 -87 -59 -142.5t-145 -55.5t-144.5 57t-58.5 145q0 71 46 122.5t114 63.5l30 131h148zM712 1450q44 0 74.5 32.5t30.5 74.5q0 46 -30.5 75.5t-74.5 29.5q-42 0 -74 -29.5t-32 -75.5q0 -42 32 -74.5t74 -32.5zM75 0
l522 1446h236l521 -1446h-216l-136 379h-573l-137 -379h-217zM482 573h464l-232 665z" />
    <glyph glyph-name="aringacute" unicode="&#x1fb;" horiz-adv-x="1113" 
d="M700 1495l-58 -139q56 -21 92 -69.5t36 -113.5q0 -86 -59.5 -141.5t-144.5 -55.5q-86 0 -144.5 57t-58.5 144q0 72 45.5 123t113.5 64l31 131h147zM564 1064q44 0 74.5 33t30.5 74q0 46 -30.5 76t-74.5 30q-42 0 -74 -30t-32 -76q0 -41 32 -74t74 -33zM440 -20
q-100 0 -177.5 36t-121.5 104t-44 164q0 172 121.5 257t389.5 90l170 5v75q0 89 -53 140t-164 50q-82 0 -147 -38t-85 -125h-185q6 103 59.5 173.5t147.5 106.5t220 36q142 0 233 -38.5t135.5 -112.5t44.5 -180v-723h-182l-16 190q-58 -119 -147 -164.5t-199 -45.5zM507 129
q49 0 97 17.5t87 48t62.5 68.5t24.5 78v171l-140 -3q-107 -1 -181.5 -22t-114 -65t-39.5 -117q0 -83 57.5 -129.5t146.5 -46.5z" />
    <glyph glyph-name="AEacute" unicode="&#x1fc;" horiz-adv-x="1985" 
d="M0 0l793 1446h1053l-1 -183h-688v-443h610v-181h-610v-455h712v-184h-956v384h-486l-210 -384h-217zM511 573h402v724zM1210 1567l206 291h235l-280 -291h-161z" />
    <glyph glyph-name="aeacute" unicode="&#x1fd;" horiz-adv-x="1828" 
d="M440 -20q-100 0 -177.5 36t-121.5 104t-44 164q0 172 122 257.5t390 89.5l169 5v75q0 93 -58.5 142t-158.5 48q-81 0 -146.5 -40t-85.5 -123h-185q6 94 59.5 165.5t148 111t219.5 39.5q131 0 221.5 -42.5t133.5 -118.5q57 77 143.5 119t198.5 42q150 0 252.5 -64
t155.5 -179.5t53 -272.5v-71h-728q0 -93 30.5 -166.5t92.5 -116t154 -42.5t159.5 42t88.5 125h198q-18 -106 -84.5 -180t-160.5 -111.5t-197 -37.5q-143 0 -253 61.5t-171 175.5q-24 -73 -83.5 -126.5t-145 -82t-189.5 -28.5zM507 129q81 0 141 37.5t93.5 93t33.5 109.5v143
l-137 -3q-106 -1 -181 -22t-114.5 -65t-39.5 -117q0 -83 57.5 -129.5t146.5 -46.5zM1001 606h524q0 81 -28 147.5t-85.5 105t-144.5 38.5q-89 0 -148 -43t-88.5 -110t-29.5 -138zM794 1155l206 291h235l-280 -291h-161z" />
    <glyph glyph-name="Oslashacute" unicode="&#x1fe;" horiz-adv-x="1515" 
d="M160 -27l-107 107l169 183q-51 88 -78.5 202t-27.5 253q0 236 78 403t221 256t339 89q135 0 244.5 -42.5t190.5 -125.5l162 173l107 -105l-175 -190q52 -88 79 -203t27 -253q0 -234 -77 -399.5t-220 -253t-339 -87.5q-135 0 -244.5 41.5t-188.5 120.5zM755 160
q174 0 265 113.5t100 351.5q5 96 -2.5 185t-28.5 172l-621 -687q94 -135 287 -135zM415 457l623 688q-46 73 -117 108t-167 35q-176 0 -270 -121t-103 -371q-4 -93 5 -178t29 -161zM664 1567l206 291h235l-280 -291h-161z" />
    <glyph glyph-name="oslashacute" unicode="&#x1ff;" horiz-adv-x="1186" 
d="M124 -12l-81 85l1011 970l80 -85zM597 -20q-145 0 -253.5 62.5t-168 181.5t-59.5 288q0 163 56.5 285t164.5 189.5t261 67.5q146 0 253 -63.5t166 -185t59 -293.5q0 -157 -55.5 -277t-162 -187.5t-261.5 -67.5zM598 145q88 0 147.5 46.5t89.5 131t30 195.5
q0 103 -26.5 187.5t-85.5 134.5t-155 50q-90 0 -150 -45.5t-90.5 -129t-30.5 -197.5q0 -101 27 -186t87 -136t157 -51zM501 1155l206 291h235l-280 -291h-161z" />
    <glyph glyph-name="uni0200" unicode="&#x200;" horiz-adv-x="1429" 
d="M75 0l522 1446h236l521 -1446h-216l-136 379h-573l-137 -379h-217zM482 573h464l-232 665zM483 1567l-297 291h219l239 -291h-161zM782 1567l-250 291h214l197 -291h-161z" />
    <glyph glyph-name="uni0201" unicode="&#x201;" horiz-adv-x="1113" 
d="M440 -20q-100 0 -177.5 36t-121.5 104t-44 164q0 172 121.5 257t389.5 90l170 5v75q0 89 -53 140t-164 50q-82 0 -147 -38t-85 -125h-185q6 103 59.5 173.5t147.5 106.5t220 36q142 0 233 -38.5t135.5 -112.5t44.5 -180v-723h-182l-16 190q-58 -119 -147 -164.5
t-199 -45.5zM507 129q49 0 97 17.5t87 48t62.5 68.5t24.5 78v171l-140 -3q-107 -1 -181.5 -22t-114 -65t-39.5 -117q0 -83 57.5 -129.5t146.5 -46.5zM341 1155l-297 291h219l239 -291h-161zM640 1155l-250 291h214l197 -291h-161z" />
    <glyph glyph-name="uni0202" unicode="&#x202;" horiz-adv-x="1429" 
d="M75 0l522 1446h236l521 -1446h-216l-136 379h-573l-137 -379h-217zM482 573h464l-232 665zM395 1612q16 75 61.5 125t111.5 76t142 26q79 0 145.5 -26.5t111.5 -77t60 -123.5h-147q-17 48 -62 79t-108 31q-64 0 -107.5 -31t-59.5 -79h-148z" />
    <glyph glyph-name="uni0203" unicode="&#x203;" horiz-adv-x="1113" 
d="M440 -20q-100 0 -177.5 36t-121.5 104t-44 164q0 172 121.5 257t389.5 90l170 5v75q0 89 -53 140t-164 50q-82 0 -147 -38t-85 -125h-185q6 103 59.5 173.5t147.5 106.5t220 36q142 0 233 -38.5t135.5 -112.5t44.5 -180v-723h-182l-16 190q-58 -119 -147 -164.5
t-199 -45.5zM507 129q49 0 97 17.5t87 48t62.5 68.5t24.5 78v171l-140 -3q-107 -1 -181.5 -22t-114 -65t-39.5 -117q0 -83 57.5 -129.5t146.5 -46.5zM253 1200q16 75 61.5 125t111.5 76t142 26q79 0 145.5 -26.5t111.5 -77t60 -123.5h-147q-17 48 -62 79t-108 31
q-64 0 -107.5 -31t-59.5 -79h-148z" />
    <glyph glyph-name="uni0204" unicode="&#x204;" horiz-adv-x="1249" 
d="M183 0v1446h934l-1 -186h-718v-439h641v-183h-642v-449l737 -1v-188h-951zM421 1567l-297 291h219l239 -291h-161zM720 1567l-250 291h214l197 -291h-161z" />
    <glyph glyph-name="uni0205" unicode="&#x205;" horiz-adv-x="1139" 
d="M593 -20q-147 0 -259 63.5t-174.5 181.5t-62.5 281q0 161 57 284.5t165 193.5t260 70q149 0 252 -64t156 -179.5t53 -272.5v-71h-728q-1 -93 30 -166.5t92.5 -116t153.5 -42.5q93 0 160.5 42t88.5 125h198q-18 -106 -85 -180t-161 -111.5t-196 -37.5zM312 606h524
q0 81 -28 147.5t-85.5 105t-144.5 38.5q-89 0 -148 -43t-88.5 -110t-29.5 -138zM348 1155l-297 291h219l239 -291h-161zM647 1155l-250 291h214l197 -291h-161z" />
    <glyph glyph-name="uni0206" unicode="&#x206;" horiz-adv-x="1249" 
d="M183 0v1446h934l-1 -186h-718v-439h641v-183h-642v-449l737 -1v-188h-951zM333 1612q16 75 61.5 125t111.5 76t142 26q79 0 145.5 -26.5t111.5 -77t60 -123.5h-147q-17 48 -62 79t-108 31q-64 0 -107.5 -31t-59.5 -79h-148z" />
    <glyph glyph-name="uni0207" unicode="&#x207;" horiz-adv-x="1139" 
d="M593 -20q-147 0 -259 63.5t-174.5 181.5t-62.5 281q0 161 57 284.5t165 193.5t260 70q149 0 252 -64t156 -179.5t53 -272.5v-71h-728q-1 -93 30 -166.5t92.5 -116t153.5 -42.5q93 0 160.5 42t88.5 125h198q-18 -106 -85 -180t-161 -111.5t-196 -37.5zM312 606h524
q0 81 -28 147.5t-85.5 105t-144.5 38.5q-89 0 -148 -43t-88.5 -110t-29.5 -138zM260 1200q16 75 61.5 125t111.5 76t142 26q79 0 145.5 -26.5t111.5 -77t60 -123.5h-147q-17 48 -62 79t-108 31q-64 0 -107.5 -31t-59.5 -79h-148z" />
    <glyph glyph-name="uni0208" unicode="&#x208;" horiz-adv-x="580" 
d="M183 0v1446h214v-1446h-214zM59 1567l-297 291h219l239 -291h-161zM358 1567l-250 291h214l197 -291h-161z" />
    <glyph glyph-name="uni0209" unicode="&#x209;" horiz-adv-x="496" 
d="M145 0v1034h206v-1034h-206zM18 1155l-297 291h219l239 -291h-161zM317 1155l-250 291h214l197 -291h-161z" />
    <glyph glyph-name="uni020A" unicode="&#x20a;" horiz-adv-x="580" 
d="M183 0v1446h214v-1446h-214zM-29 1612q16 75 61.5 125t111.5 76t142 26q79 0 145.5 -26.5t111.5 -77t60 -123.5h-147q-17 48 -62 79t-108 31q-64 0 -107.5 -31t-59.5 -79h-148z" />
    <glyph glyph-name="uni020B" unicode="&#x20b;" horiz-adv-x="600" 
d="M194 0v1034h206v-1034h-206zM-20 1200q16 75 61.5 125t111.5 76t142 26q79 0 145.5 -26.5t111.5 -77t60 -123.5h-147q-17 48 -62 79t-108 31q-64 0 -107.5 -31t-59.5 -79h-148z" />
    <glyph glyph-name="uni020C" unicode="&#x20c;" horiz-adv-x="1482" 
d="M744 -20q-197 0 -340.5 87.5t-221 253t-77.5 399.5q0 236 78.5 402.5t222 255t338.5 88.5q194 0 336.5 -88.5t220 -255t77.5 -402.5q0 -234 -77 -399t-219.5 -253t-337.5 -88zM744 163q126 0 215.5 58t136.5 181t47 315q0 197 -47.5 322t-137 184.5t-214.5 59.5
t-215.5 -60t-139.5 -185t-49 -321q0 -193 49 -315.5t139.5 -180.5t215.5 -58zM512 1567l-297 291h219l239 -291h-161zM811 1567l-250 291h214l197 -291h-161z" />
    <glyph glyph-name="uni020D" unicode="&#x20d;" horiz-adv-x="1136" 
d="M569 -20q-145 0 -253 62.5t-168 181.5t-60 288q0 163 57 285t164.5 189.5t260.5 67.5q146 0 253 -63.5t166 -185t59 -293.5q0 -157 -55 -277t-161.5 -187.5t-262.5 -67.5zM570 145q89 0 148 46.5t89 131t30 195.5q0 103 -26.5 187.5t-85 134.5t-155.5 50
q-89 0 -149.5 -45.5t-90.5 -129t-30 -197.5q0 -101 27 -186t86.5 -136t156.5 -51zM337 1155l-297 291h219l239 -291h-161zM636 1155l-250 291h214l197 -291h-161z" />
    <glyph glyph-name="uni020E" unicode="&#x20e;" horiz-adv-x="1482" 
d="M744 -20q-197 0 -340.5 87.5t-221 253t-77.5 399.5q0 236 78.5 402.5t222 255t338.5 88.5q194 0 336.5 -88.5t220 -255t77.5 -402.5q0 -234 -77 -399t-219.5 -253t-337.5 -88zM744 163q126 0 215.5 58t136.5 181t47 315q0 197 -47.5 322t-137 184.5t-214.5 59.5
t-215.5 -60t-139.5 -185t-49 -321q0 -193 49 -315.5t139.5 -180.5t215.5 -58zM424 1612q16 75 61.5 125t111.5 76t142 26q79 0 145.5 -26.5t111.5 -77t60 -123.5h-147q-17 48 -62 79t-108 31q-64 0 -107.5 -31t-59.5 -79h-148z" />
    <glyph glyph-name="uni020F" unicode="&#x20f;" horiz-adv-x="1136" 
d="M569 -20q-145 0 -253 62.5t-168 181.5t-60 288q0 163 57 285t164.5 189.5t260.5 67.5q146 0 253 -63.5t166 -185t59 -293.5q0 -157 -55 -277t-161.5 -187.5t-262.5 -67.5zM570 145q89 0 148 46.5t89 131t30 195.5q0 103 -26.5 187.5t-85 134.5t-155.5 50
q-89 0 -149.5 -45.5t-90.5 -129t-30 -197.5q0 -101 27 -186t86.5 -136t156.5 -51zM249 1200q16 75 61.5 125t111.5 76t142 26q79 0 145.5 -26.5t111.5 -77t60 -123.5h-147q-17 48 -62 79t-108 31q-64 0 -107.5 -31t-59.5 -79h-148z" />
    <glyph glyph-name="uni0210" unicode="&#x210;" horiz-adv-x="1363" 
d="M183 0v1446h574q161 0 267 -49.5t158 -140.5t52 -215q0 -117 -39.5 -195t-102 -127t-131.5 -77l280 -642h-225l-256 605h-363v-605h-214zM397 778h302q151 0 234 65.5t83 187.5q0 120 -75.5 182t-204.5 62h-339v-497zM433 1567l-297 291h219l239 -291h-161zM732 1567
l-250 291h214l197 -291h-161z" />
    <glyph glyph-name="uni0211" unicode="&#x211;" horiz-adv-x="793" 
d="M145 0v1034h205v-212q26 76 72.5 127.5t108.5 78t131 26.5q21 0 40 -2.5t30 -8.5v-206q-13 6 -33.5 8t-35.5 3q-68 5 -124 -7t-96.5 -40t-62 -73t-21.5 -106v-622h-214zM198 1155l-297 291h219l239 -291h-161zM497 1155l-250 291h214l197 -291h-161z" />
    <glyph glyph-name="uni0212" unicode="&#x212;" horiz-adv-x="1363" 
d="M183 0v1446h574q161 0 267 -49.5t158 -140.5t52 -215q0 -117 -39.5 -195t-102 -127t-131.5 -77l280 -642h-225l-256 605h-363v-605h-214zM397 778h302q151 0 234 65.5t83 187.5q0 120 -75.5 182t-204.5 62h-339v-497zM345 1612q16 75 61.5 125t111.5 76t142 26
q79 0 145.5 -26.5t111.5 -77t60 -123.5h-147q-17 48 -62 79t-108 31q-64 0 -107.5 -31t-59.5 -79h-148z" />
    <glyph glyph-name="uni0213" unicode="&#x213;" horiz-adv-x="793" 
d="M145 0v1034h205v-212q26 76 72.5 127.5t108.5 78t131 26.5q21 0 40 -2.5t30 -8.5v-206q-13 6 -33.5 8t-35.5 3q-68 5 -124 -7t-96.5 -40t-62 -73t-21.5 -106v-622h-214zM110 1183q16 75 61.5 125t111.5 76t142 26q79 0 145.5 -26.5t111.5 -77t60 -123.5h-147
q-17 48 -62 79t-108 31q-64 0 -107.5 -31t-59.5 -79h-148z" />
    <glyph glyph-name="uni0214" unicode="&#x214;" horiz-adv-x="1414" 
d="M725 -20q-194 0 -313.5 64t-174 187t-54.5 300v915h221v-942q0 -172 84.5 -255.5t236.5 -83.5q101 0 174.5 36.5t112.5 112t39 190.5v942h217v-932q0 -169 -56 -288.5t-175.5 -182.5t-311.5 -63zM495 1567l-297 291h219l239 -291h-161zM794 1567l-250 291h214l197 -291
h-161z" />
    <glyph glyph-name="uni0215" unicode="&#x215;" horiz-adv-x="1169" 
d="M525 -20q-78 1 -149 23t-126.5 66t-88 109t-32.5 151v705h215v-682q0 -93 58 -151t175 -58q106 0 170 55.5t64 162.5v673h213v-1034h-166l-24 200q-18 -81 -64.5 -129.5t-110 -70t-134.5 -20.5zM348 1155l-297 291h219l239 -291h-161zM647 1155l-250 291h214l197 -291
h-161z" />
    <glyph glyph-name="uni0216" unicode="&#x216;" horiz-adv-x="1414" 
d="M725 -20q-194 0 -313.5 64t-174 187t-54.5 300v915h221v-942q0 -172 84.5 -255.5t236.5 -83.5q101 0 174.5 36.5t112.5 112t39 190.5v942h217v-932q0 -169 -56 -288.5t-175.5 -182.5t-311.5 -63zM407 1612q16 75 61.5 125t111.5 76t142 26q79 0 145.5 -26.5t111.5 -77
t60 -123.5h-147q-17 48 -62 79t-108 31q-64 0 -107.5 -31t-59.5 -79h-148z" />
    <glyph glyph-name="uni0217" unicode="&#x217;" horiz-adv-x="1169" 
d="M525 -20q-78 1 -149 23t-126.5 66t-88 109t-32.5 151v705h215v-682q0 -93 58 -151t175 -58q106 0 170 55.5t64 162.5v673h213v-1034h-166l-24 200q-18 -81 -64.5 -129.5t-110 -70t-134.5 -20.5zM260 1200q16 75 61.5 125t111.5 76t142 26q79 0 145.5 -26.5t111.5 -77
t60 -123.5h-147q-17 48 -62 79t-108 31q-64 0 -107.5 -31t-59.5 -79h-148z" />
    <glyph glyph-name="uni0218" unicode="&#x218;" horiz-adv-x="1352" 
d="M687 -20q-106 0 -203.5 26t-177 77.5t-131 128.5t-64.5 180h223q17 -78 67.5 -131t127 -80t169.5 -27q86 0 159 27t118 78t45 125q0 83 -55.5 131.5t-166.5 77.5l-290 72q-105 25 -185 71.5t-124 123t-44 189.5q0 126 69.5 219.5t189 144.5t270.5 51q173 0 291.5 -59
t180 -155.5t62.5 -209.5h-218q-9 92 -54.5 146.5t-115 78.5t-153.5 24q-148 0 -222.5 -65.5t-74.5 -155.5q0 -83 54.5 -131t161.5 -74l280 -69q132 -29 211.5 -86.5t114.5 -135t35 -169.5q0 -123 -69 -218.5t-192.5 -150t-288.5 -54.5zM550 -397l84 131l-67 7v163h203v-137
l-137 -164h-83z" />
    <glyph glyph-name="uni0219" unicode="&#x219;" horiz-adv-x="1023" 
d="M530 -20q-108 0 -202.5 34t-158 107t-79.5 187h191q13 -59 49.5 -97.5t88 -57t110.5 -18.5q98 0 159 35.5t61 109.5q0 53 -33 85t-103 47l-206 49q-128 30 -205 95.5t-78 183.5q0 91 45.5 162t136 111.5t223.5 40.5q175 0 281.5 -78t109.5 -226h-185q-10 71 -64.5 111.5
t-143.5 40.5q-92 0 -151 -36.5t-59 -111.5q0 -51 43.5 -80.5t128.5 -48.5l196 -49q76 -20 125 -52.5t77 -71.5t39.5 -81t11.5 -79q0 -98 -49.5 -167.5t-140.5 -107t-218 -37.5zM399 -397l84 131l-67 7v163h203v-137l-137 -164h-83z" />
    <glyph glyph-name="uni021A" unicode="&#x21a;" horiz-adv-x="1199" 
d="M502 0v1251h-458v195h1111v-195h-437v-1251h-216zM503 -395l84 131l-67 7v163h203v-137l-137 -164h-83z" />
    <glyph glyph-name="uni021B" unicode="&#x21b;" horiz-adv-x="793" 
d="M542 -7q-115 0 -178 31t-88 89.5t-25 141.5v625h-168v154h175l52 304h156v-303h232v-155h-232l1 -617q0 -51 10.5 -74.5t36 -30t69.5 -6.5h120v-139q-19 -8 -58.5 -14t-102.5 -6zM354 -389l84 131l-67 7v163h203v-137l-137 -164h-83z" />
    <glyph glyph-name="uni0237" unicode="&#x237;" horiz-adv-x="536" 
d="M88 -332q-83 0 -106.5 9t-23.5 16v143l96 6q67 6 95 36t28 96v1060h214v-1066q0 -151 -69 -225.5t-234 -74.5z" />
    <glyph glyph-name="uni0259" unicode="&#x259;" horiz-adv-x="1139" 
d="M559 -20q-148 0 -251 64t-156 179.5t-53 272.5v71h728q0 93 -30.5 166.5t-92.5 116t-154 42.5t-159.5 -42t-88.5 -125h-198q19 107 85 180.5t160.5 111t196.5 37.5q147 0 258.5 -63t174.5 -181t63 -282q0 -161 -57 -284.5t-164.5 -193.5t-261.5 -70zM561 137q89 0 148 43
t88.5 110t28.5 139h-524q0 -82 28.5 -148t85.5 -105t145 -39z" />
    <glyph glyph-name="uni02BB" unicode="&#x2bb;" horiz-adv-x="457" 
d="M100 966v208q0 75 35.5 139t92 97.5t120.5 20.5v-74l-18 -2q-39 -3 -73 -42t-34 -91v-14l125 -8v-234h-248z" />
    <glyph glyph-name="uni02BC" unicode="&#x2bc;" horiz-adv-x="457" 
d="M100 969v75l18 1q40 4 74 43t34 90v14l-126 8v235h248v-208q0 -76 -35 -139.5t-92 -97.5t-121 -21z" />
    <glyph glyph-name="circumflex" unicode="&#x2c6;" horiz-adv-x="678" 
d="M12 1155l254 234h152l249 -234h-189l-138 133l-150 -133h-178z" />
    <glyph glyph-name="caron" unicode="&#x2c7;" horiz-adv-x="691" 
d="M265 1155l-254 235h179l150 -139l138 139h189l-249 -235h-153z" />
    <glyph glyph-name="breve" unicode="&#x2d8;" horiz-adv-x="678" 
d="M338 1155q-76 0 -142 26t-111.5 77t-61.5 124h148q16 -48 59.5 -78.5t107.5 -30.5q63 0 108 30.5t62 78.5h147q-15 -72 -60 -122.5t-111.5 -77.5t-145.5 -27z" />
    <glyph glyph-name="dotaccent" unicode="&#x2d9;" horiz-adv-x="232" 
d="M10 1251v195h212v-195h-212z" />
    <glyph glyph-name="ring" unicode="&#x2da;" horiz-adv-x="483" 
d="M237 1139q-87 0 -147.5 61.5t-60.5 151.5q0 84 61.5 143t146.5 59q59 0 106.5 -27.5t75.5 -74.5t28 -104q0 -88 -60.5 -148.5t-149.5 -60.5zM235 1240q44 0 74.5 32.5t30.5 74.5q0 46 -30.5 75t-74.5 29q-42 0 -74 -29t-32 -75q0 -42 32 -74.5t74 -32.5z" />
    <glyph glyph-name="ogonek" unicode="&#x2db;" horiz-adv-x="461" 
d="M232 -333q-99 0 -151 42t-52 118q0 58 41 105.5t160 85.5l153 -10q-102 -42 -145.5 -77.5t-43.5 -82.5q0 -35 20.5 -53t66.5 -18q47 0 83.5 13t60.5 26v-106q-26 -16 -79 -29.5t-114 -13.5z" />
    <glyph glyph-name="tilde" unicode="&#x2dc;" horiz-adv-x="727" 
d="M86 1212l-38 121q34 33 74 56t100 23q51 0 96 -14t88.5 -28.5t87.5 -14.5q47 0 82 18.5t65 40.5l33 -135q-27 -21 -71.5 -41.5t-108.5 -20.5q-54 0 -96 13.5t-81 26.5t-86 13q-50 0 -81 -16t-64 -42z" />
    <glyph glyph-name="hungarumlaut" unicode="&#x2dd;" horiz-adv-x="778" 
d="M310 1155l239 291h219l-297 -291h-161zM11 1155l197 291h213l-249 -291h-161z" />
    <glyph glyph-name="gravecomb" unicode="&#x300;" 
d="M290 1155l-280 291h236l206 -291h-162z" />
    <glyph glyph-name="acutecomb" unicode="&#x301;" 
d="M10 1155l206 291h235l-280 -291h-161z" />
    <glyph glyph-name="uni0302" unicode="&#x302;" 
d="M12 1155l254 234h152l249 -234h-189l-138 133l-150 -133h-178z" />
    <glyph glyph-name="tildecomb" unicode="&#x303;" 
d="M86 1212l-38 121q34 33 74 56t100 23q51 0 96 -14t88.5 -28.5t87.5 -14.5q47 0 82 18.5t65 40.5l33 -135q-27 -21 -71.5 -41.5t-108.5 -20.5q-54 0 -96 13.5t-81 26.5t-86 13q-50 0 -81 -16t-64 -42z" />
    <glyph glyph-name="uni0304" unicode="&#x304;" 
d="M29 1227v146h625v-146h-625z" />
    <glyph glyph-name="uni0306" unicode="&#x306;" 
d="M338 1155q-76 0 -142 26t-111.5 77t-61.5 124h148q16 -48 59.5 -78.5t107.5 -30.5q63 0 108 30.5t62 78.5h147q-15 -72 -60 -122.5t-111.5 -77.5t-145.5 -27z" />
    <glyph glyph-name="uni0307" unicode="&#x307;" 
d="M10 1251v195h212v-195h-212z" />
    <glyph glyph-name="uni0308" unicode="&#x308;" 
d="M420 1251l2 195h206l-2 -195h-206zM10 1251l2 195h206l-2 -195h-206z" />
    <glyph glyph-name="hookabovecomb" unicode="&#x309;" 
d="M665 1167l-59 90q42 27 58.5 63t-4.5 69q-19 32 -60.5 32t-80.5 -26l-58 90q86 56 169 44.5t125 -77.5q51 -78 26.5 -153.5t-116.5 -131.5z" />
    <glyph glyph-name="uni030A" unicode="&#x30a;" 
d="M237 1139q-87 0 -147.5 61.5t-60.5 151.5q0 84 61.5 143t146.5 59q59 0 106.5 -27.5t75.5 -74.5t28 -104q0 -88 -60.5 -148.5t-149.5 -60.5zM235 1240q44 0 74.5 32.5t30.5 74.5q0 46 -30.5 75t-74.5 29q-42 0 -74 -29t-32 -75q0 -42 32 -74.5t74 -32.5z" />
    <glyph glyph-name="uni030B" unicode="&#x30b;" 
d="M310 1155l239 291h219l-297 -291h-161zM11 1155l197 291h213l-249 -291h-161z" />
    <glyph glyph-name="uni030C" unicode="&#x30c;" 
d="M265 1155l-254 235h179l150 -139l138 139h189l-249 -235h-153z" />
    <glyph glyph-name="uni030F" unicode="&#x30f;" 
d="M307 1155l-297 291h219l239 -291h-161zM606 1155l-250 291h214l197 -291h-161z" />
    <glyph glyph-name="uni0311" unicode="&#x311;" 
d="M12 1200q16 75 61.5 125t111.5 76t142 26q79 0 145.5 -26.5t111.5 -77t60 -123.5h-147q-17 48 -62 79t-108 31q-64 0 -107.5 -31t-59.5 -79h-148z" />
    <glyph glyph-name="uni0312" unicode="&#x312;" 
d="M120 1155v174l117 172h90l-79 -153l68 -6v-187h-196z" />
    <glyph glyph-name="uni031B" unicode="&#x31b;" 
d="M0 936v124q47 -1 80 3.5t53.5 23.5t32.5 59t15 110h160q-1 -125 -33.5 -200.5t-106.5 -104.5t-201 -15z" />
    <glyph glyph-name="dotbelowcomb" unicode="&#x323;" 
d="M10 -369v194h212v-194h-212z" />
    <glyph glyph-name="uni0326" unicode="&#x326;" 
d="M2 -397l84 131l-67 7v163h203v-137l-137 -164h-83z" />
    <glyph glyph-name="uni0327" unicode="&#x327;" 
d="M226 -415q-56 0 -106.5 12t-94.5 39l33 83q28 -19 63 -33.5t79 -14.5q53 0 79.5 18.5t26.5 51.5q0 43 -37.5 64t-125.5 23q-10 0 -13.5 3t0.5 12l73 167h106l-46 -120q70 -2 110.5 -25t57.5 -56.5t17 -67.5q0 -50 -30.5 -85t-81 -53t-110.5 -18z" />
    <glyph glyph-name="uni0328" unicode="&#x328;" 
d="M232 -333q-99 0 -151 42t-52 118q0 58 41 105.5t160 85.5l153 -10q-102 -42 -145.5 -77.5t-43.5 -82.5q0 -35 20.5 -53t66.5 -18q47 0 83.5 13t60.5 26v-106q-26 -16 -79 -29.5t-114 -13.5z" />
    <glyph glyph-name="pi" unicode="&#x3c0;" horiz-adv-x="1326" 
d="M133 0q22 83 41.5 186t35.5 217t25 230.5t9 226.5q0 20 -17 20h-176v154h1215v-154h-215v-880h-207l-1 880h-395q0 -116 -9.5 -240.5t-25.5 -244t-37.5 -222t-45.5 -173.5h-197z" />
    <glyph glyph-name="uni1E0C" unicode="&#x1e0c;" horiz-adv-x="1401" 
d="M183 0v1446q8 0 47.5 -0.5t95.5 0t114.5 0t104.5 -1.5q265 -4 431 -88t243.5 -241.5t77.5 -383.5q0 -235 -83 -398.5t-253.5 -248t-431.5 -84.5h-346zM401 180h130q164 0 285.5 53.5t188.5 174t67 322.5q0 198 -64 315.5t-183.5 169t-287.5 51.5h-136v-1086zM604 -369
v194h212v-194h-212z" />
    <glyph glyph-name="uni1E0D" unicode="&#x1e0d;" horiz-adv-x="1200" 
d="M526 -20q-203 0 -320.5 139.5t-117.5 402.5q0 161 47.5 280.5t140.5 185.5t232 66q69 0 124 -17t96 -44t69 -58t42 -58v609h216v-1486h-161l-24 212q-11 -34 -33.5 -74t-62 -76t-100.5 -59t-148 -23zM567 141q144 0 208 90.5t64 297.5q-1 117 -28.5 198t-86 122.5
t-153.5 41.5q-119 0 -194.5 -85.5t-75.5 -276.5q0 -188 68.5 -288t197.5 -100zM439 -369v194h212v-194h-212z" />
    <glyph glyph-name="uni1E24" unicode="&#x1e24;" horiz-adv-x="1534" 
d="M183 0v1446h214v-606h740v606h214v-1446h-214v654h-740v-654h-214zM674 -369v194h212v-194h-212z" />
    <glyph glyph-name="uni1E25" unicode="&#x1e25;" horiz-adv-x="1162" 
d="M145 0v1486h211v-603q25 41 67.5 78t104 60.5t143.5 23.5q101 0 182.5 -37.5t130 -108t48.5 -167.5v-732h-214v693q0 87 -60 134t-154 47q-63 0 -119.5 -21.5t-91 -64t-34.5 -106.5v-682h-214zM495 -369v194h212v-194h-212z" />
    <glyph glyph-name="uni1E44" unicode="&#x1e44;" horiz-adv-x="1523" 
d="M183 0v1446h207l736 -1078v1078h215v-1446h-192l-752 1101v-1101h-214zM655 1663v195h212v-195h-212z" />
    <glyph glyph-name="uni1E45" unicode="&#x1e45;" horiz-adv-x="1163" 
d="M145 0v1034h209v-149q25 42 67.5 79t105 60t144.5 23q97 0 179.5 -38.5t132.5 -120t50 -210.5v-678h-214v655q0 111 -59.5 165t-153.5 54q-63 0 -120 -21t-92 -63.5t-35 -106.5v-683h-214zM494 1251v195h212v-195h-212z" />
    <glyph glyph-name="uni1E5A" unicode="&#x1e5a;" horiz-adv-x="1363" 
d="M183 0v1446h574q161 0 267 -49.5t158 -140.5t52 -215q0 -117 -39.5 -195t-102 -127t-131.5 -77l280 -642h-225l-256 605h-363v-605h-214zM397 778h302q151 0 234 65.5t83 187.5q0 120 -75.5 182t-204.5 62h-339v-497zM576 -369v194h212v-194h-212z" />
    <glyph glyph-name="uni1E5B" unicode="&#x1e5b;" horiz-adv-x="793" 
d="M145 0v1034h205v-212q26 76 72.5 127.5t108.5 78t131 26.5q21 0 40 -2.5t30 -8.5v-206q-13 6 -33.5 8t-35.5 3q-68 5 -124 -7t-96.5 -40t-62 -73t-21.5 -106v-622h-214zM145 -369v194h212v-194h-212z" />
    <glyph glyph-name="uni1E62" unicode="&#x1e62;" horiz-adv-x="1352" 
d="M687 -20q-106 0 -203.5 26t-177 77.5t-131 128.5t-64.5 180h223q17 -78 67.5 -131t127 -80t169.5 -27q86 0 159 27t118 78t45 125q0 83 -55.5 131.5t-166.5 77.5l-290 72q-105 25 -185 71.5t-124 123t-44 189.5q0 126 69.5 219.5t189 144.5t270.5 51q173 0 291.5 -59
t180 -155.5t62.5 -209.5h-218q-9 92 -54.5 146.5t-115 78.5t-153.5 24q-148 0 -222.5 -65.5t-74.5 -155.5q0 -83 54.5 -131t161.5 -74l280 -69q132 -29 211.5 -86.5t114.5 -135t35 -169.5q0 -123 -69 -218.5t-192.5 -150t-288.5 -54.5zM561 -369v194h212v-194h-212z" />
    <glyph glyph-name="uni1E63" unicode="&#x1e63;" horiz-adv-x="1023" 
d="M530 -20q-108 0 -202.5 34t-158 107t-79.5 187h191q13 -59 49.5 -97.5t88 -57t110.5 -18.5q98 0 159 35.5t61 109.5q0 53 -33 85t-103 47l-206 49q-128 30 -205 95.5t-78 183.5q0 91 45.5 162t136 111.5t223.5 40.5q175 0 281.5 -78t109.5 -226h-185q-10 71 -64.5 111.5
t-143.5 40.5q-92 0 -151 -36.5t-59 -111.5q0 -51 43.5 -80.5t128.5 -48.5l196 -49q76 -20 125 -52.5t77 -71.5t39.5 -81t11.5 -79q0 -98 -49.5 -167.5t-140.5 -107t-218 -37.5zM410 -369v194h212v-194h-212z" />
    <glyph glyph-name="uni1E6C" unicode="&#x1e6c;" horiz-adv-x="1199" 
d="M502 0v1251h-458v195h1111v-195h-437v-1251h-216zM514 -367v194h212v-194h-212z" />
    <glyph glyph-name="uni1E6D" unicode="&#x1e6d;" horiz-adv-x="793" 
d="M542 -7q-115 0 -178 31t-88 89.5t-25 141.5v625h-168v154h175l52 304h156v-303h232v-155h-232l1 -617q0 -51 10.5 -74.5t36 -30t69.5 -6.5h120v-139q-19 -8 -58.5 -14t-102.5 -6zM365 -361v194h212v-194h-212z" />
    <glyph glyph-name="Wgrave" unicode="&#x1e80;" horiz-adv-x="1915" 
d="M463 0l-419 1446h214l306 -1098l310 1098h164l310 -1098l310 1098h213l-423 -1446h-188l-305 1073l-309 -1073h-183zM878 1567l-280 291h236l206 -291h-162z" />
    <glyph glyph-name="wgrave" unicode="&#x1e81;" horiz-adv-x="1564" 
d="M370 0l-324 1034h195l226 -753h14l221 753h159l228 -751h14l218 751h198l-321 -1034h-196l-224 726l-215 -726h-193zM712 1155l-280 291h236l206 -291h-162z" />
    <glyph glyph-name="Wacute" unicode="&#x1e82;" horiz-adv-x="1915" 
d="M463 0l-419 1446h214l306 -1098l310 1098h164l310 -1098l310 1098h213l-423 -1446h-188l-305 1073l-309 -1073h-183zM867 1567l206 291h235l-280 -291h-161z" />
    <glyph glyph-name="wacute" unicode="&#x1e83;" horiz-adv-x="1564" 
d="M370 0l-324 1034h195l226 -753h14l221 753h159l228 -751h14l218 751h198l-321 -1034h-196l-224 726l-215 -726h-193zM702 1155l206 291h235l-280 -291h-161z" />
    <glyph glyph-name="Wdieresis" unicode="&#x1e84;" horiz-adv-x="1915" 
d="M463 0l-419 1446h214l306 -1098l310 1098h164l310 -1098l310 1098h213l-423 -1446h-188l-305 1073l-309 -1073h-183zM1057 1663l2 195h206l-2 -195h-206zM647 1663l2 195h206l-2 -195h-206z" />
    <glyph glyph-name="wdieresis" unicode="&#x1e85;" horiz-adv-x="1564" 
d="M370 0l-324 1034h195l226 -753h14l221 753h159l228 -751h14l218 751h198l-321 -1034h-196l-224 726l-215 -726h-193zM891 1251l2 195h206l-2 -195h-206zM481 1251l2 195h206l-2 -195h-206z" />
    <glyph glyph-name="uni1E92" unicode="&#x1e92;" horiz-adv-x="1292" 
d="M122 0v113l776 1149h-738v184h1040v-108l-784 -1152h779v-186h-1073zM571 -369v194h212v-194h-212z" />
    <glyph glyph-name="uni1E93" unicode="&#x1e93;" horiz-adv-x="970" 
d="M73 0v128l563 751h-538v155h795v-128l-564 -751h568v-155h-824zM387 -369v194h212v-194h-212z" />
    <glyph glyph-name="uni1EA0" unicode="&#x1ea0;" horiz-adv-x="1429" 
d="M75 0l522 1446h236l521 -1446h-216l-136 379h-573l-137 -379h-217zM482 573h464l-232 665zM609 -369v194h212v-194h-212z" />
    <glyph glyph-name="uni1EA1" unicode="&#x1ea1;" horiz-adv-x="1113" 
d="M440 -20q-100 0 -177.5 36t-121.5 104t-44 164q0 172 121.5 257t389.5 90l170 5v75q0 89 -53 140t-164 50q-82 0 -147 -38t-85 -125h-185q6 103 59.5 173.5t147.5 106.5t220 36q142 0 233 -38.5t135.5 -112.5t44.5 -180v-723h-182l-16 190q-58 -119 -147 -164.5
t-199 -45.5zM507 129q49 0 97 17.5t87 48t62.5 68.5t24.5 78v171l-140 -3q-107 -1 -181.5 -22t-114 -65t-39.5 -117q0 -83 57.5 -129.5t146.5 -46.5zM464 -369v194h212v-194h-212z" />
    <glyph glyph-name="uni1EA2" unicode="&#x1ea2;" horiz-adv-x="1429" 
d="M75 0l522 1446h236l521 -1446h-216l-136 379h-573l-137 -379h-217zM482 573h464l-232 665zM781 1564l-59 90q42 27 58.5 63t-4.5 69q-19 32 -60.5 32t-80.5 -26l-58 90q86 56 169 44.5t125 -77.5q51 -78 26.5 -153.5t-116.5 -131.5z" />
    <glyph glyph-name="uni1EA3" unicode="&#x1ea3;" horiz-adv-x="1113" 
d="M440 -20q-100 0 -177.5 36t-121.5 104t-44 164q0 172 121.5 257t389.5 90l170 5v75q0 89 -53 140t-164 50q-82 0 -147 -38t-85 -125h-185q6 103 59.5 173.5t147.5 106.5t220 36q142 0 233 -38.5t135.5 -112.5t44.5 -180v-723h-182l-16 190q-58 -119 -147 -164.5
t-199 -45.5zM507 129q49 0 97 17.5t87 48t62.5 68.5t24.5 78v171l-140 -3q-107 -1 -181.5 -22t-114 -65t-39.5 -117q0 -83 57.5 -129.5t146.5 -46.5zM639 1152l-59 90q42 27 58.5 63t-4.5 69q-19 32 -60.5 32t-80.5 -26l-58 90q86 56 169 44.5t125 -77.5q51 -78 26.5 -153.5
t-116.5 -131.5z" />
    <glyph glyph-name="uni1EA4" unicode="&#x1ea4;" horiz-adv-x="1429" 
d="M75 0l522 1446h236l521 -1446h-216l-136 379h-573l-137 -379h-217zM482 573h464l-232 665zM386 1567l254 234h152l249 -234h-189l-138 133l-150 -133h-178zM910 1794l147 248h188l-208 -248h-127z" />
    <glyph glyph-name="uni1EA5" unicode="&#x1ea5;" horiz-adv-x="1113" 
d="M440 -20q-100 0 -177.5 36t-121.5 104t-44 164q0 172 121.5 257t389.5 90l170 5v75q0 89 -53 140t-164 50q-82 0 -147 -38t-85 -125h-185q6 103 59.5 173.5t147.5 106.5t220 36q142 0 233 -38.5t135.5 -112.5t44.5 -180v-723h-182l-16 190q-58 -119 -147 -164.5
t-199 -45.5zM507 129q49 0 97 17.5t87 48t62.5 68.5t24.5 78v171l-140 -3q-107 -1 -181.5 -22t-114 -65t-39.5 -117q0 -83 57.5 -129.5t146.5 -46.5zM244 1155l254 234h152l249 -234h-189l-138 133l-150 -133h-178zM768 1382l147 248h188l-208 -248h-127z" />
    <glyph glyph-name="uni1EA6" unicode="&#x1ea6;" horiz-adv-x="1429" 
d="M75 0l522 1446h236l521 -1446h-216l-136 379h-573l-137 -379h-217zM482 573h464l-232 665zM386 1567l254 234h152l249 -234h-189l-138 133l-150 -133h-178zM1005 1794l-215 248h187l159 -248h-131z" />
    <glyph glyph-name="uni1EA7" unicode="&#x1ea7;" horiz-adv-x="1113" 
d="M440 -20q-100 0 -177.5 36t-121.5 104t-44 164q0 172 121.5 257t389.5 90l170 5v75q0 89 -53 140t-164 50q-82 0 -147 -38t-85 -125h-185q6 103 59.5 173.5t147.5 106.5t220 36q142 0 233 -38.5t135.5 -112.5t44.5 -180v-723h-182l-16 190q-58 -119 -147 -164.5
t-199 -45.5zM507 129q49 0 97 17.5t87 48t62.5 68.5t24.5 78v171l-140 -3q-107 -1 -181.5 -22t-114 -65t-39.5 -117q0 -83 57.5 -129.5t146.5 -46.5zM244 1155l254 234h152l249 -234h-189l-138 133l-150 -133h-178zM863 1382l-215 248h187l159 -248h-131z" />
    <glyph glyph-name="uni1EA8" unicode="&#x1ea8;" horiz-adv-x="1429" 
d="M75 0l522 1446h236l521 -1446h-216l-136 379h-573l-137 -379h-217zM482 573h464l-232 665zM391 1567l254 234h152l249 -234h-189l-138 133l-150 -133h-178zM968 1748l-58 91q42 27 58.5 62.5t-4.5 68.5q-20 32 -61 32.5t-81 -26.5l-58 90q87 56 169.5 44.5t125.5 -77.5
q51 -78 26.5 -153.5t-117.5 -131.5z" />
    <glyph glyph-name="uni1EA9" unicode="&#x1ea9;" horiz-adv-x="1113" 
d="M440 -20q-100 0 -177.5 36t-121.5 104t-44 164q0 172 121.5 257t389.5 90l170 5v75q0 89 -53 140t-164 50q-82 0 -147 -38t-85 -125h-185q6 103 59.5 173.5t147.5 106.5t220 36q142 0 233 -38.5t135.5 -112.5t44.5 -180v-723h-182l-16 190q-58 -119 -147 -164.5
t-199 -45.5zM507 129q49 0 97 17.5t87 48t62.5 68.5t24.5 78v171l-140 -3q-107 -1 -181.5 -22t-114 -65t-39.5 -117q0 -83 57.5 -129.5t146.5 -46.5zM249 1155l254 234h152l249 -234h-189l-138 133l-150 -133h-178zM826 1336l-58 91q42 27 58.5 62.5t-4.5 68.5
q-20 32 -61 32.5t-81 -26.5l-58 90q87 56 169.5 44.5t125.5 -77.5q51 -78 26.5 -153.5t-117.5 -131.5z" />
    <glyph glyph-name="uni1EAA" unicode="&#x1eaa;" horiz-adv-x="1429" 
d="M75 0l522 1446h236l521 -1446h-216l-136 379h-573l-137 -379h-217zM482 573h464l-232 665zM388 1567l254 234h152l249 -234h-189l-138 133l-150 -133h-178zM440 1905l-37 121q33 33 73 56.5t100 23.5q51 0 96.5 -14.5t88.5 -29t87 -14.5q47 0 82 18.5t65 41.5l34 -136
q-28 -21 -72.5 -41t-108.5 -20q-54 0 -96 13.5t-81 26.5t-86 13q-50 0 -81 -16.5t-64 -42.5z" />
    <glyph glyph-name="uni1EAB" unicode="&#x1eab;" horiz-adv-x="1113" 
d="M440 -20q-100 0 -177.5 36t-121.5 104t-44 164q0 172 121.5 257t389.5 90l170 5v75q0 89 -53 140t-164 50q-82 0 -147 -38t-85 -125h-185q6 103 59.5 173.5t147.5 106.5t220 36q142 0 233 -38.5t135.5 -112.5t44.5 -180v-723h-182l-16 190q-58 -119 -147 -164.5
t-199 -45.5zM507 129q49 0 97 17.5t87 48t62.5 68.5t24.5 78v171l-140 -3q-107 -1 -181.5 -22t-114 -65t-39.5 -117q0 -83 57.5 -129.5t146.5 -46.5zM246 1155l254 234h152l249 -234h-189l-138 133l-150 -133h-178zM298 1493l-37 121q33 33 73 56.5t100 23.5
q51 0 96.5 -14.5t88.5 -29t87 -14.5q47 0 82 18.5t65 41.5l34 -136q-28 -21 -72.5 -41t-108.5 -20q-54 0 -96 13.5t-81 26.5t-86 13q-50 0 -81 -16.5t-64 -42.5z" />
    <glyph glyph-name="uni1EAC" unicode="&#x1eac;" horiz-adv-x="1429" 
d="M75 0l522 1446h236l521 -1446h-216l-136 379h-573l-137 -379h-217zM482 573h464l-232 665zM609 -369v194h212v-194h-212zM386 1567l254 234h152l249 -234h-189l-138 133l-150 -133h-178z" />
    <glyph glyph-name="uni1EAD" unicode="&#x1ead;" horiz-adv-x="1113" 
d="M440 -20q-100 0 -177.5 36t-121.5 104t-44 164q0 172 121.5 257t389.5 90l170 5v75q0 89 -53 140t-164 50q-82 0 -147 -38t-85 -125h-185q6 103 59.5 173.5t147.5 106.5t220 36q142 0 233 -38.5t135.5 -112.5t44.5 -180v-723h-182l-16 190q-58 -119 -147 -164.5
t-199 -45.5zM507 129q49 0 97 17.5t87 48t62.5 68.5t24.5 78v171l-140 -3q-107 -1 -181.5 -22t-114 -65t-39.5 -117q0 -83 57.5 -129.5t146.5 -46.5zM464 -369v194h212v-194h-212zM244 1155l254 234h152l249 -234h-189l-138 133l-150 -133h-178z" />
    <glyph glyph-name="uni1EAE" unicode="&#x1eae;" horiz-adv-x="1429" 
d="M75 0l522 1446h236l521 -1446h-216l-136 379h-573l-137 -379h-217zM482 573h464l-232 665zM717 1565q-76 0 -142 26t-111.5 77t-61.5 124h148q16 -48 59.5 -78.5t107.5 -30.5q63 0 108 30.5t62 78.5h147q-15 -72 -60 -122.5t-111.5 -77.5t-145.5 -27zM651 1830l147 247
h187l-207 -247h-127z" />
    <glyph glyph-name="uni1EAF" unicode="&#x1eaf;" horiz-adv-x="1113" 
d="M440 -20q-100 0 -177.5 36t-121.5 104t-44 164q0 172 121.5 257t389.5 90l170 5v75q0 89 -53 140t-164 50q-82 0 -147 -38t-85 -125h-185q6 103 59.5 173.5t147.5 106.5t220 36q142 0 233 -38.5t135.5 -112.5t44.5 -180v-723h-182l-16 190q-58 -119 -147 -164.5
t-199 -45.5zM507 129q49 0 97 17.5t87 48t62.5 68.5t24.5 78v171l-140 -3q-107 -1 -181.5 -22t-114 -65t-39.5 -117q0 -83 57.5 -129.5t146.5 -46.5zM575 1153q-76 0 -142 26t-111.5 77t-61.5 124h148q16 -48 59.5 -78.5t107.5 -30.5q63 0 108 30.5t62 78.5h147
q-15 -72 -60 -122.5t-111.5 -77.5t-145.5 -27zM509 1418l147 247h187l-207 -247h-127z" />
    <glyph glyph-name="uni1EB0" unicode="&#x1eb0;" horiz-adv-x="1429" 
d="M75 0l522 1446h236l521 -1446h-216l-136 379h-573l-137 -379h-217zM482 573h464l-232 665zM717 1565q-76 0 -142 26t-111.5 77t-61.5 124h148q16 -48 59.5 -78.5t107.5 -30.5q63 0 108 30.5t62 78.5h147q-15 -72 -60 -122.5t-111.5 -77.5t-145.5 -27zM665 1829l-215 247
h188l158 -247h-131z" />
    <glyph glyph-name="uni1EB1" unicode="&#x1eb1;" horiz-adv-x="1113" 
d="M440 -20q-100 0 -177.5 36t-121.5 104t-44 164q0 172 121.5 257t389.5 90l170 5v75q0 89 -53 140t-164 50q-82 0 -147 -38t-85 -125h-185q6 103 59.5 173.5t147.5 106.5t220 36q142 0 233 -38.5t135.5 -112.5t44.5 -180v-723h-182l-16 190q-58 -119 -147 -164.5
t-199 -45.5zM507 129q49 0 97 17.5t87 48t62.5 68.5t24.5 78v171l-140 -3q-107 -1 -181.5 -22t-114 -65t-39.5 -117q0 -83 57.5 -129.5t146.5 -46.5zM575 1153q-76 0 -142 26t-111.5 77t-61.5 124h148q16 -48 59.5 -78.5t107.5 -30.5q63 0 108 30.5t62 78.5h147
q-15 -72 -60 -122.5t-111.5 -77.5t-145.5 -27zM523 1417l-215 247h188l158 -247h-131z" />
    <glyph glyph-name="uni1EB2" unicode="&#x1eb2;" horiz-adv-x="1429" 
d="M75 0l522 1446h236l521 -1446h-216l-136 379h-573l-137 -379h-217zM482 573h464l-232 665zM717 1565q-76 0 -142 26t-111.5 77t-61.5 124h148q16 -48 59.5 -78.5t107.5 -30.5q63 0 108 30.5t62 78.5h147q-15 -72 -60 -122.5t-111.5 -77.5t-145.5 -27zM727 1782l-59 91
q42 27 58.5 62.5t-4.5 68.5q-19 32 -60.5 32.5t-80.5 -26.5l-59 90q72 46 144 46q99 0 151 -79q51 -78 26.5 -153.5t-116.5 -131.5z" />
    <glyph glyph-name="uni1EB3" unicode="&#x1eb3;" horiz-adv-x="1113" 
d="M440 -20q-100 0 -177.5 36t-121.5 104t-44 164q0 172 121.5 257t389.5 90l170 5v75q0 89 -53 140t-164 50q-82 0 -147 -38t-85 -125h-185q6 103 59.5 173.5t147.5 106.5t220 36q142 0 233 -38.5t135.5 -112.5t44.5 -180v-723h-182l-16 190q-58 -119 -147 -164.5
t-199 -45.5zM507 129q49 0 97 17.5t87 48t62.5 68.5t24.5 78v171l-140 -3q-107 -1 -181.5 -22t-114 -65t-39.5 -117q0 -83 57.5 -129.5t146.5 -46.5zM575 1153q-76 0 -142 26t-111.5 77t-61.5 124h148q16 -48 59.5 -78.5t107.5 -30.5q63 0 108 30.5t62 78.5h147
q-15 -72 -60 -122.5t-111.5 -77.5t-145.5 -27zM585 1370l-59 91q42 27 58.5 62.5t-4.5 68.5q-19 32 -60.5 32.5t-80.5 -26.5l-59 90q72 46 144 46q99 0 151 -79q51 -78 26.5 -153.5t-116.5 -131.5z" />
    <glyph glyph-name="uni1EB4" unicode="&#x1eb4;" horiz-adv-x="1429" 
d="M75 0l522 1446h236l521 -1446h-216l-136 379h-573l-137 -379h-217zM482 573h464l-232 665zM717 1565q-76 0 -142 26t-111.5 77t-61.5 124h148q16 -48 59.5 -78.5t107.5 -30.5q63 0 108 30.5t62 78.5h147q-15 -72 -60 -122.5t-111.5 -77.5t-145.5 -27zM443 1903l-37 121
q33 33 73 56.5t100 23.5q51 0 96.5 -14.5t88.5 -29t87 -14.5q47 0 82 18.5t65 41.5l34 -136q-28 -21 -72.5 -41t-108.5 -20q-54 0 -96 13.5t-81 26.5t-86 13q-50 0 -81 -16.5t-64 -42.5z" />
    <glyph glyph-name="uni1EB5" unicode="&#x1eb5;" horiz-adv-x="1113" 
d="M440 -20q-100 0 -177.5 36t-121.5 104t-44 164q0 172 121.5 257t389.5 90l170 5v75q0 89 -53 140t-164 50q-82 0 -147 -38t-85 -125h-185q6 103 59.5 173.5t147.5 106.5t220 36q142 0 233 -38.5t135.5 -112.5t44.5 -180v-723h-182l-16 190q-58 -119 -147 -164.5
t-199 -45.5zM507 129q49 0 97 17.5t87 48t62.5 68.5t24.5 78v171l-140 -3q-107 -1 -181.5 -22t-114 -65t-39.5 -117q0 -83 57.5 -129.5t146.5 -46.5zM575 1153q-76 0 -142 26t-111.5 77t-61.5 124h148q16 -48 59.5 -78.5t107.5 -30.5q63 0 108 30.5t62 78.5h147
q-15 -72 -60 -122.5t-111.5 -77.5t-145.5 -27zM301 1491l-37 121q33 33 73 56.5t100 23.5q51 0 96.5 -14.5t88.5 -29t87 -14.5q47 0 82 18.5t65 41.5l34 -136q-28 -21 -72.5 -41t-108.5 -20q-54 0 -96 13.5t-81 26.5t-86 13q-50 0 -81 -16.5t-64 -42.5z" />
    <glyph glyph-name="uni1EB6" unicode="&#x1eb6;" horiz-adv-x="1429" 
d="M75 0l522 1446h236l521 -1446h-216l-136 379h-573l-137 -379h-217zM482 573h464l-232 665zM609 -369v194h212v-194h-212zM714 1565q-76 0 -142 26t-111.5 77t-61.5 124h148q16 -48 59.5 -78.5t107.5 -30.5q63 0 108 30.5t62 78.5h147q-15 -72 -60 -122.5t-111.5 -77.5
t-145.5 -27z" />
    <glyph glyph-name="uni1EB7" unicode="&#x1eb7;" horiz-adv-x="1113" 
d="M440 -20q-100 0 -177.5 36t-121.5 104t-44 164q0 172 121.5 257t389.5 90l170 5v75q0 89 -53 140t-164 50q-82 0 -147 -38t-85 -125h-185q6 103 59.5 173.5t147.5 106.5t220 36q142 0 233 -38.5t135.5 -112.5t44.5 -180v-723h-182l-16 190q-58 -119 -147 -164.5
t-199 -45.5zM507 129q49 0 97 17.5t87 48t62.5 68.5t24.5 78v171l-140 -3q-107 -1 -181.5 -22t-114 -65t-39.5 -117q0 -83 57.5 -129.5t146.5 -46.5zM464 -369v194h212v-194h-212zM572 1153q-76 0 -142 26t-111.5 77t-61.5 124h148q16 -48 59.5 -78.5t107.5 -30.5
q63 0 108 30.5t62 78.5h147q-15 -72 -60 -122.5t-111.5 -77.5t-145.5 -27z" />
    <glyph glyph-name="uni1EB8" unicode="&#x1eb8;" horiz-adv-x="1249" 
d="M183 0v1446h934l-1 -186h-718v-439h641v-183h-642v-449l737 -1v-188h-951zM577 -369v194h212v-194h-212z" />
    <glyph glyph-name="uni1EB9" unicode="&#x1eb9;" horiz-adv-x="1139" 
d="M593 -20q-147 0 -259 63.5t-174.5 181.5t-62.5 281q0 161 57 284.5t165 193.5t260 70q149 0 252 -64t156 -179.5t53 -272.5v-71h-728q-1 -93 30 -166.5t92.5 -116t153.5 -42.5q93 0 160.5 42t88.5 125h198q-18 -106 -85 -180t-161 -111.5t-196 -37.5zM312 606h524
q0 81 -28 147.5t-85.5 105t-144.5 38.5q-89 0 -148 -43t-88.5 -110t-29.5 -138zM476 -369v194h212v-194h-212z" />
    <glyph glyph-name="uni1EBA" unicode="&#x1eba;" horiz-adv-x="1249" 
d="M183 0v1446h934l-1 -186h-718v-439h641v-183h-642v-449l737 -1v-188h-951zM719 1564l-59 90q42 27 58.5 63t-4.5 69q-19 32 -60.5 32t-80.5 -26l-58 90q86 56 169 44.5t125 -77.5q51 -78 26.5 -153.5t-116.5 -131.5z" />
    <glyph glyph-name="uni1EBB" unicode="&#x1ebb;" horiz-adv-x="1139" 
d="M593 -20q-147 0 -259 63.5t-174.5 181.5t-62.5 281q0 161 57 284.5t165 193.5t260 70q149 0 252 -64t156 -179.5t53 -272.5v-71h-728q-1 -93 30 -166.5t92.5 -116t153.5 -42.5q93 0 160.5 42t88.5 125h198q-18 -106 -85 -180t-161 -111.5t-196 -37.5zM312 606h524
q0 81 -28 147.5t-85.5 105t-144.5 38.5q-89 0 -148 -43t-88.5 -110t-29.5 -138zM646 1152l-59 90q42 27 58.5 63t-4.5 69q-19 32 -60.5 32t-80.5 -26l-58 90q86 56 169 44.5t125 -77.5q51 -78 26.5 -153.5t-116.5 -131.5z" />
    <glyph glyph-name="uni1EBC" unicode="&#x1ebc;" horiz-adv-x="1249" 
d="M183 0v1446h934l-1 -186h-718v-439h641v-183h-642v-449l737 -1v-188h-951zM381 1624l-38 121q34 33 74 56t100 23q51 0 96 -14t88.5 -28.5t87.5 -14.5q47 0 82 18.5t65 40.5l33 -135q-27 -21 -71.5 -41.5t-108.5 -20.5q-54 0 -96 13.5t-81 26.5t-86 13q-50 0 -81 -16
t-64 -42z" />
    <glyph glyph-name="uni1EBD" unicode="&#x1ebd;" horiz-adv-x="1139" 
d="M593 -20q-147 0 -259 63.5t-174.5 181.5t-62.5 281q0 161 57 284.5t165 193.5t260 70q149 0 252 -64t156 -179.5t53 -272.5v-71h-728q-1 -93 30 -166.5t92.5 -116t153.5 -42.5q93 0 160.5 42t88.5 125h198q-18 -106 -85 -180t-161 -111.5t-196 -37.5zM312 606h524
q0 81 -28 147.5t-85.5 105t-144.5 38.5q-89 0 -148 -43t-88.5 -110t-29.5 -138zM308 1212l-38 121q34 33 74 56t100 23q51 0 96 -14t88.5 -28.5t87.5 -14.5q47 0 82 18.5t65 40.5l33 -135q-27 -21 -71.5 -41.5t-108.5 -20.5q-54 0 -96 13.5t-81 26.5t-86 13q-50 0 -81 -16
t-64 -42z" />
    <glyph glyph-name="uni1EBE" unicode="&#x1ebe;" horiz-adv-x="1249" 
d="M183 0v1446h934l-1 -186h-718v-439h641v-183h-642v-449l737 -1v-188h-951zM324 1567l254 234h152l249 -234h-189l-138 133l-150 -133h-178zM848 1794l147 248h188l-208 -248h-127z" />
    <glyph glyph-name="uni1EBF" unicode="&#x1ebf;" horiz-adv-x="1139" 
d="M593 -20q-147 0 -259 63.5t-174.5 181.5t-62.5 281q0 161 57 284.5t165 193.5t260 70q149 0 252 -64t156 -179.5t53 -272.5v-71h-728q-1 -93 30 -166.5t92.5 -116t153.5 -42.5q93 0 160.5 42t88.5 125h198q-18 -106 -85 -180t-161 -111.5t-196 -37.5zM312 606h524
q0 81 -28 147.5t-85.5 105t-144.5 38.5q-89 0 -148 -43t-88.5 -110t-29.5 -138zM251 1155l254 234h152l249 -234h-189l-138 133l-150 -133h-178zM775 1382l147 248h188l-208 -248h-127z" />
    <glyph glyph-name="uni1EC0" unicode="&#x1ec0;" horiz-adv-x="1249" 
d="M183 0v1446h934l-1 -186h-718v-439h641v-183h-642v-449l737 -1v-188h-951zM324 1567l254 234h152l249 -234h-189l-138 133l-150 -133h-178zM943 1794l-215 248h187l159 -248h-131z" />
    <glyph glyph-name="uni1EC1" unicode="&#x1ec1;" horiz-adv-x="1139" 
d="M593 -20q-147 0 -259 63.5t-174.5 181.5t-62.5 281q0 161 57 284.5t165 193.5t260 70q149 0 252 -64t156 -179.5t53 -272.5v-71h-728q-1 -93 30 -166.5t92.5 -116t153.5 -42.5q93 0 160.5 42t88.5 125h198q-18 -106 -85 -180t-161 -111.5t-196 -37.5zM312 606h524
q0 81 -28 147.5t-85.5 105t-144.5 38.5q-89 0 -148 -43t-88.5 -110t-29.5 -138zM251 1155l254 234h152l249 -234h-189l-138 133l-150 -133h-178zM870 1382l-215 248h187l159 -248h-131z" />
    <glyph glyph-name="uni1EC2" unicode="&#x1ec2;" horiz-adv-x="1249" 
d="M183 0v1446h934l-1 -186h-718v-439h641v-183h-642v-449l737 -1v-188h-951zM329 1567l254 234h152l249 -234h-189l-138 133l-150 -133h-178zM906 1748l-58 91q42 27 58.5 62.5t-4.5 68.5q-20 32 -61 32.5t-81 -26.5l-58 90q87 56 169.5 44.5t125.5 -77.5
q51 -78 26.5 -153.5t-117.5 -131.5z" />
    <glyph glyph-name="uni1EC3" unicode="&#x1ec3;" horiz-adv-x="1139" 
d="M593 -20q-147 0 -259 63.5t-174.5 181.5t-62.5 281q0 161 57 284.5t165 193.5t260 70q149 0 252 -64t156 -179.5t53 -272.5v-71h-728q-1 -93 30 -166.5t92.5 -116t153.5 -42.5q93 0 160.5 42t88.5 125h198q-18 -106 -85 -180t-161 -111.5t-196 -37.5zM312 606h524
q0 81 -28 147.5t-85.5 105t-144.5 38.5q-89 0 -148 -43t-88.5 -110t-29.5 -138zM256 1155l254 234h152l249 -234h-189l-138 133l-150 -133h-178zM833 1336l-58 91q42 27 58.5 62.5t-4.5 68.5q-20 32 -61 32.5t-81 -26.5l-58 90q87 56 169.5 44.5t125.5 -77.5
q51 -78 26.5 -153.5t-117.5 -131.5z" />
    <glyph glyph-name="uni1EC4" unicode="&#x1ec4;" horiz-adv-x="1249" 
d="M183 0v1446h934l-1 -186h-718v-439h641v-183h-642v-449l737 -1v-188h-951zM326 1567l254 234h152l249 -234h-189l-138 133l-150 -133h-178zM378 1905l-37 121q33 33 73 56.5t100 23.5q51 0 96.5 -14.5t88.5 -29t87 -14.5q47 0 82 18.5t65 41.5l34 -136q-28 -21 -72.5 -41
t-108.5 -20q-54 0 -96 13.5t-81 26.5t-86 13q-50 0 -81 -16.5t-64 -42.5z" />
    <glyph glyph-name="uni1EC5" unicode="&#x1ec5;" horiz-adv-x="1139" 
d="M593 -20q-147 0 -259 63.5t-174.5 181.5t-62.5 281q0 161 57 284.5t165 193.5t260 70q149 0 252 -64t156 -179.5t53 -272.5v-71h-728q-1 -93 30 -166.5t92.5 -116t153.5 -42.5q93 0 160.5 42t88.5 125h198q-18 -106 -85 -180t-161 -111.5t-196 -37.5zM312 606h524
q0 81 -28 147.5t-85.5 105t-144.5 38.5q-89 0 -148 -43t-88.5 -110t-29.5 -138zM253 1155l254 234h152l249 -234h-189l-138 133l-150 -133h-178zM305 1493l-37 121q33 33 73 56.5t100 23.5q51 0 96.5 -14.5t88.5 -29t87 -14.5q47 0 82 18.5t65 41.5l34 -136
q-28 -21 -72.5 -41t-108.5 -20q-54 0 -96 13.5t-81 26.5t-86 13q-50 0 -81 -16.5t-64 -42.5z" />
    <glyph glyph-name="uni1EC6" unicode="&#x1ec6;" horiz-adv-x="1249" 
d="M183 0v1446h934l-1 -186h-718v-439h641v-183h-642v-449l737 -1v-188h-951zM577 -369v194h212v-194h-212zM324 1567l254 234h152l249 -234h-189l-138 133l-150 -133h-178z" />
    <glyph glyph-name="uni1EC7" unicode="&#x1ec7;" horiz-adv-x="1139" 
d="M593 -20q-147 0 -259 63.5t-174.5 181.5t-62.5 281q0 161 57 284.5t165 193.5t260 70q149 0 252 -64t156 -179.5t53 -272.5v-71h-728q-1 -93 30 -166.5t92.5 -116t153.5 -42.5q93 0 160.5 42t88.5 125h198q-18 -106 -85 -180t-161 -111.5t-196 -37.5zM312 606h524
q0 81 -28 147.5t-85.5 105t-144.5 38.5q-89 0 -148 -43t-88.5 -110t-29.5 -138zM476 -369v194h212v-194h-212zM251 1155l254 234h152l249 -234h-189l-138 133l-150 -133h-178z" />
    <glyph glyph-name="uni1EC8" unicode="&#x1ec8;" horiz-adv-x="580" 
d="M183 0v1446h214v-1446h-214zM357 1564l-59 90q42 27 58.5 63t-4.5 69q-19 32 -60.5 32t-80.5 -26l-58 90q86 56 169 44.5t125 -77.5q51 -78 26.5 -153.5t-116.5 -131.5z" />
    <glyph glyph-name="uni1EC9" unicode="&#x1ec9;" horiz-adv-x="496" 
d="M145 0v1034h206v-1034h-206zM317 1152l-59 90q42 27 58.5 63t-4.5 69q-19 32 -60.5 32t-80.5 -26l-58 90q86 56 169 44.5t125 -77.5q51 -78 26.5 -153.5t-116.5 -131.5z" />
    <glyph glyph-name="uni1ECA" unicode="&#x1eca;" horiz-adv-x="580" 
d="M183 0v1446h214v-1446h-214zM195 -369v194h212v-194h-212z" />
    <glyph glyph-name="uni1ECB" unicode="&#x1ecb;" horiz-adv-x="505" 
d="M150 0v1034h206v-1034h-206zM145 1234v211h215v-211h-215zM147 -369v194h212v-194h-212z" />
    <glyph glyph-name="uni1ECC" unicode="&#x1ecc;" horiz-adv-x="1482" 
d="M744 -20q-197 0 -340.5 87.5t-221 253t-77.5 399.5q0 236 78.5 402.5t222 255t338.5 88.5q194 0 336.5 -88.5t220 -255t77.5 -402.5q0 -234 -77 -399t-219.5 -253t-337.5 -88zM744 163q126 0 215.5 58t136.5 181t47 315q0 197 -47.5 322t-137 184.5t-214.5 59.5
t-215.5 -60t-139.5 -185t-49 -321q0 -193 49 -315.5t139.5 -180.5t215.5 -58zM640 -369v194h212v-194h-212z" />
    <glyph glyph-name="uni1ECD" unicode="&#x1ecd;" horiz-adv-x="1136" 
d="M569 -20q-145 0 -253 62.5t-168 181.5t-60 288q0 163 57 285t164.5 189.5t260.5 67.5q146 0 253 -63.5t166 -185t59 -293.5q0 -157 -55 -277t-161.5 -187.5t-262.5 -67.5zM570 145q89 0 148 46.5t89 131t30 195.5q0 103 -26.5 187.5t-85 134.5t-155.5 50
q-89 0 -149.5 -45.5t-90.5 -129t-30 -197.5q0 -101 27 -186t86.5 -136t156.5 -51zM463 -369v194h212v-194h-212z" />
    <glyph glyph-name="uni1ECE" unicode="&#x1ece;" horiz-adv-x="1482" 
d="M744 -20q-197 0 -340.5 87.5t-221 253t-77.5 399.5q0 236 78.5 402.5t222 255t338.5 88.5q194 0 336.5 -88.5t220 -255t77.5 -402.5q0 -234 -77 -399t-219.5 -253t-337.5 -88zM744 163q126 0 215.5 58t136.5 181t47 315q0 197 -47.5 322t-137 184.5t-214.5 59.5
t-215.5 -60t-139.5 -185t-49 -321q0 -193 49 -315.5t139.5 -180.5t215.5 -58zM810 1564l-59 90q42 27 58.5 63t-4.5 69q-19 32 -60.5 32t-80.5 -26l-58 90q86 56 169 44.5t125 -77.5q51 -78 26.5 -153.5t-116.5 -131.5z" />
    <glyph glyph-name="uni1ECF" unicode="&#x1ecf;" horiz-adv-x="1136" 
d="M569 -20q-145 0 -253 62.5t-168 181.5t-60 288q0 163 57 285t164.5 189.5t260.5 67.5q146 0 253 -63.5t166 -185t59 -293.5q0 -157 -55 -277t-161.5 -187.5t-262.5 -67.5zM570 145q89 0 148 46.5t89 131t30 195.5q0 103 -26.5 187.5t-85 134.5t-155.5 50
q-89 0 -149.5 -45.5t-90.5 -129t-30 -197.5q0 -101 27 -186t86.5 -136t156.5 -51zM635 1152l-59 90q42 27 58.5 63t-4.5 69q-19 32 -60.5 32t-80.5 -26l-58 90q86 56 169 44.5t125 -77.5q51 -78 26.5 -153.5t-116.5 -131.5z" />
    <glyph glyph-name="uni1ED0" unicode="&#x1ed0;" horiz-adv-x="1482" 
d="M744 -20q-197 0 -340.5 87.5t-221 253t-77.5 399.5q0 236 78.5 402.5t222 255t338.5 88.5q194 0 336.5 -88.5t220 -255t77.5 -402.5q0 -234 -77 -399t-219.5 -253t-337.5 -88zM744 163q126 0 215.5 58t136.5 181t47 315q0 197 -47.5 322t-137 184.5t-214.5 59.5
t-215.5 -60t-139.5 -185t-49 -321q0 -193 49 -315.5t139.5 -180.5t215.5 -58zM415 1567l254 234h152l249 -234h-189l-138 133l-150 -133h-178zM939 1794l147 248h188l-208 -248h-127z" />
    <glyph glyph-name="uni1ED1" unicode="&#x1ed1;" horiz-adv-x="1136" 
d="M569 -20q-145 0 -253 62.5t-168 181.5t-60 288q0 163 57 285t164.5 189.5t260.5 67.5q146 0 253 -63.5t166 -185t59 -293.5q0 -157 -55 -277t-161.5 -187.5t-262.5 -67.5zM570 145q89 0 148 46.5t89 131t30 195.5q0 103 -26.5 187.5t-85 134.5t-155.5 50
q-89 0 -149.5 -45.5t-90.5 -129t-30 -197.5q0 -101 27 -186t86.5 -136t156.5 -51zM240 1155l254 234h152l249 -234h-189l-138 133l-150 -133h-178zM764 1382l147 248h188l-208 -248h-127z" />
    <glyph glyph-name="uni1ED2" unicode="&#x1ed2;" horiz-adv-x="1482" 
d="M744 -20q-197 0 -340.5 87.5t-221 253t-77.5 399.5q0 236 78.5 402.5t222 255t338.5 88.5q194 0 336.5 -88.5t220 -255t77.5 -402.5q0 -234 -77 -399t-219.5 -253t-337.5 -88zM744 163q126 0 215.5 58t136.5 181t47 315q0 197 -47.5 322t-137 184.5t-214.5 59.5
t-215.5 -60t-139.5 -185t-49 -321q0 -193 49 -315.5t139.5 -180.5t215.5 -58zM415 1567l254 234h152l249 -234h-189l-138 133l-150 -133h-178zM1034 1794l-215 248h187l159 -248h-131z" />
    <glyph glyph-name="uni1ED3" unicode="&#x1ed3;" horiz-adv-x="1136" 
d="M569 -20q-145 0 -253 62.5t-168 181.5t-60 288q0 163 57 285t164.5 189.5t260.5 67.5q146 0 253 -63.5t166 -185t59 -293.5q0 -157 -55 -277t-161.5 -187.5t-262.5 -67.5zM570 145q89 0 148 46.5t89 131t30 195.5q0 103 -26.5 187.5t-85 134.5t-155.5 50
q-89 0 -149.5 -45.5t-90.5 -129t-30 -197.5q0 -101 27 -186t86.5 -136t156.5 -51zM240 1155l254 234h152l249 -234h-189l-138 133l-150 -133h-178zM859 1382l-215 248h187l159 -248h-131z" />
    <glyph glyph-name="uni1ED4" unicode="&#x1ed4;" horiz-adv-x="1482" 
d="M744 -20q-197 0 -340.5 87.5t-221 253t-77.5 399.5q0 236 78.5 402.5t222 255t338.5 88.5q194 0 336.5 -88.5t220 -255t77.5 -402.5q0 -234 -77 -399t-219.5 -253t-337.5 -88zM744 163q126 0 215.5 58t136.5 181t47 315q0 197 -47.5 322t-137 184.5t-214.5 59.5
t-215.5 -60t-139.5 -185t-49 -321q0 -193 49 -315.5t139.5 -180.5t215.5 -58zM420 1567l254 234h152l249 -234h-189l-138 133l-150 -133h-178zM997 1748l-58 91q42 27 58.5 62.5t-4.5 68.5q-20 32 -61 32.5t-81 -26.5l-58 90q87 56 169.5 44.5t125.5 -77.5
q51 -78 26.5 -153.5t-117.5 -131.5z" />
    <glyph glyph-name="uni1ED5" unicode="&#x1ed5;" horiz-adv-x="1136" 
d="M569 -20q-145 0 -253 62.5t-168 181.5t-60 288q0 163 57 285t164.5 189.5t260.5 67.5q146 0 253 -63.5t166 -185t59 -293.5q0 -157 -55 -277t-161.5 -187.5t-262.5 -67.5zM570 145q89 0 148 46.5t89 131t30 195.5q0 103 -26.5 187.5t-85 134.5t-155.5 50
q-89 0 -149.5 -45.5t-90.5 -129t-30 -197.5q0 -101 27 -186t86.5 -136t156.5 -51zM245 1155l254 234h152l249 -234h-189l-138 133l-150 -133h-178zM822 1336l-58 91q42 27 58.5 62.5t-4.5 68.5q-20 32 -61 32.5t-81 -26.5l-58 90q87 56 169.5 44.5t125.5 -77.5
q51 -78 26.5 -153.5t-117.5 -131.5z" />
    <glyph glyph-name="uni1ED6" unicode="&#x1ed6;" horiz-adv-x="1482" 
d="M744 -20q-197 0 -340.5 87.5t-221 253t-77.5 399.5q0 236 78.5 402.5t222 255t338.5 88.5q194 0 336.5 -88.5t220 -255t77.5 -402.5q0 -234 -77 -399t-219.5 -253t-337.5 -88zM744 163q126 0 215.5 58t136.5 181t47 315q0 197 -47.5 322t-137 184.5t-214.5 59.5
t-215.5 -60t-139.5 -185t-49 -321q0 -193 49 -315.5t139.5 -180.5t215.5 -58zM417 1567l254 234h152l249 -234h-189l-138 133l-150 -133h-178zM469 1905l-37 121q33 33 73 56.5t100 23.5q51 0 96.5 -14.5t88.5 -29t87 -14.5q47 0 82 18.5t65 41.5l34 -136q-28 -21 -72.5 -41
t-108.5 -20q-54 0 -96 13.5t-81 26.5t-86 13q-50 0 -81 -16.5t-64 -42.5z" />
    <glyph glyph-name="uni1ED7" unicode="&#x1ed7;" horiz-adv-x="1136" 
d="M569 -20q-145 0 -253 62.5t-168 181.5t-60 288q0 163 57 285t164.5 189.5t260.5 67.5q146 0 253 -63.5t166 -185t59 -293.5q0 -157 -55 -277t-161.5 -187.5t-262.5 -67.5zM570 145q89 0 148 46.5t89 131t30 195.5q0 103 -26.5 187.5t-85 134.5t-155.5 50
q-89 0 -149.5 -45.5t-90.5 -129t-30 -197.5q0 -101 27 -186t86.5 -136t156.5 -51zM242 1155l254 234h152l249 -234h-189l-138 133l-150 -133h-178zM294 1493l-37 121q33 33 73 56.5t100 23.5q51 0 96.5 -14.5t88.5 -29t87 -14.5q47 0 82 18.5t65 41.5l34 -136
q-28 -21 -72.5 -41t-108.5 -20q-54 0 -96 13.5t-81 26.5t-86 13q-50 0 -81 -16.5t-64 -42.5z" />
    <glyph glyph-name="uni1ED8" unicode="&#x1ed8;" horiz-adv-x="1482" 
d="M744 -20q-197 0 -340.5 87.5t-221 253t-77.5 399.5q0 236 78.5 402.5t222 255t338.5 88.5q194 0 336.5 -88.5t220 -255t77.5 -402.5q0 -234 -77 -399t-219.5 -253t-337.5 -88zM744 163q126 0 215.5 58t136.5 181t47 315q0 197 -47.5 322t-137 184.5t-214.5 59.5
t-215.5 -60t-139.5 -185t-49 -321q0 -193 49 -315.5t139.5 -180.5t215.5 -58zM640 -369v194h212v-194h-212zM415 1567l254 234h152l249 -234h-189l-138 133l-150 -133h-178z" />
    <glyph glyph-name="uni1ED9" unicode="&#x1ed9;" horiz-adv-x="1136" 
d="M569 -20q-145 0 -253 62.5t-168 181.5t-60 288q0 163 57 285t164.5 189.5t260.5 67.5q146 0 253 -63.5t166 -185t59 -293.5q0 -157 -55 -277t-161.5 -187.5t-262.5 -67.5zM570 145q89 0 148 46.5t89 131t30 195.5q0 103 -26.5 187.5t-85 134.5t-155.5 50
q-89 0 -149.5 -45.5t-90.5 -129t-30 -197.5q0 -101 27 -186t86.5 -136t156.5 -51zM463 -369v194h212v-194h-212zM240 1155l254 234h152l249 -234h-189l-138 133l-150 -133h-178z" />
    <glyph glyph-name="uni1EDA" unicode="&#x1eda;" horiz-adv-x="1598" 
d="M744 -20q-197 0 -340.5 87.5t-221 253t-77.5 399.5q0 236 78.5 402.5t222 255t338.5 88.5q143 0 258.5 -48t197.5 -141q42 1 71 8t48 27.5t30 60.5t14 107h160q0 -106 -23.5 -176.5t-76 -106.5t-140.5 -41q46 -85 70.5 -194.5t24.5 -241.5q0 -234 -77 -399t-219.5 -253
t-337.5 -88zM744 163q126 0 215.5 58t136.5 181t47 315q0 197 -47.5 322t-137 184.5t-214.5 59.5t-215.5 -60t-139.5 -185t-49 -321q0 -193 49 -315.5t139.5 -180.5t215.5 -58zM655 1567l206 291h235l-280 -291h-161z" />
    <glyph glyph-name="uni1EDB" unicode="&#x1edb;" horiz-adv-x="1225" 
d="M484 1155l206 291h235l-280 -291h-161zM569 -20q-145 0 -253 62.5t-168 181.5t-60 288q0 163 57 285t164.5 189.5t260.5 67.5q110 0 198.5 -36.5t150.5 -106.5q46 4 74.5 20t43 58.5t19.5 123.5h159q0 -102 -21.5 -171.5t-70.5 -106t-131 -43.5q56 -114 56 -280
q0 -157 -55 -277t-161.5 -187.5t-262.5 -67.5zM570 145q89 0 148 46.5t89 131t30 195.5q0 103 -26.5 187.5t-85 134.5t-155.5 50q-89 0 -149.5 -45.5t-90.5 -129t-30 -197.5q0 -101 27 -186t86.5 -136t156.5 -51z" />
    <glyph glyph-name="uni1EDC" unicode="&#x1edc;" horiz-adv-x="1598" 
d="M744 -20q-197 0 -340.5 87.5t-221 253t-77.5 399.5q0 236 78.5 402.5t222 255t338.5 88.5q143 0 258.5 -48t197.5 -141q42 1 71 8t48 27.5t30 60.5t14 107h160q0 -106 -23.5 -176.5t-76 -106.5t-140.5 -41q46 -85 70.5 -194.5t24.5 -241.5q0 -234 -77 -399t-219.5 -253
t-337.5 -88zM744 163q126 0 215.5 58t136.5 181t47 315q0 197 -47.5 322t-137 184.5t-214.5 59.5t-215.5 -60t-139.5 -185t-49 -321q0 -193 49 -315.5t139.5 -180.5t215.5 -58zM666 1567l-280 291h236l206 -291h-162z" />
    <glyph glyph-name="uni1EDD" unicode="&#x1edd;" horiz-adv-x="1225" 
d="M480 1155l-280 291h236l206 -291h-162zM569 -20q-145 0 -253 62.5t-168 181.5t-60 288q0 163 57 285t164.5 189.5t260.5 67.5q110 0 198.5 -36.5t150.5 -106.5q46 4 74.5 20t43 58.5t19.5 123.5h159q0 -102 -21.5 -171.5t-70.5 -106t-131 -43.5q56 -114 56 -280
q0 -157 -55 -277t-161.5 -187.5t-262.5 -67.5zM570 145q89 0 148 46.5t89 131t30 195.5q0 103 -26.5 187.5t-85 134.5t-155.5 50q-89 0 -149.5 -45.5t-90.5 -129t-30 -197.5q0 -101 27 -186t86.5 -136t156.5 -51z" />
    <glyph glyph-name="uni1EDE" unicode="&#x1ede;" horiz-adv-x="1598" 
d="M744 -20q-197 0 -340.5 87.5t-221 253t-77.5 399.5q0 236 78.5 402.5t222 255t338.5 88.5q143 0 258.5 -48t197.5 -141q42 1 71 8t48 27.5t30 60.5t14 107h160q0 -106 -23.5 -176.5t-76 -106.5t-140.5 -41q46 -85 70.5 -194.5t24.5 -241.5q0 -234 -77 -399t-219.5 -253
t-337.5 -88zM744 163q126 0 215.5 58t136.5 181t47 315q0 197 -47.5 322t-137 184.5t-214.5 59.5t-215.5 -60t-139.5 -185t-49 -321q0 -193 49 -315.5t139.5 -180.5t215.5 -58zM810 1564l-59 90q42 27 58.5 63t-4.5 69q-19 32 -60.5 32t-80.5 -26l-58 90q86 56 169 44.5
t125 -77.5q51 -78 26.5 -153.5t-116.5 -131.5z" />
    <glyph glyph-name="uni1EDF" unicode="&#x1edf;" horiz-adv-x="1225" 
d="M629 1152l-59 90q42 27 58.5 63t-4.5 69q-19 32 -60.5 32t-80.5 -26l-58 90q86 56 169 44.5t125 -77.5q51 -78 26.5 -153.5t-116.5 -131.5zM569 -20q-145 0 -253 62.5t-168 181.5t-60 288q0 163 57 285t164.5 189.5t260.5 67.5q110 0 198.5 -36.5t150.5 -106.5
q46 4 74.5 20t43 58.5t19.5 123.5h159q0 -102 -21.5 -171.5t-70.5 -106t-131 -43.5q56 -114 56 -280q0 -157 -55 -277t-161.5 -187.5t-262.5 -67.5zM570 145q89 0 148 46.5t89 131t30 195.5q0 103 -26.5 187.5t-85 134.5t-155.5 50q-89 0 -149.5 -45.5t-90.5 -129
t-30 -197.5q0 -101 27 -186t86.5 -136t156.5 -51z" />
    <glyph glyph-name="uni1EE0" unicode="&#x1ee0;" horiz-adv-x="1598" 
d="M744 -20q-197 0 -340.5 87.5t-221 253t-77.5 399.5q0 236 78.5 402.5t222 255t338.5 88.5q143 0 258.5 -48t197.5 -141q42 1 71 8t48 27.5t30 60.5t14 107h160q0 -106 -23.5 -176.5t-76 -106.5t-140.5 -41q46 -85 70.5 -194.5t24.5 -241.5q0 -234 -77 -399t-219.5 -253
t-337.5 -88zM744 163q126 0 215.5 58t136.5 181t47 315q0 197 -47.5 322t-137 184.5t-214.5 59.5t-215.5 -60t-139.5 -185t-49 -321q0 -193 49 -315.5t139.5 -180.5t215.5 -58zM472 1624l-38 121q34 33 74 56t100 23q51 0 96 -14t88.5 -28.5t87.5 -14.5q47 0 82 18.5
t65 40.5l33 -135q-27 -21 -71.5 -41.5t-108.5 -20.5q-54 0 -96 13.5t-81 26.5t-86 13q-50 0 -81 -16t-64 -42z" />
    <glyph glyph-name="uni1EE1" unicode="&#x1ee1;" horiz-adv-x="1225" 
d="M291 1212l-38 121q34 33 74 56t100 23q51 0 96 -14t88.5 -28.5t87.5 -14.5q47 0 82 18.5t65 40.5l33 -135q-27 -21 -71.5 -41.5t-108.5 -20.5q-54 0 -96 13.5t-81 26.5t-86 13q-50 0 -81 -16t-64 -42zM569 -20q-145 0 -253 62.5t-168 181.5t-60 288q0 163 57 285
t164.5 189.5t260.5 67.5q110 0 198.5 -36.5t150.5 -106.5q46 4 74.5 20t43 58.5t19.5 123.5h159q0 -102 -21.5 -171.5t-70.5 -106t-131 -43.5q56 -114 56 -280q0 -157 -55 -277t-161.5 -187.5t-262.5 -67.5zM570 145q89 0 148 46.5t89 131t30 195.5q0 103 -26.5 187.5
t-85 134.5t-155.5 50q-89 0 -149.5 -45.5t-90.5 -129t-30 -197.5q0 -101 27 -186t86.5 -136t156.5 -51z" />
    <glyph glyph-name="uni1EE2" unicode="&#x1ee2;" horiz-adv-x="1598" 
d="M744 -20q-197 0 -340.5 87.5t-221 253t-77.5 399.5q0 236 78.5 402.5t222 255t338.5 88.5q143 0 258.5 -48t197.5 -141q42 1 71 8t48 27.5t30 60.5t14 107h160q0 -106 -23.5 -176.5t-76 -106.5t-140.5 -41q46 -85 70.5 -194.5t24.5 -241.5q0 -234 -77 -399t-219.5 -253
t-337.5 -88zM744 163q126 0 215.5 58t136.5 181t47 315q0 197 -47.5 322t-137 184.5t-214.5 59.5t-215.5 -60t-139.5 -185t-49 -321q0 -193 49 -315.5t139.5 -180.5t215.5 -58zM640 -369v194h212v-194h-212z" />
    <glyph glyph-name="uni1EE3" unicode="&#x1ee3;" horiz-adv-x="1225" 
d="M443 -369v194h212v-194h-212zM569 -20q-145 0 -253 62.5t-168 181.5t-60 288q0 163 57 285t164.5 189.5t260.5 67.5q110 0 198.5 -36.5t150.5 -106.5q46 4 74.5 20t43 58.5t19.5 123.5h159q0 -102 -21.5 -171.5t-70.5 -106t-131 -43.5q56 -114 56 -280q0 -157 -55 -277
t-161.5 -187.5t-262.5 -67.5zM570 145q89 0 148 46.5t89 131t30 195.5q0 103 -26.5 187.5t-85 134.5t-155.5 50q-89 0 -149.5 -45.5t-90.5 -129t-30 -197.5q0 -101 27 -186t86.5 -136t156.5 -51z" />
    <glyph glyph-name="uni1EE4" unicode="&#x1ee4;" horiz-adv-x="1414" 
d="M725 -20q-194 0 -313.5 64t-174 187t-54.5 300v915h221v-942q0 -172 84.5 -255.5t236.5 -83.5q101 0 174.5 36.5t112.5 112t39 190.5v942h217v-932q0 -169 -56 -288.5t-175.5 -182.5t-311.5 -63zM618 -367v194h212v-194h-212z" />
    <glyph glyph-name="uni1EE5" unicode="&#x1ee5;" horiz-adv-x="1169" 
d="M525 -20q-78 1 -149 23t-126.5 66t-88 109t-32.5 151v705h215v-682q0 -93 58 -151t175 -58q106 0 170 55.5t64 162.5v673h213v-1034h-166l-24 200q-18 -81 -64.5 -129.5t-110 -70t-134.5 -20.5zM476 -369v194h212v-194h-212z" />
    <glyph glyph-name="uni1EE6" unicode="&#x1ee6;" horiz-adv-x="1414" 
d="M725 -20q-194 0 -313.5 64t-174 187t-54.5 300v915h221v-942q0 -172 84.5 -255.5t236.5 -83.5q101 0 174.5 36.5t112.5 112t39 190.5v942h217v-932q0 -169 -56 -288.5t-175.5 -182.5t-311.5 -63zM793 1564l-59 90q42 27 58.5 63t-4.5 69q-19 32 -60.5 32t-80.5 -26
l-58 90q86 56 169 44.5t125 -77.5q51 -78 26.5 -153.5t-116.5 -131.5z" />
    <glyph glyph-name="uni1EE7" unicode="&#x1ee7;" horiz-adv-x="1169" 
d="M525 -20q-78 1 -149 23t-126.5 66t-88 109t-32.5 151v705h215v-682q0 -93 58 -151t175 -58q106 0 170 55.5t64 162.5v673h213v-1034h-166l-24 200q-18 -81 -64.5 -129.5t-110 -70t-134.5 -20.5zM646 1152l-59 90q42 27 58.5 63t-4.5 69q-19 32 -60.5 32t-80.5 -26l-58 90
q86 56 169 44.5t125 -77.5q51 -78 26.5 -153.5t-116.5 -131.5z" />
    <glyph glyph-name="uni1EE8" unicode="&#x1ee8;" horiz-adv-x="1648" 
d="M725 -20q-194 0 -313.5 64t-174 187t-54.5 300v915h221v-942q0 -172 84.5 -255.5t236.5 -83.5q101 0 174.5 36.5t112.5 112t39 190.5v942h217v-169q45 2 72.5 19t42 60.5t19.5 123.5h160q-1 -117 -29.5 -190.5t-92 -105.5t-172.5 -27v-643q0 -169 -56 -288.5
t-175.5 -182.5t-311.5 -63zM638 1567l206 291h235l-280 -291h-161z" />
    <glyph glyph-name="uni1EE9" unicode="&#x1ee9;" horiz-adv-x="1336" 
d="M509 1155l206 291h235l-280 -291h-161zM525 -20q-78 1 -149 23t-126.5 66t-88 109t-32.5 151v705h215v-682q0 -93 58 -151t175 -58q106 0 170 55.5t64 162.5v673h213v-124q50 1 80.5 17t45.5 59.5t20 126.5h160q-1 -118 -30.5 -192t-96 -105.5t-179.5 -24.5v-791h-166
l-24 200q-18 -81 -64.5 -129.5t-110 -70t-134.5 -20.5z" />
    <glyph glyph-name="uni1EEA" unicode="&#x1eea;" horiz-adv-x="1648" 
d="M725 -20q-194 0 -313.5 64t-174 187t-54.5 300v915h221v-942q0 -172 84.5 -255.5t236.5 -83.5q101 0 174.5 36.5t112.5 112t39 190.5v942h217v-169q45 2 72.5 19t42 60.5t19.5 123.5h160q-1 -117 -29.5 -190.5t-92 -105.5t-172.5 -27v-643q0 -169 -56 -288.5
t-175.5 -182.5t-311.5 -63zM649 1567l-280 291h236l206 -291h-162z" />
    <glyph glyph-name="uni1EEB" unicode="&#x1eeb;" horiz-adv-x="1336" 
d="M506 1155l-280 291h236l206 -291h-162zM525 -20q-78 1 -149 23t-126.5 66t-88 109t-32.5 151v705h215v-682q0 -93 58 -151t175 -58q106 0 170 55.5t64 162.5v673h213v-124q50 1 80.5 17t45.5 59.5t20 126.5h160q-1 -118 -30.5 -192t-96 -105.5t-179.5 -24.5v-791h-166
l-24 200q-18 -81 -64.5 -129.5t-110 -70t-134.5 -20.5z" />
    <glyph glyph-name="uni1EEC" unicode="&#x1eec;" horiz-adv-x="1648" 
d="M725 -20q-194 0 -313.5 64t-174 187t-54.5 300v915h221v-942q0 -172 84.5 -255.5t236.5 -83.5q101 0 174.5 36.5t112.5 112t39 190.5v942h217v-169q45 2 72.5 19t42 60.5t19.5 123.5h160q-1 -117 -29.5 -190.5t-92 -105.5t-172.5 -27v-643q0 -169 -56 -288.5
t-175.5 -182.5t-311.5 -63zM793 1564l-59 90q42 27 58.5 63t-4.5 69q-19 32 -60.5 32t-80.5 -26l-58 90q86 56 169 44.5t125 -77.5q51 -78 26.5 -153.5t-116.5 -131.5z" />
    <glyph glyph-name="uni1EED" unicode="&#x1eed;" horiz-adv-x="1336" 
d="M655 1152l-59 90q42 27 58.5 63t-4.5 69q-19 32 -60.5 32t-80.5 -26l-58 90q86 56 169 44.5t125 -77.5q51 -78 26.5 -153.5t-116.5 -131.5zM525 -20q-78 1 -149 23t-126.5 66t-88 109t-32.5 151v705h215v-682q0 -93 58 -151t175 -58q106 0 170 55.5t64 162.5v673h213
v-124q50 1 80.5 17t45.5 59.5t20 126.5h160q-1 -118 -30.5 -192t-96 -105.5t-179.5 -24.5v-791h-166l-24 200q-18 -81 -64.5 -129.5t-110 -70t-134.5 -20.5z" />
    <glyph glyph-name="uni1EEE" unicode="&#x1eee;" horiz-adv-x="1643" 
d="M725 -20q-194 0 -313.5 64t-174 187t-54.5 300v915h221v-942q0 -172 84.5 -255.5t236.5 -83.5q101 0 174.5 36.5t112.5 112t39 190.5v942h217v-169q45 2 72.5 19t42 60.5t19.5 123.5h160q-1 -117 -29.5 -190.5t-92 -105.5t-172.5 -27v-643q0 -169 -56 -288.5
t-175.5 -182.5t-311.5 -63zM455 1624l-38 121q34 33 74 56t100 23q51 0 96 -14t88.5 -28.5t87.5 -14.5q47 0 82 18.5t65 40.5l33 -135q-27 -21 -71.5 -41.5t-108.5 -20.5q-54 0 -96 13.5t-81 26.5t-86 13q-50 0 -81 -16t-64 -42z" />
    <glyph glyph-name="uni1EEF" unicode="&#x1eef;" horiz-adv-x="1336" 
d="M317 1212l-38 121q34 33 74 56t100 23q51 0 96 -14t88.5 -28.5t87.5 -14.5q47 0 82 18.5t65 40.5l33 -135q-27 -21 -71.5 -41.5t-108.5 -20.5q-54 0 -96 13.5t-81 26.5t-86 13q-50 0 -81 -16t-64 -42zM525 -20q-78 1 -149 23t-126.5 66t-88 109t-32.5 151v705h215v-682
q0 -93 58 -151t175 -58q106 0 170 55.5t64 162.5v673h213v-124q50 1 80.5 17t45.5 59.5t20 126.5h160q-1 -118 -30.5 -192t-96 -105.5t-179.5 -24.5v-791h-166l-24 200q-18 -81 -64.5 -129.5t-110 -70t-134.5 -20.5z" />
    <glyph glyph-name="uni1EF0" unicode="&#x1ef0;" horiz-adv-x="1648" 
d="M725 -20q-194 0 -313.5 64t-174 187t-54.5 300v915h221v-942q0 -172 84.5 -255.5t236.5 -83.5q101 0 174.5 36.5t112.5 112t39 190.5v942h217v-169q45 2 72.5 19t42 60.5t19.5 123.5h160q-1 -117 -29.5 -190.5t-92 -105.5t-172.5 -27v-643q0 -169 -56 -288.5
t-175.5 -182.5t-311.5 -63zM618 -367v194h212v-194h-212z" />
    <glyph glyph-name="uni1EF1" unicode="&#x1ef1;" horiz-adv-x="1336" 
d="M471 -369v194h212v-194h-212zM525 -20q-78 1 -149 23t-126.5 66t-88 109t-32.5 151v705h215v-682q0 -93 58 -151t175 -58q106 0 170 55.5t64 162.5v673h213v-124q50 1 80.5 17t45.5 59.5t20 126.5h160q-1 -118 -30.5 -192t-96 -105.5t-179.5 -24.5v-791h-166l-24 200
q-18 -81 -64.5 -129.5t-110 -70t-134.5 -20.5z" />
    <glyph glyph-name="Ygrave" unicode="&#x1ef2;" horiz-adv-x="1247" 
d="M518 0v614l-496 832h234l370 -643l365 643h234l-493 -833v-613h-214zM567 1569l-280 291h236l206 -291h-162z" />
    <glyph glyph-name="ygrave" unicode="&#x1ef3;" horiz-adv-x="1085" 
d="M264 -330q-95 0 -131.5 14l-36.5 14v138l105 -2q60 -3 99 7t61.5 27.5t34 37.5t17.5 37l32 87l-403 1004h214l290 -764l289 764h209l-431 -1092q-44 -108 -96.5 -167t-115.5 -82t-137 -23zM468 1155l-280 291h236l206 -291h-162z" />
    <glyph glyph-name="uni1EF4" unicode="&#x1ef4;" horiz-adv-x="1247" 
d="M518 0v614l-496 832h234l370 -643l365 643h234l-493 -833v-613h-214zM520 -369v194h212v-194h-212z" />
    <glyph glyph-name="uni1EF5" unicode="&#x1ef5;" horiz-adv-x="1085" 
d="M264 -330q-95 0 -131.5 14l-36.5 14v138l105 -2q60 -3 99 7t61.5 27.5t34 37.5t17.5 37l32 87l-403 1004h214l290 -764l289 764h209l-431 -1092q-44 -108 -96.5 -167t-115.5 -82t-137 -23zM707 -350v194h212v-194h-212z" />
    <glyph glyph-name="uni1EF6" unicode="&#x1ef6;" horiz-adv-x="1247" 
d="M518 0v614l-496 832h234l370 -643l365 643h234l-493 -833v-613h-214zM712 1567l-59 90q42 27 58.5 63t-4.5 69q-19 32 -60.5 32t-80.5 -26l-58 90q86 56 169 44.5t125 -77.5q51 -78 26.5 -153.5t-116.5 -131.5z" />
    <glyph glyph-name="uni1EF7" unicode="&#x1ef7;" horiz-adv-x="1085" 
d="M264 -330q-95 0 -131.5 14l-36.5 14v138l105 -2q60 -3 99 7t61.5 27.5t34 37.5t17.5 37l32 87l-403 1004h214l290 -764l289 764h209l-431 -1092q-44 -108 -96.5 -167t-115.5 -82t-137 -23zM612 1152l-59 90q42 27 58.5 63t-4.5 69q-19 32 -60.5 32t-80.5 -26l-58 90
q86 56 169 44.5t125 -77.5q51 -78 26.5 -153.5t-116.5 -131.5z" />
    <glyph glyph-name="uni1EF8" unicode="&#x1ef8;" horiz-adv-x="1247" 
d="M518 0v614l-496 832h234l370 -643l365 643h234l-493 -833v-613h-214zM374 1626l-38 121q34 33 74 56t100 23q51 0 96 -14t88.5 -28.5t87.5 -14.5q47 0 82 18.5t65 40.5l33 -135q-27 -21 -71.5 -41.5t-108.5 -20.5q-54 0 -96 13.5t-81 26.5t-86 13q-50 0 -81 -16t-64 -42z
" />
    <glyph glyph-name="uni1EF9" unicode="&#x1ef9;" horiz-adv-x="1085" 
d="M264 -330q-95 0 -131.5 14l-36.5 14v138l105 -2q60 -3 99 7t61.5 27.5t34 37.5t17.5 37l32 87l-403 1004h214l290 -764l289 764h209l-431 -1092q-44 -108 -96.5 -167t-115.5 -82t-137 -23zM274 1212l-38 121q34 33 74 56t100 23q51 0 96 -14t88.5 -28.5t87.5 -14.5
q47 0 82 18.5t65 40.5l33 -135q-27 -21 -71.5 -41.5t-108.5 -20.5q-54 0 -96 13.5t-81 26.5t-86 13q-50 0 -81 -16t-64 -42z" />
    <glyph glyph-name="endash" unicode="&#x2013;" horiz-adv-x="1131" 
d="M123 418v164l885 1v-164z" />
    <glyph glyph-name="emdash" unicode="&#x2014;" horiz-adv-x="2251" 
d="M368 418v164l1515 1v-164z" />
    <glyph glyph-name="quoteleft" unicode="&#x2018;" horiz-adv-x="492" 
d="M98 1012v207l178 290h92l-112 -255l90 -6v-236h-248z" />
    <glyph glyph-name="quoteright" unicode="&#x2019;" horiz-adv-x="479" 
d="M100 949l112 255l-90 6v236h248v-207l-178 -290h-92z" />
    <glyph glyph-name="quotesinglbase" unicode="&#x201a;" horiz-adv-x="502" 
d="M89 -257l112 254l-90 6v238h248v-208l-178 -290h-92z" />
    <glyph glyph-name="quotedblleft" unicode="&#x201c;" horiz-adv-x="871" 
d="M98 949v208l179 289h92l-113 -253l90 -7v-237h-248zM477 949v208l179 289h92l-114 -253l92 -7v-237h-249z" />
    <glyph glyph-name="quotedblright" unicode="&#x201d;" horiz-adv-x="858" 
d="M478 949l114 255l-91 6v236h248v-207l-178 -290h-93zM100 949l112 255l-90 6v236h248v-207l-178 -290h-92z" />
    <glyph glyph-name="quotedblbase" unicode="&#x201e;" horiz-adv-x="890" 
d="M477 -257l112 254l-90 6v238h248v-208l-178 -290h-92zM89 -257l112 254l-90 6v238h248v-208l-178 -290h-92z" />
    <glyph glyph-name="dagger" unicode="&#x2020;" horiz-adv-x="949" 
d="M363 -322l41 1116l-365 -31v195l356 -28l-33 516h218l-35 -516l356 28v-195l-364 31l42 -1116h-216z" />
    <glyph glyph-name="daggerdbl" unicode="&#x2021;" horiz-adv-x="949" 
d="M362 -322l34 499l-357 -28v196l363 -31v462l-363 -31v195l356 -28l-33 534h217l-34 -534l356 28v-195l-363 31v-462l363 31v-196l-357 28l36 -499h-218z" />
    <glyph glyph-name="bullet" unicode="&#x2022;" horiz-adv-x="653" 
d="M319 524q-58 0 -105.5 28.5t-76 77t-28.5 106.5t28.5 105.5t76 76t105.5 28.5q59 0 107 -28.5t76 -76t28 -105.5t-28 -106.5t-76 -77t-107 -28.5z" />
    <glyph glyph-name="ellipsis" unicode="&#x2026;" horiz-adv-x="1604" 
d="M1237 0v258h247v-258h-247zM107 0v258h247v-258h-247zM672 0v258h247v-258h-247z" />
    <glyph glyph-name="perthousand" unicode="&#x2030;" horiz-adv-x="2635" 
d="M364 -8l977 1470h134l-972 -1470h-139zM452 644q-100 0 -179 52.5t-124.5 145t-45.5 212.5q0 122 46 215t125 146t178 53t177.5 -53t123.5 -146t45 -215q0 -120 -44.5 -212.5t-123 -145t-178.5 -52.5zM450 760q92 0 140 75t48 219q0 146 -48.5 222.5t-139.5 76.5
q-90 0 -138.5 -77t-48.5 -222q0 -143 48 -218.5t139 -75.5zM1369 -20q-100 0 -179.5 51.5t-124.5 144t-45 216.5q0 122 45.5 215t125 146t178.5 53q100 0 178.5 -53t123.5 -146t45 -215q0 -124 -44.5 -216.5t-123 -144t-179.5 -51.5zM1367 97q92 0 140 75t48 218
q0 146 -48.5 222.5t-139.5 76.5q-90 0 -138 -77t-48 -222q0 -142 47.5 -217.5t138.5 -75.5zM2178 -20q-101 0 -180 51.5t-124.5 144t-45.5 216.5q0 122 46 215t125 146t179 53q99 0 177.5 -53t123.5 -146t45 -215q0 -124 -44.5 -216.5t-123 -144t-178.5 -51.5zM2176 97
q92 0 139 75t47 218q0 146 -47.5 222.5t-138.5 76.5q-90 0 -138.5 -77t-48.5 -222q0 -142 48 -217.5t139 -75.5z" />
    <glyph glyph-name="guilsinglleft" unicode="&#x2039;" horiz-adv-x="573" 
d="M341 137l-255 365l255 381h120l-191 -381l189 -365h-118z" />
    <glyph glyph-name="guilsinglright" unicode="&#x203a;" horiz-adv-x="572" 
d="M114 137l189 365l-191 381h119l254 -381l-254 -365h-117z" />
    <glyph glyph-name="fraction" unicode="&#x2044;" horiz-adv-x="467" 
d="M-181 -8l-138 2l976 1468h134z" />
    <glyph glyph-name="uni2070" unicode="&#x2070;" horiz-adv-x="771" 
d="M386 732q-159 0 -245.5 120.5t-86.5 342.5q0 224 87.5 347.5t244.5 123.5q158 0 244.5 -123t86.5 -347q0 -221 -86 -342.5t-245 -121.5zM386 851q95 0 139 83t44 262q0 182 -45 268t-139 86q-93 0 -138.5 -86.5t-45.5 -267.5q0 -178 45 -261.5t140 -83.5z" />
    <glyph glyph-name="uni2074" unicode="&#x2074;" horiz-adv-x="795" 
d="M467 745v222h-422v121l419 566h139v-566h147v-121h-147v-222h-136zM179 1088h287v385z" />
    <glyph glyph-name="uni2075" unicode="&#x2075;" horiz-adv-x="809" 
d="M417 731q-129 0 -227.5 64.5t-135.5 166.5l117 54q35 -75 93 -121.5t142 -46.5q93 0 147.5 52t54.5 138q0 83 -56 133t-137 50q-53 0 -95.5 -14.5t-91.5 -67.5q-6 -1 -8 -0.5t-8 3.5l-110 39l42 473h556l-4 -119h-436l-21 -260q45 31 94 47.5t112 16.5q84 0 154.5 -34
t113 -100t42.5 -162q0 -143 -92 -227.5t-246 -84.5z" />
    <glyph glyph-name="uni2076" unicode="&#x2076;" horiz-adv-x="787" 
d="M408 735q-166 0 -260 121.5t-94 328.5q0 229 97 355.5t266 126.5q80 0 147 -30t110 -85t50 -132h-131q-17 64 -62.5 98t-110.5 34q-112 0 -167 -91t-46 -252q32 56 92 88.5t130 32.5q140 0 222 -78t82 -209q0 -91 -40.5 -161t-113.5 -108.5t-171 -38.5zM405 847
q77 0 128 52.5t51 137.5q0 91 -50 136t-129 45q-48 0 -89.5 -21.5t-67 -56t-26.5 -72.5q-1 -102 50.5 -161.5t132.5 -59.5z" />
    <glyph glyph-name="uni2077" unicode="&#x2077;" horiz-adv-x="721" 
d="M208 747q11 80 50 209.5t110 281.5t176 300h-499v119h651v-118q-58 -78 -115.5 -184t-105.5 -218.5t-79 -215t-37 -174.5h-151z" />
    <glyph glyph-name="uni2078" unicode="&#x2078;" horiz-adv-x="837" 
d="M418 734q-159 0 -256.5 71t-97.5 192q0 51 25.5 98.5t65.5 81.5t83 45q-62 28 -98 76.5t-36 117.5q0 118 88.5 184.5t225.5 66.5q138 0 226.5 -66.5t88.5 -184.5q0 -69 -36 -117.5t-98 -76.5q45 -11 84.5 -45t64.5 -81.5t25 -98.5q0 -121 -97.5 -192t-257.5 -71zM418 845
q94 0 149 42t55 111q0 72 -55.5 116t-148.5 44q-92 0 -147.5 -44t-55.5 -116q0 -69 54.5 -111t148.5 -42zM418 1279q80 0 126 37t46 103q0 67 -47.5 107t-124.5 40q-76 0 -123.5 -40t-47.5 -107q0 -66 46.5 -103t124.5 -37z" />
    <glyph glyph-name="uni2079" unicode="&#x2079;" horiz-adv-x="789" 
d="M368 734q-81 0 -149 31t-111.5 86.5t-51.5 129.5h135q14 -59 60.5 -95t111.5 -36q112 0 175 84.5t56 262.5q-29 -60 -88 -95.5t-139 -35.5q-138 0 -223 79.5t-85 212.5q0 93 40.5 162.5t113 108t168.5 38.5q166 0 259.5 -122.5t93.5 -328.5q0 -239 -97.5 -360.5
t-268.5 -121.5zM385 1183q47 0 88.5 21.5t67.5 57t26 72.5q2 102 -49.5 161.5t-133.5 59.5q-76 0 -125 -52t-49 -138q0 -90 48 -136t127 -46z" />
    <glyph glyph-name="colonmonetary" unicode="&#x20a1;" horiz-adv-x="1393" 
d="M730 -20q-196 0 -336 90.5t-214.5 258t-74.5 401.5q0 233 74 397.5t214 251.5t337 87q156 0 277 -64t194.5 -172t87.5 -239h-228q-15 82 -57.5 148.5t-112.5 105t-166 38.5q-123 0 -209 -58t-130.5 -181t-44.5 -317q0 -293 99 -428.5t285 -135.5q96 0 166 41.5t112.5 111
t57.5 151.5h228q-12 -95 -50 -182.5t-105.5 -156.5t-167.5 -108.5t-236 -39.5zM413 -122l320 1682h109l-320 -1682h-109zM634 -122l320 1682h109l-320 -1682h-109z" />
    <glyph glyph-name="franc" unicode="&#x20a3;" horiz-adv-x="1225" 
d="M162 0v1446h969v-183h-725v-465h589v-179h-589v-619h-244zM-21 258v128l745 2v-129z" />
    <glyph glyph-name="lira" unicode="&#x20a4;" horiz-adv-x="1245" 
d="M33 0v182h73q70 -1 119 55t56 176q2 15 2 32t-1 40q-1 12 -17 12h-212v128h211l-27 165h-184v129h164l-7 65q-24 174 30 280t158.5 154t231.5 48q89 0 174.5 -30.5t152.5 -86.5t99 -134l-190 -63q-28 60 -75.5 98t-130.5 38q-61 0 -110 -24.5t-78 -71t-29 -112.5
q0 -22 5.5 -59.5t12.5 -82.5q3 -19 22 -19l302 1v-129l-301 -1l25 -165l276 1v-128h-275q-1 -54 -14 -111.5t-39 -110.5t-66 -92h330q97 0 157 36t92 126l183 -45q-45 -148 -154 -224.5t-264 -76.5h-702z" />
    <glyph glyph-name="uni20A6" unicode="&#x20a6;" horiz-adv-x="1558" 
d="M223 0v1446h207l736 -1078v1078h215v-1446h-192l-752 1101v-1101h-214zM14 495v119l1530 1v-118zM14 876v118l1530 1v-118z" />
    <glyph glyph-name="uni20A9" unicode="&#x20a9;" horiz-adv-x="2106" 
d="M546 0l-419 1446h214l306 -1098l310 1098h164l310 -1098l310 1098h213l-423 -1446h-188l-305 1073l-308 -1073h-184zM26 666v127l2046 2v-128zM26 978v127l2046 2v-128z" />
    <glyph glyph-name="dong" unicode="&#x20ab;" horiz-adv-x="1032" 
d="M430 248q-98 0 -177 48t-125.5 143.5t-46.5 237.5q0 136 48 237.5t131 157.5t187 56q77 0 127.5 -24.5t92.5 -63.5q14 -11 20 -8.5t6 19.5v394h182v-1181h-178v114q-23 -26 -56.5 -56.5t-84.5 -52t-126 -21.5zM130 0v114h751v-114h-751zM497 375q56 0 99.5 24.5t68 62.5
t24.5 78v367q-42 43 -86.5 66.5t-101.5 23.5q-99 0 -162.5 -77.5t-63.5 -238.5q0 -108 29.5 -176t80 -99t112.5 -31zM439 1218v106h559v-106h-559z" />
    <glyph glyph-name="Euro" unicode="&#x20ac;" horiz-adv-x="1227" 
d="M758 -20q-140 0 -252.5 52.5t-192.5 150.5t-122.5 236t-42.5 310q0 229 74.5 394t210.5 254t320 89q117 0 219 -43.5t175 -119.5l-148 -125q-47 45 -101.5 77.5t-126.5 32.5q-118 0 -202 -60.5t-127.5 -185t-43.5 -316.5q0 -189 46 -312.5t132.5 -185t208.5 -61.5
q73 0 138.5 33t109.5 75l117 -131q-71 -71 -172.5 -117.5t-219.5 -46.5zM-14 501v128l808 1v-128zM-14 822v127l808 1v-127z" />
    <glyph glyph-name="uni20B9" unicode="&#x20b9;" horiz-adv-x="1201" 
d="M712 0l-239 662h-447v163h396q164 0 242 60t78 197q0 121 -72.5 179t-214.5 58h-429v127h460q241 0 375.5 -95t134.5 -274q0 -106 -40.5 -180.5t-104 -121.5t-134.5 -71q-14 -4 -7 -24l267 -680h-265zM29 1023v119l1129 1v-119zM29 1327v119l1129 1v-118z" />
    <glyph glyph-name="uni20BA" unicode="&#x20ba;" horiz-adv-x="1183" 
d="M245 0v1446h245v-1262h89q126 2 222 83.5t158 251.5l195 -43q-35 -105 -91.5 -192t-136 -151t-184.5 -98.5t-238 -34.5h-259zM93 386l-45 129l721 262l46 -128zM76 705l-46 129l722 262l48 -127z" />
    <glyph glyph-name="uni2113" unicode="&#x2113;" horiz-adv-x="1046" 
d="M559 -15q-159 0 -245 87t-109 264l-101 -68l-58 126l159 117v484q0 160 49.5 264.5t135 155.5t193.5 51q105 0 171 -42.5t97.5 -115.5t31.5 -163q0 -110 -40.5 -205.5t-107 -181t-148 -163t-164.5 -149.5q0 -164 41 -231.5t137 -67.5q72 0 134 36.5t130 129.5l81 -72
q-22 -47 -54.5 -92.5t-79 -82.5t-109 -59t-144.5 -22zM423 633q52 47 106.5 105.5t100 126.5t73.5 143.5t28 155.5q0 76 -33.5 118.5t-100.5 42.5q-54 0 -93 -32t-60 -108.5t-21 -210.5v-341z" />
    <glyph glyph-name="uni2116" unicode="&#x2116;" horiz-adv-x="2334" 
d="M183 0v1446h207l736 -1078v1078h215v-1446h-192l-752 1101v-1101h-214zM1928 795q-98 0 -169 42.5t-109.5 117.5t-38.5 172q0 101 40 177t111.5 118.5t165.5 42.5q97 0 168 -43t110 -119t39 -176q0 -97 -38 -172t-109.5 -117.5t-169.5 -42.5zM1928 899q83 0 124 61
t41 172q0 108 -41 168t-124 60q-82 0 -123 -60t-41 -168q0 -111 41 -172t123 -61z" />
    <glyph glyph-name="uni2117" unicode="&#x2117;" horiz-adv-x="1641" 
d="M816 -20q-154 0 -288.5 57.5t-237 159.5t-160 237t-57.5 290q0 153 57.5 287.5t160 236.5t237 160t288.5 58t288.5 -58t236.5 -160t160 -236.5t58 -287.5q0 -155 -58 -290t-160 -237t-236.5 -159.5t-288.5 -57.5zM816 115q125 0 233.5 43t190.5 122.5t128 192t46 251.5
q0 138 -46 250t-128 192.5t-190.5 124t-233.5 43.5q-127 0 -236 -43.5t-190.5 -124t-126.5 -192.5t-45 -250q0 -139 45 -251.5t126.5 -192t190.5 -122.5t236 -43zM547 333v775h317q83 0 149.5 -24t105.5 -74.5t39 -130.5q0 -124 -78 -187t-201 -63h-185v-296h-147zM694 740
h170q62 0 103 32t41 98q0 72 -43.5 98.5t-107.5 26.5h-163v-255z" />
    <glyph glyph-name="uni2120" unicode="&#x2120;" horiz-adv-x="1981" 
d="M979 0v904h189l254 -719l258 719h188v-904h-137v720l-250 -720h-118l-248 714v-714h-136zM425 -13q-88 0 -166 29t-130.5 86.5t-63.5 142.5h140q15 -73 77.5 -111t149.5 -38q80 0 140.5 37.5t60.5 107.5q0 52 -34.5 82t-104.5 48l-181 45q-99 23 -159.5 78.5t-60.5 161.5
q0 79 43 137t118 90t169 32q108 0 182.5 -37t113 -97t38.5 -131h-137q-5 57 -33.5 91.5t-72 49.5t-95.5 15q-92 0 -139 -41t-47 -97q0 -52 33.5 -82t101.5 -47l175 -43q124 -27 175 -92.5t51 -151.5q0 -77 -43 -136.5t-120.5 -94t-180.5 -34.5z" />
    <glyph glyph-name="trademark" unicode="&#x2122;" horiz-adv-x="1847" 
d="M845 0v904h189l254 -719l258 719h188v-904h-137v720l-250 -720h-117l-248 714v-714h-137zM309 0v782h-286v122h695v-122h-274v-782h-135z" />
    <glyph glyph-name="uni2126" unicode="&#x2126;" horiz-adv-x="1532" 
d="M156 0v191h303q-24 20 -67 56.5t-91.5 90t-92 125t-71.5 162t-28 200.5q0 130 43.5 251.5t128 218t207.5 153t281 56.5q162 0 284.5 -58.5t204.5 -156.5t123.5 -218t41.5 -244q0 -99 -20 -181.5t-63 -156t-110.5 -146.5t-162.5 -152h309v-191h-543v173q49 35 108 89.5
t112.5 130.5t87.5 177t34 229q0 112 -26.5 207t-78 165.5t-127 110t-174.5 39.5q-98 0 -174 -39t-129 -109.5t-81 -166.5t-28 -211q0 -136 39.5 -246t115.5 -202.5t188 -173.5v-173h-544z" />
    <glyph glyph-name="uni2153" unicode="&#x2153;" horiz-adv-x="1781" 
d="M216 536v708h-171v89q118 -1 164.5 26.5t50.5 86.5h100v-910h-144zM352 -8l-138 2l976 1468h134zM1358 -14q-150 1 -238.5 78.5t-90.5 204.5h138q12 -82 65 -123.5t129 -41.5q95 0 150.5 42t55.5 108q0 70 -56.5 112.5t-153.5 43.5l-84 2v117l79 2q55 2 98 21.5
t68.5 51.5t25.5 72q0 54 -48.5 91.5t-133.5 37.5q-47 0 -89 -17.5t-69 -55t-28 -97.5h-137q0 89 42.5 152.5t116 97.5t165.5 34q97 0 171 -27t116.5 -80t42.5 -131q0 -67 -40.5 -119.5t-124.5 -83.5q82 -23 135.5 -79t53.5 -147q0 -85 -47.5 -145t-128.5 -91t-183 -30z" />
    <glyph glyph-name="uni2154" unicode="&#x2154;" horiz-adv-x="2090" 
d="M63 537v79v39q0 82 34.5 138t89 96.5t115.5 72.5t115.5 63.5t89 72t34.5 96.5q0 65 -45 104.5t-122 39.5q-79 0 -132 -45t-61 -132h-136q0 82 38 149.5t112 108t184 40.5q142 0 225 -72.5t83 -191.5q0 -81 -34 -136.5t-87 -94t-113 -69t-113.5 -60.5t-87 -68.5
t-33.5 -94.5v-12h472v-123h-628zM661 -8l-138 2l976 1468h134zM1667 -14q-150 1 -238.5 78.5t-90.5 204.5h138q12 -82 65 -123.5t129 -41.5q95 0 150.5 42t55.5 108q0 70 -56.5 112.5t-153.5 43.5l-84 2v117l79 2q55 2 98 21.5t68.5 51.5t25.5 72q0 54 -48.5 91.5
t-133.5 37.5q-47 0 -89 -17.5t-69 -55t-28 -97.5h-137q0 89 42.5 152.5t116 97.5t165.5 34q97 0 171 -27t116.5 -80t42.5 -131q0 -67 -40.5 -119.5t-124.5 -83.5q82 -23 135.5 -79t53.5 -147q0 -85 -47.5 -145t-128.5 -91t-183 -30z" />
    <glyph glyph-name="oneeighth" unicode="&#x215b;" horiz-adv-x="1802" 
d="M216 536v708h-171v89q118 -1 164.5 26.5t50.5 86.5h100v-910h-144zM352 -8l-138 2l976 1468h134zM1383 -11q-159 0 -256.5 71t-97.5 192q0 51 25.5 98.5t65.5 81.5t83 45q-62 28 -98 76.5t-36 117.5q0 118 88.5 184.5t225.5 66.5q138 0 226.5 -66.5t88.5 -184.5
q0 -69 -36 -117.5t-98 -76.5q45 -11 84.5 -45t64.5 -81.5t25 -98.5q0 -121 -97.5 -192t-257.5 -71zM1383 100q94 0 149 42t55 111q0 72 -55.5 116t-148.5 44q-92 0 -147.5 -44t-55.5 -116q0 -69 54.5 -111t148.5 -42zM1383 534q80 0 126 37t46 103q0 67 -47.5 107t-124.5 40
q-76 0 -123.5 -40t-47.5 -107q0 -66 46.5 -103t124.5 -37z" />
    <glyph glyph-name="threeeighths" unicode="&#x215c;" horiz-adv-x="2056" 
d="M393 526q-150 1 -238.5 78.5t-90.5 204.5h138q12 -82 65 -123.5t129 -41.5q95 0 150.5 42t55.5 108q0 70 -56.5 112.5t-153.5 43.5l-84 2v117l79 2q55 2 98 21.5t68.5 51.5t25.5 72q0 54 -48.5 91.5t-133.5 37.5q-47 0 -89 -18t-69 -55t-28 -97h-137q0 89 42.5 152.5
t116 97.5t165.5 34q97 0 171 -27t116.5 -80t42.5 -131q0 -67 -40.5 -119.5t-124.5 -83.5q82 -23 135.5 -79t53.5 -147q0 -85 -47.5 -145t-128.5 -91t-183 -30zM606 -8l-138 2l976 1468h134zM1638 -11q-159 0 -256.5 71t-97.5 192q0 51 25.5 98.5t65.5 81.5t83 45
q-62 28 -98 76.5t-36 117.5q0 118 88.5 184.5t225.5 66.5q138 0 226.5 -66.5t88.5 -184.5q0 -69 -36 -117.5t-98 -76.5q45 -11 84.5 -45t64.5 -81.5t25 -98.5q0 -121 -97.5 -192t-257.5 -71zM1638 100q94 0 149 42t55 111q0 72 -55.5 116t-148.5 44q-92 0 -147.5 -44
t-55.5 -116q0 -69 54.5 -111t148.5 -42zM1638 534q80 0 126 37t46 103q0 67 -47.5 107t-124.5 40q-76 0 -123.5 -40t-47.5 -107q0 -66 46.5 -103t124.5 -37z" />
    <glyph glyph-name="fiveeighths" unicode="&#x215d;" horiz-adv-x="2049" 
d="M417 523q-129 0 -227.5 64.5t-135.5 166.5l117 54q35 -75 93 -121.5t142 -46.5q93 0 147.5 52t54.5 138q0 83 -56 133t-137 50q-53 0 -95.5 -14.5t-91.5 -67.5q-6 -1 -8 -0.5t-8 3.5l-110 39l42 473h556l-4 -119h-436l-21 -260q45 31 94 47.5t112 16.5q84 0 154.5 -34
t113 -100t42.5 -162q0 -143 -92 -227.5t-246 -84.5zM599 -8l-138 2l976 1468h134zM1631 -11q-159 0 -256.5 71t-97.5 192q0 51 25.5 98.5t65.5 81.5t83 45q-62 28 -98 76.5t-36 117.5q0 118 88.5 184.5t225.5 66.5q138 0 226.5 -66.5t88.5 -184.5q0 -69 -36 -117.5
t-98 -76.5q45 -11 84.5 -45t64.5 -81.5t25 -98.5q0 -121 -97.5 -192t-257.5 -71zM1631 100q94 0 149 42t55 111q0 72 -55.5 116t-148.5 44q-92 0 -147.5 -44t-55.5 -116q0 -69 54.5 -111t148.5 -42zM1631 534q80 0 126 37t46 103q0 67 -47.5 107t-124.5 40q-76 0 -123.5 -40
t-47.5 -107q0 -66 46.5 -103t124.5 -37z" />
    <glyph glyph-name="seveneighths" unicode="&#x215e;" horiz-adv-x="1875" 
d="M208 537q11 80 50 209.5t110 281.5t176 300h-499v119h651v-118q-58 -78 -115.5 -184t-105.5 -218.5t-79 -215t-37 -174.5h-151zM425 -8l-138 2l976 1468h134zM1456 -11q-159 0 -256.5 71t-97.5 192q0 51 25.5 98.5t65.5 81.5t83 45q-62 28 -98 76.5t-36 117.5
q0 118 88.5 184.5t225.5 66.5q138 0 226.5 -66.5t88.5 -184.5q0 -69 -36 -117.5t-98 -76.5q45 -11 84.5 -45t64.5 -81.5t25 -98.5q0 -121 -97.5 -192t-257.5 -71zM1456 100q94 0 149 42t55 111q0 72 -55.5 116t-148.5 44q-92 0 -147.5 -44t-55.5 -116q0 -69 54.5 -111
t148.5 -42zM1456 534q80 0 126 37t46 103q0 67 -47.5 107t-124.5 40q-76 0 -123.5 -40t-47.5 -107q0 -66 46.5 -103t124.5 -37z" />
    <glyph glyph-name="partialdiff" unicode="&#x2202;" horiz-adv-x="1189" 
d="M567 -20q-145 0 -251.5 62t-164.5 167.5t-58 237.5q0 131 56.5 232.5t162.5 158.5t255 57q70 0 119.5 -12.5t89 -34t81.5 -49.5q18 -12 23.5 -7t5.5 15q0 107 -24.5 197t-73 155.5t-123 101.5t-175.5 36q-98 0 -162 -29.5t-116 -64.5l-64 130q32 33 91 63.5t135.5 50
t162.5 19.5q167 0 292 -81.5t194 -246.5t69 -415q0 -231 -60 -397.5t-176.5 -256t-288.5 -89.5zM555 144h2q83 0 149.5 50t109.5 140t55 210q3 30 1 43.5t-13 26.5q-25 33 -68.5 62t-97 46t-109.5 17q-82 0 -145.5 -39.5t-99 -108t-35.5 -154.5t33.5 -152t90.5 -103.5
t127 -37.5z" />
    <glyph glyph-name="emptyset" unicode="&#x2205;" horiz-adv-x="1168" 
d="M181 269l-82 84l879 809l78 -84zM581 299q-118 0 -215 58t-154.5 155.5t-57.5 215.5q0 117 58 214t154.5 155t214.5 58t215.5 -58t155.5 -155t58 -214q0 -118 -58 -215.5t-155.5 -155.5t-215.5 -58zM581 410q88 0 160 43t115 115t43 160q0 86 -43 158t-115 115t-160 43
q-87 0 -159 -43t-114.5 -115t-42.5 -158q0 -88 42.5 -160t114.5 -115t159 -43z" />
    <glyph glyph-name="uni2206" unicode="&#x2206;" horiz-adv-x="1444" 
d="M36 0l693 1446l679 -1446h-1372zM350 186h749l-370 832z" />
    <glyph glyph-name="product" unicode="&#x220f;" horiz-adv-x="1335" 
d="M227 0v1264h-193v182h1258v-182h-195v-1264h-223v1264h-422v-1264h-225z" />
    <glyph glyph-name="summation" unicode="&#x2211;" horiz-adv-x="1081" 
d="M54 0v137l426 583l-400 575v151h908v-178h-614l374 -527l-409 -555h685v-186h-970z" />
    <glyph glyph-name="minus" unicode="&#x2212;" horiz-adv-x="1128" 
d="M121 645v163l886 1v-163z" />
    <glyph glyph-name="uni2215" unicode="&#x2215;" horiz-adv-x="1198" 
d="M232 -8l-138 2l876 1468h134z" />
    <glyph glyph-name="uni2219" unicode="&#x2219;" horiz-adv-x="656" 
d="M321 602q-54 0 -92.5 39t-38.5 93q0 55 38.5 93.5t92.5 38.5q55 0 93.5 -38.5t38.5 -93.5q0 -54 -38.5 -93t-93.5 -39z" />
    <glyph glyph-name="radical" unicode="&#x221a;" horiz-adv-x="1294" 
d="M554 -322l-323 878l-153 -59l-48 131l327 120l303 -856l450 1759h185l-518 -1973h-223z" />
    <glyph glyph-name="infinity" unicode="&#x221e;" horiz-adv-x="1498" 
d="M410 204q-84 0 -156 41t-115 115.5t-43 175.5q0 100 43.5 175t119.5 116.5t174 41.5q73 0 124 -22t92.5 -60t84.5 -86q16 -15 24 -15t22 15q33 37 74.5 76t97.5 65.5t132 26.5q89 0 159 -39t110.5 -111t40.5 -171v-3q0 -108 -45 -184.5t-119.5 -116.5t-162.5 -40
q-72 0 -124.5 24.5t-95 66.5t-85.5 91q-10 13 -16 14.5t-18 -13.5q-13 -14 -38.5 -43.5t-65 -62t-92.5 -55t-122 -22.5zM422 352h5q45 0 86 22.5t74.5 55t54.5 62.5q19 26 18 38.5t-21 42.5q-47 72 -99.5 113t-119.5 41q-77 0 -125.5 -51.5t-48.5 -133.5q0 -84 51.5 -137
t124.5 -53zM1082 352q52 0 88 28t54 71.5t18 88.5q0 74 -44.5 130.5t-121.5 56.5h-2q-70 0 -123.5 -48t-97.5 -99q-19 -23 -15.5 -42.5t15.5 -33.5q48 -67 91.5 -99.5t79 -42.5t58.5 -10z" />
    <glyph glyph-name="integral" unicode="&#x222b;" horiz-adv-x="896" 
d="M243 -343q-53 0 -91.5 5.5t-70 17.5t-62.5 31l50 185q40 -22 75.5 -33.5t82.5 -11.5q63 0 106.5 48.5t43.5 167.5q0 145 -11 297t-26 303.5t-26 296t-11 273.5q0 144 40.5 240.5t116 145t182.5 48.5q54 0 93 -6t71 -18t62 -31l-48 -184q-41 21 -77 33t-84 12
q-66 0 -109.5 -49t-43.5 -164q0 -146 11 -298t24.5 -303t24.5 -294t11 -271q0 -147 -40 -245t-115 -147t-179 -49z" />
    <glyph glyph-name="approxequal" unicode="&#x2248;" horiz-adv-x="1163" 
d="M183 752l-62 117q61 61 126 104.5t157 43.5q58 0 105 -17t89 -38t84.5 -38t91.5 -17q74 0 122.5 36.5t81.5 83.5l63 -118q-39 -65 -107.5 -105t-157.5 -40q-57 0 -103.5 16.5t-88 38t-84.5 38t-95 16.5q-76 0 -128 -37.5t-94 -83.5zM184 348l-63 118q61 61 126 104
t157 43q58 0 105 -16.5t89 -38t84.5 -38.5t91.5 -17q74 0 122.5 37t81.5 83l63 -117q-39 -64 -107.5 -104.5t-157.5 -40.5q-59 0 -106 16.5t-88.5 38t-83.5 38t-93 16.5q-76 0 -128.5 -38t-92.5 -84z" />
    <glyph glyph-name="notequal" unicode="&#x2260;" horiz-adv-x="1128" 
d="M221 104l519 1167h115l-514 -1167h-120zM121 838v162l886 1v-162zM121 390v163l886 1v-163z" />
    <glyph glyph-name="lessequal" unicode="&#x2264;" horiz-adv-x="1128" 
d="M995 441l-864 339v188l865 341v-195l-617 -241l616 -239v-193zM121 99v162l886 -1v-162z" />
    <glyph glyph-name="greaterequal" unicode="&#x2265;" horiz-adv-x="1128" 
d="M132 441v193l618 239l-619 241v195l866 -341v-188zM121 98v162l886 1v-162z" />
    <glyph glyph-name="lozenge" unicode="&#x25ca;" horiz-adv-x="1014" 
d="M433 0l-332 723l342 723h159l333 -719l-343 -727h-159zM519 162l239 561l-239 559l-239 -552z" />
    <glyph glyph-name="i.loclTRK" horiz-adv-x="496" 
d="M145 0v1034h206v-1034h-206zM144 1251v195h212v-195h-212z" />
    <glyph glyph-name="g.ss01" horiz-adv-x="1195" 
d="M577 -337q-94 0 -171 27t-133 72t-89 99.5t-42 109.5h202q18 -68 83.5 -107t147.5 -40q104 -1 168.5 36t95 95t30.5 122l2 110q-45 -85 -130.5 -119t-194.5 -34q-94 0 -175 36.5t-141.5 102.5t-95.5 156t-37 197q-2 100 25.5 193.5t84 169t140 119.5t192.5 44
q80 0 143.5 -28t107.5 -67.5t62 -73.5l2 149h206l5 -912q1 -144 -61.5 -246.5t-173 -156.5t-253.5 -54zM603 194q99 0 154.5 36.5t77.5 94.5t22 123l-3 194q-1 59 -35.5 117.5t-93 97t-130.5 38.5q-91 0 -153.5 -49t-95 -132.5t-32.5 -187.5q0 -95 36 -170t101 -118.5
t152 -43.5z" />
    <glyph glyph-name="l.ss01" horiz-adv-x="573" 
d="M179 0v1486h215v-1486h-215z" />
    <glyph glyph-name="zero.osf" horiz-adv-x="1242" 
d="M621 -22q-245 0 -386 187.5t-141 552.5q0 245 65 411.5t183.5 251.5t279.5 85q241 0 383.5 -189.5t142.5 -556.5q0 -365 -141.5 -553.5t-385.5 -188.5zM622 160q148 0 222 130.5t74 428.5q0 304 -75 437.5t-222 133.5q-146 0 -223 -134.5t-77 -436.5q0 -297 76.5 -428
t224.5 -131z" />
    <glyph glyph-name="one.osf" horiz-adv-x="825" 
d="M365 0v1132h-274v133q128 0 201.5 20.5t106 61t36.5 99.5h149v-1446h-219z" />
    <glyph glyph-name="two.osf" horiz-adv-x="1213" 
d="M121 0v121v64q0 110 41.5 191t109.5 141.5t149.5 107.5t162.5 90t149 89.5t109.5 105t41.5 137.5q0 104 -73 169t-198 65q-133 0 -216 -75t-96 -207h-210q3 129 63 235t177 169t290 63q150 0 259.5 -52.5t169.5 -146.5t60 -219q0 -111 -41 -191t-107.5 -138
t-146.5 -102.5t-160 -85t-147 -85t-108 -100.5t-41 -135v-25h756v-186h-994z" />
    <glyph glyph-name="three.osf" horiz-adv-x="1279" 
d="M616 -16q-156 1 -272 55.5t-181 154.5t-69 236h211q21 -131 106.5 -198.5t210.5 -67.5q102 0 176.5 31.5t115.5 87t41 129.5q0 80 -44.5 136t-122 85.5t-173.5 31.5l-133 3v178l124 4q91 2 161.5 34.5t110.5 85.5t40 117q0 58 -35.5 106t-102 76.5t-159.5 28.5
q-75 0 -142.5 -28t-111 -88.5t-47.5 -157.5h-210q0 145 69.5 244.5t186 151.5t258.5 52q153 0 271 -43t185.5 -127t67.5 -207q0 -107 -66.5 -192.5t-206.5 -133.5q91 -25 161 -73.5t109.5 -120.5t39.5 -167q0 -101 -43 -180t-120 -134t-181 -83t-225 -27z" />
    <glyph glyph-name="four.osf" horiz-adv-x="1272" 
d="M768 0v356h-677v188l670 902h215v-905h235v-185h-235v-356h-208zM293 541h472v633z" />
    <glyph glyph-name="five.osf" horiz-adv-x="1300" 
d="M669 -22q-136 0 -252 46.5t-199.5 128t-123.5 188.5l179 85q36 -78 89 -139.5t125 -96t165 -34.5q147 0 237 83.5t90 226.5q0 89 -42 156t-113 104.5t-159 37.5q-55 0 -103 -9.5t-95.5 -37t-100.5 -81.5q-8 -4 -11.5 -4t-13.5 5l-171 62l66 747h881l-7 -181h-697
l-34 -435q74 60 156 86.5t178 26.5q135 0 246.5 -54t178.5 -158.5t67 -257.5q0 -151 -66 -262t-186.5 -172t-283.5 -61z" />
    <glyph glyph-name="six.osf" horiz-adv-x="1266" 
d="M656 -22q-172 0 -298.5 87.5t-195 249t-68.5 384.5q0 234 67 406.5t196 266.5t314 94q124 0 229.5 -46t174 -132.5t81.5 -209.5h-199q-28 100 -100.5 156.5t-181.5 56.5q-121 0 -202.5 -68.5t-118 -199.5t-23.5 -316q28 66 82.5 115.5t125.5 76.5t152 27q144 0 252 -55
t168.5 -157t60.5 -242q0 -144 -63.5 -255.5t-179.5 -175t-273 -63.5zM652 150q84 0 149.5 39.5t103.5 110t38 162.5q0 93 -35 159t-100.5 101t-156.5 35q-75 0 -143 -34.5t-111 -90.5t-43 -122q-2 -107 35.5 -188t105 -126.5t157.5 -45.5z" />
    <glyph glyph-name="seven.osf" horiz-adv-x="1215" 
d="M352 0q14 96 53 239t105.5 313.5t161.5 353.5t221 359h-802v181h1033v-181q-75 -101 -149 -230t-140.5 -270.5t-120 -282t-87.5 -265t-42 -217.5h-233z" />
    <glyph glyph-name="eight.osf" horiz-adv-x="1308" 
d="M653 -22q-168 0 -294 51.5t-195.5 145t-69.5 219.5q0 84 42 160.5t108 129.5t137 67q-96 42 -160 121.5t-64 195.5q0 128 65.5 216.5t178 135t252.5 46.5q142 0 254 -46.5t177 -135t65 -216.5q0 -116 -62.5 -195.5t-160.5 -121.5q72 -14 137.5 -67t108 -129.5
t42.5 -160.5q0 -126 -69.5 -219.5t-195.5 -145t-296 -51.5zM653 147q152 0 241.5 68.5t89.5 181.5q0 75 -40.5 133.5t-114.5 92t-176 33.5q-100 0 -174 -33.5t-114.5 -92t-40.5 -133.5q0 -113 89.5 -181.5t239.5 -68.5zM653 839q124 0 201.5 62t77.5 172q0 111 -78 175
t-201 64q-122 0 -200 -64.5t-78 -174.5t78 -172t200 -62z" />
    <glyph glyph-name="nine.osf" horiz-adv-x="1268" 
d="M591 -22q-124 0 -231 47.5t-177.5 134t-84.5 206.5h206q23 -95 97.5 -154t182.5 -59q121 0 209 62t131.5 193t32.5 338q-26 -70 -79 -122.5t-126 -82.5t-162 -30q-144 0 -254 56t-172 159.5t-62 247.5t62.5 255t177 174t271.5 63q172 0 298 -87t194 -248t68 -384
q0 -248 -68 -419.5t-198.5 -260.5t-315.5 -89zM618 689q75 0 143 34t111.5 90.5t43.5 121.5q1 108 -36.5 189t-105 126.5t-158.5 45.5q-82 0 -146 -39.5t-100.5 -110t-36.5 -162.5q0 -137 74 -216t211 -79z" />
    <glyph glyph-name="zero.tf" horiz-adv-x="1400" 
d="M700 -22q-245 0 -386 187.5t-141 552.5q0 245 65 411.5t183.5 251.5t279.5 85q241 0 383.5 -189.5t142.5 -556.5q0 -365 -141.5 -553.5t-385.5 -188.5zM701 160q148 0 222 130.5t74 428.5q0 304 -75 437.5t-222 133.5q-146 0 -223 -134.5t-77 -436.5q0 -297 76.5 -428
t224.5 -131z" />
    <glyph glyph-name="one.tf" horiz-adv-x="1400" 
d="M627 1v1214l-407 -144v194l512 182h107v-1446h-212zM198 0v186h1047v-186h-1047z" />
    <glyph glyph-name="two.tf" horiz-adv-x="1400" 
d="M230 0v121v64q0 110 41.5 191t109.5 141.5t149.5 107.5t162.5 90t149 89.5t109.5 105t41.5 137.5q0 104 -73 169t-198 65q-133 0 -216 -75t-96 -207h-210q3 129 63 235t177 169t290 63q150 0 259.5 -52.5t169.5 -146.5t60 -219q0 -111 -41 -191t-107.5 -138
t-146.5 -102.5t-160 -85t-147 -85t-108 -100.5t-41 -135v-25h756v-186h-994z" />
    <glyph glyph-name="three.tf" horiz-adv-x="1400" 
d="M686 -22q-156 1 -272 55.5t-181 154.5t-69 236h211q21 -131 106.5 -198.5t210.5 -67.5q102 0 176.5 31.5t115.5 87t41 129.5q0 80 -44.5 136t-122 85.5t-173.5 31.5l-133 3v178l124 4q91 2 161.5 34.5t110.5 85.5t40 117q0 58 -35.5 106t-102 76.5t-159.5 28.5
q-75 0 -142.5 -28t-111 -88.5t-47.5 -157.5h-210q0 145 69.5 244.5t186 151.5t258.5 52q153 0 271 -43t185.5 -127t67.5 -207q0 -107 -66.5 -192.5t-206.5 -133.5q91 -25 161 -73.5t109.5 -120.5t39.5 -167q0 -101 -43 -180t-120 -134t-181 -83t-225 -27z" />
    <glyph glyph-name="four.tf" horiz-adv-x="1400" 
d="M815 0v356h-677v188l670 902h215v-905h235v-185h-235v-356h-208zM340 541h472v633z" />
    </font>
</defs>
</svg>
