<?xml version="1.0" standalone="no"?>
<!DOCTYPE svg PUBLIC "-//W3C//DTD SVG 1.1//EN" "http://www.w3.org/Graphics/SVG/1.1/DTD/svg11.dtd" >
<svg xmlns="http://www.w3.org/2000/svg" xmlns:xlink="http://www.w3.org/1999/xlink" version="1.1">
<metadata>
Created by FontForge 20201107 at Sat Apr 30 02:32:12 2022
 By 
Copyright 2015 The Public Sans Project Authors (https://github.com/uswds/public-sans)
</metadata>
<defs>
<font id="PublicSans-ExtraBoldItalic" horiz-adv-x="0" >
  <font-face 
    font-family="Public Sans ExtraBold"
    font-weight="800"
    font-style="italic"
    font-stretch="normal"
    units-per-em="2000"
    panose-1="0 0 0 0 0 0 0 0 0 0"
    ascent="1600"
    descent="-400"
    x-height="1034"
    cap-height="1446"
    bbox="-416 -480 2427 2215"
    underline-thickness="140"
    underline-position="-440"
    slope="-8"
    unicode-range="U+000D-FB02"
  />
<missing-glyph horiz-adv-x="1554" 
d="M340 1652h918q36 0 36 -42v-1876q0 -56 -66 -56h-872q-31 0 -42.5 12t-11.5 36v1880q0 46 38 46zM1192 -114v1634q0 34 -31 34h-685zM404 1433v-1617q0 -19 9.5 -29.5t34.5 -10.5h671z" />
    <glyph glyph-name="fi" unicode="fi" horiz-adv-x="1339" 
d="M135 0l120 801h-175l36 233h174l22 143q19 127 107 198t224 71h254l-33 -223h-124q-52 0 -75 -24.5t-33 -84.5l-11 -80h206l-36 -233h-198l-121 -801h-337zM828 0l146 1034h323l-145 -1034h-324zM989 1151l42 295h325l-41 -295h-326z" />
    <glyph glyph-name="fl" unicode="fl" horiz-adv-x="1462" 
d="M135 0l120 801h-175l36 233h174l22 143q19 127 107 198t224 71h254l-33 -223h-124q-52 0 -75 -24.5t-33 -84.5l-11 -80h206l-36 -233h-198l-121 -801h-337zM1180 -20q-127 0 -196 29t-95.5 75.5t-27 103.5t7.5 113l178 1185h332l-171 -1141q-8 -47 8.5 -81.5t87.5 -43.5
l43 -3l-32 -209q-33 -11 -68.5 -19.5t-66.5 -8.5z" />
    <glyph glyph-name=".notdef" horiz-adv-x="1554" 
d="M340 1652h918q36 0 36 -42v-1876q0 -56 -66 -56h-872q-31 0 -42.5 12t-11.5 36v1880q0 46 38 46zM1192 -114v1634q0 34 -31 34h-685zM404 1433v-1617q0 -19 9.5 -29.5t34.5 -10.5h671z" />
    <glyph glyph-name="uni0000" horiz-adv-x="52" 
 />
    <glyph glyph-name="uni0000" horiz-adv-x="52" 
 />
    <glyph glyph-name="nonmarkingreturn" horiz-adv-x="666" 
 />
    <glyph glyph-name="CR" unicode="&#xd;" horiz-adv-x="480" 
 />
    <glyph glyph-name="space" unicode=" " horiz-adv-x="436" 
 />
    <glyph glyph-name="exclam" unicode="!" horiz-adv-x="589" 
d="M167 482l50 964h392l-232 -964h-210zM15 0l54 348h360l-53 -348h-361z" />
    <glyph glyph-name="quotedbl" unicode="&#x22;" horiz-adv-x="1005" 
d="M699 844l8 602h329l-173 -602h-164zM224 844l8 602h329l-173 -602h-164z" />
    <glyph glyph-name="numbersign" unicode="#" horiz-adv-x="1210" 
d="M825 -5l-172 22l212 1433l170 -17zM61 441v170h1067v-170h-1067zM393 -5l-170 22l212 1433l169 -17zM125 851v170h1067v-170h-1067z" />
    <glyph glyph-name="dollar" unicode="$" horiz-adv-x="1362" 
d="M630 -20q-269 0 -418.5 107t-135.5 336l351 3q7 -87 70.5 -134t171.5 -47q65 0 114.5 21t79 56t35.5 79q12 73 -31 104.5t-137 50.5l-220 44q-160 31 -243.5 133.5t-59.5 278.5q19 141 111 242.5t232 155.5t301 54q167 0 281 -59t165 -160t27 -226l-342 -2q2 54 -10.5 95
t-48.5 63.5t-107 22.5q-76 0 -128 -20t-80.5 -53t-34.5 -72q-8 -56 23.5 -88.5t131.5 -58.5l217 -51q193 -45 265 -163t47 -291q-20 -129 -103 -223.5t-217 -146t-307 -51.5zM459 -182l39 259h286l-39 -259h-286zM696 1389l40 259h286l-39 -259h-287z" />
    <glyph glyph-name="percent" unicode="%" horiz-adv-x="1773" 
d="M401 -8l-188 3l1179 1467h186zM453 650q-89 0 -156 45.5t-103.5 122t-36.5 170.5q0 58 24.5 139t74.5 159t128 130t183 52q87 0 152.5 -46.5t102 -125t36.5 -174.5q0 -76 -28 -158.5t-81 -154t-128 -115.5t-168 -44zM474 819q50 0 81 38.5t48 95t23.5 113t6.5 93.5
q0 68 -21 104.5t-70 36.5q-48 0 -79 -39t-49 -96.5t-25 -115t-7 -93.5q0 -65 21.5 -101t70.5 -36zM1249 -20q-88 0 -154.5 45.5t-103.5 122t-37 170.5q0 77 29.5 161t83.5 156.5t129 118.5t167 46q88 0 153.5 -47t102.5 -125t37 -173q0 -77 -28 -159.5t-81.5 -154.5
t-128.5 -116.5t-169 -44.5zM1270 151q50 0 81 38t48 94.5t23.5 112.5t6.5 93q0 68 -21 105t-70 37q-47 0 -77.5 -39.5t-48.5 -97.5t-25 -115t-7 -92q0 -65 21 -100.5t69 -35.5z" />
    <glyph glyph-name="ampersand" unicode="&#x26;" horiz-adv-x="1609" 
d="M491 -10q-164 0 -261.5 48t-134.5 132t-20 192q15 101 67.5 177.5t144.5 141.5t224 130q-41 56 -72 102t-45.5 95t-4.5 113q15 99 83 177.5t175 124t240 45.5q128 0 225.5 -40.5t147 -111.5t35.5 -165q-11 -70 -58.5 -135.5t-125 -127t-178.5 -120.5l146 -218l39.5 79
t47.5 102t40 110h349q-42 -83 -103.5 -166t-126.5 -164t-117 -155l247 -356h-385l-93 133q-131 -82 -257 -112.5t-229 -30.5zM616 246q45 0 111 21t118 64l-201 289q-72 -39 -130.5 -98.5t-55.5 -136.5q2 -70 53 -104.5t105 -34.5zM820 934q63 38 101 71.5t56 65t23 64.5
q7 45 -9 75t-47.5 44.5t-72.5 12.5q-59 -2 -99 -36.5t-47 -85.5q-4 -25 2 -52.5t21 -55.5t37 -57z" />
    <glyph glyph-name="quotesingle" unicode="'" horiz-adv-x="531" 
d="M224 844l8 602h329l-173 -602h-164z" />
    <glyph glyph-name="parenleft" unicode="(" horiz-adv-x="696" 
d="M265 -304q-62 141 -104 277t-55.5 282.5t12.5 318.5q38 250 148.5 476.5t264.5 413.5h240q-131 -196 -226.5 -424.5t-131.5 -467.5q-33 -228 -8.5 -438.5t98.5 -437.5h-238z" />
    <glyph glyph-name="parenright" unicode=")" horiz-adv-x="699" 
d="M-99 -305q132 197 227 425t131 467q34 229 9 439t-98 437h238q62 -141 104 -277t55 -282.5t-13 -318.5q-38 -249 -148 -475.5t-265 -414.5h-240z" />
    <glyph glyph-name="asterisk" unicode="*" horiz-adv-x="1018" 
d="M405 597l-177 124l214 253l-307 84l70 194l290 -129l-24 323h215l-30 -325l295 132l63 -196l-299 -83l210 -249l-179 -124l-170 283z" />
    <glyph glyph-name="plus" unicode="+" horiz-adv-x="1195" 
d="M434 238l147 981h241l-146 -981h-242zM125 605l37 245h967l-37 -244z" />
    <glyph glyph-name="comma" unicode="," horiz-adv-x="587" 
d="M-17 -293l158 283l-106 12l47 310h321l-42 -274l-261 -331h-117z" />
    <glyph glyph-name="hyphen" unicode="-" horiz-adv-x="791" 
d="M101 392l35 243l554 1l-36 -244h-553z" />
    <glyph glyph-name="period" unicode="." horiz-adv-x="579" 
d="M22 0l54 355h360l-54 -355h-360z" />
    <glyph glyph-name="slash" unicode="/" horiz-adv-x="793" 
d="M-54 -18l718 1464h230l-718 -1464h-230z" />
    <glyph glyph-name="zero" unicode="0" horiz-adv-x="1308" 
d="M580 -22q-271 0 -394 193.5t-73 547.5q33 238 125.5 405t233 254.5t318.5 87.5q266 0 390 -194.5t73 -551.5q-49 -355 -226 -548.5t-447 -193.5zM618 252q116 0 180.5 106t100.5 360q37 262 2 373t-150 111t-182.5 -112t-104.5 -372q-35 -252 1.5 -359t152.5 -107z" />
    <glyph glyph-name="one" unicode="1" horiz-adv-x="871" 
d="M244 0l159 1053h-244l27 184q120 0 202 26t129.5 73t65.5 110h219l-218 -1446h-340z" />
    <glyph glyph-name="two" unicode="2" horiz-adv-x="1294" 
d="M34 0l22 158l12 81q18 128 84 216t159 150t195.5 108.5t192.5 89t151 92.5t71 120q11 75 -34 124t-135 49q-62 0 -117.5 -24.5t-99.5 -76t-69 -133.5h-321q20 144 100.5 260t219 184t333.5 68q169 0 283 -56.5t165 -157.5t32 -234q-18 -127 -82 -213t-154.5 -143
t-188.5 -98t-185.5 -78.5t-146 -83t-68.5 -112.5l-1 -7h717l-40 -283h-1095z" />
    <glyph glyph-name="three" unicode="3" horiz-adv-x="1351" 
d="M574 -22q-184 0 -301.5 58t-167 166t-29.5 260h323q5 -119 65.5 -166t148.5 -47q81 0 140.5 23t96 63t43.5 93q7 50 -17 88.5t-73.5 60.5t-119.5 25l-139 7l37 266l126 8q69 4 121.5 26t84 59t38.5 88q7 48 -19 82t-75 51.5t-112 17.5q-64 0 -118 -20t-93 -67t-58 -129
h-321q23 162 113 267.5t226.5 156.5t296.5 51q165 0 290 -41t188.5 -128.5t43.5 -225.5q-15 -106 -85 -186t-214 -127q70 -20 129 -63t91 -112t18 -168q-15 -110 -76 -192t-154 -136.5t-208.5 -81.5t-239.5 -27z" />
    <glyph glyph-name="four" unicode="4" horiz-adv-x="1321" 
d="M653 0l46 298h-647l41 272l771 876h328l-128 -867h210l-42 -281h-212l-45 -298h-322zM404 579h340l68 466z" />
    <glyph glyph-name="five" unicode="5" horiz-adv-x="1368" 
d="M634 -22q-145 0 -262.5 42.5t-199.5 116t-118 167.5l281 165q33 -61 71 -111.5t93 -80t136 -29.5q116 0 195.5 60.5t91.5 151.5q9 57 -15 105.5t-76 77.5t-130 29q-37 0 -71 -6.5t-71.5 -22.5t-87.5 -45q-19 -7 -25.5 -6.5t-23.5 8.5l-219 120l167 726h950l-53 -276h-672
l-65 -294q87 34 155 51t148 17q150 0 257.5 -55.5t158.5 -161t29 -255.5q-20 -154 -106 -264.5t-223.5 -170t-314.5 -59.5z" />
    <glyph glyph-name="six" unicode="6" horiz-adv-x="1343" 
d="M618 -22q-191 0 -315 89.5t-174.5 250.5t-20.5 375q34 240 134 413.5t252 266.5t343 93q142 0 254.5 -52t173 -149t44.5 -235h-308q-13 87 -61.5 129t-132.5 42q-91 0 -159.5 -53.5t-106 -144.5t-39.5 -203q42 36 93.5 60t109.5 36.5t117 12.5q147 0 250 -55t151 -153
t30 -229q-19 -140 -108 -252t-225.5 -177t-301.5 -65zM641 234q59 0 113.5 28.5t92 79t45.5 114.5q11 71 -14 116t-72 66.5t-105 21.5q-52 0 -104.5 -23.5t-89.5 -57t-42 -65.5q-13 -90 5.5 -152.5t62.5 -95t108 -32.5z" />
    <glyph glyph-name="seven" unicode="7" horiz-adv-x="1261" 
d="M258 0q16 83 63 212.5t127.5 288.5t197.5 330.5t272 338.5h-743l41 276h1093l-44 -276q-74 -76 -156 -185.5t-161.5 -237.5t-147.5 -260.5t-115 -258t-63 -228.5h-364z" />
    <glyph glyph-name="eight" unicode="8" horiz-adv-x="1351" 
d="M600 -21q-177 0 -303 52t-186.5 148t-42.5 227q12 82 62 155.5t118 123.5t133 64q-78 42 -126.5 119t-33.5 186q19 133 101 225t208.5 139.5t277.5 47.5q152 0 265 -47.5t169.5 -139.5t38.5 -225q-16 -109 -86 -186t-159 -119q61 -14 114.5 -64t83 -123.5t17.5 -155.5
q-17 -131 -105 -227t-228 -148t-318 -52zM636 232q109 0 177 50.5t79 134.5q9 56 -12.5 99t-70 67t-121.5 24q-72 0 -127.5 -24t-89 -67t-41.5 -99q-11 -84 43 -134.5t163 -50.5zM726 877q82 0 144.5 48.5t74.5 133.5t-37 134.5t-131 49.5t-144 -49.5t-74 -134.5
q-11 -85 37 -133.5t130 -48.5z" />
    <glyph glyph-name="nine" unicode="9" horiz-adv-x="1338" 
d="M555 -22q-141 0 -255 55t-175.5 154t-47.5 231h321q3 -77 50 -126t130 -49q92 0 168.5 41t126.5 133t59 245q-36 -43 -86 -74t-113.5 -48t-138.5 -17q-147 0 -253.5 56t-158 158t-31.5 240q20 141 106 251.5t221 174t300 63.5q191 0 315 -88t174.5 -247.5t19.5 -374.5
q-37 -266 -137 -438.5t-251.5 -256t-343.5 -83.5zM694 789q53 0 106 23.5t90.5 57t41.5 64.5q13 92 -5.5 154t-62.5 94t-109 32q-58 0 -109 -28t-85 -78t-44 -115q-14 -99 39 -151.5t138 -52.5z" />
    <glyph glyph-name="colon" unicode=":" horiz-adv-x="586" 
d="M122 668l52 349h362l-52 -349h-362zM23 6l52 348h362l-53 -348h-361z" />
    <glyph glyph-name="semicolon" unicode=";" horiz-adv-x="599" 
d="M-23 -319l184 319h-125l52 350h362l-46 -310l-293 -359h-134zM132 656l54 355h360l-52 -355h-362z" />
    <glyph glyph-name="less" unicode="&#x3c;" horiz-adv-x="1174" 
d="M1004 176l-887 369l41 277l998 370l-43 -285l-613 -226l546 -218z" />
    <glyph glyph-name="equal" unicode="=" horiz-adv-x="1201" 
d="M158 795l37 244h966l-37 -244h-966zM87 331l37 244l967 1l-37 -245h-967z" />
    <glyph glyph-name="greater" unicode="&#x3e;" horiz-adv-x="1176" 
d="M66 176l44 287l613 218l-548 226l43 285l888 -370l-41 -277z" />
    <glyph glyph-name="question" unicode="?" horiz-adv-x="1066" 
d="M360 488q17 109 59.5 187.5t97 137t108 105.5t91 92.5t46.5 99.5q9 60 -31 94.5t-104 34.5q-48 0 -96 -22t-89.5 -63.5t-71.5 -98.5l-275 65q90 169 234.5 257.5t334.5 88.5q145 0 246.5 -46.5t150 -123t34.5 -167.5q-14 -96 -61.5 -162t-110.5 -117.5t-126 -101
t-110 -111t-61 -149.5h-266zM239 0l53 348h361l-52 -348h-362z" />
    <glyph glyph-name="at" unicode="@" horiz-adv-x="1628" 
d="M710 -220q-177 0 -308 57t-213 157.5t-113.5 232.5t-8.5 283q24 158 99.5 298t195.5 248.5t276 170t340 61.5q132 0 250.5 -36t206.5 -112t129 -195t16 -284q-23 -149 -88.5 -262t-160 -177t-207.5 -64q-87 0 -125.5 30.5t-52.5 57.5q-6 12 -9.5 11t-14.5 -12
q-51 -50 -120 -82.5t-150 -32.5q-84 0 -145 42.5t-88 120.5t-10 183q17 117 80 220t160.5 166.5t218.5 63.5q81 0 121.5 -27t68.5 -64q5 -6 9.5 -4t8.5 12l11 33h186l-133 -424q-21 -64 -8.5 -87t43.5 -23q39 0 82 32.5t78.5 100.5t51.5 174q20 131 -9 220t-92.5 142
t-150.5 76t-185 23q-158 0 -278 -47.5t-204 -130t-134 -190.5t-68 -228q-20 -137 5 -243t91 -178.5t169 -110t237 -37.5q89 0 152 15.5t115.5 42.5t105.5 59l75 -130q-77 -60 -209.5 -106t-296.5 -46zM744 327q51 0 97 32t78.5 82.5t43.5 105.5q10 50 0.5 91.5t-36.5 66.5
t-71 25q-49 0 -94.5 -31t-78.5 -83t-44 -116q-9 -69 15 -121t90 -52z" />
    <glyph glyph-name="A" unicode="A" horiz-adv-x="1447" 
d="M-30 0l724 1446h348l289 -1446h-334l-58 308h-478l-153 -308h-338zM578 601h326l-84 518z" />
    <glyph glyph-name="B" unicode="B" horiz-adv-x="1367" 
d="M75 0l217 1446h543q289 0 409.5 -98.5t94.5 -282.5q-17 -104 -80 -182t-207 -141q88 -25 136 -66t67.5 -89.5t21 -98.5t-5.5 -96q-30 -200 -177 -296t-447 -96h-572zM454 259h242q104 0 165.5 50t72.5 123q8 52 -12 89t-62.5 57.5t-100.5 20.5h-255zM543 865h256
q38 0 73 10.5t63 30t46.5 49t25.5 67.5q12 80 -39 122.5t-139 42.5h-237z" />
    <glyph glyph-name="C" unicode="C" horiz-adv-x="1449" 
d="M673 -20q-182 0 -308.5 79t-191 221t-59.5 333q3 165 54.5 318t149.5 273.5t242 191t334 70.5q163 0 280.5 -62.5t180.5 -178t62 -274.5h-352q-2 72 -27.5 125.5t-74.5 83.5t-123 30q-97 0 -164 -53t-109 -140.5t-62.5 -191.5t-23.5 -208q-7 -180 53 -260.5t170 -80.5
q74 0 132.5 36t100 96.5t63.5 131.5h354q-30 -107 -80.5 -204.5t-129.5 -173.5t-194 -119t-277 -43z" />
    <glyph glyph-name="D" unicode="D" horiz-adv-x="1453" 
d="M76 0l209 1446h69h127q147 0 283 -10t251.5 -40.5t202.5 -93.5t134.5 -169.5t47.5 -267.5q0 -77 -14 -170t-48.5 -190t-96 -187t-155.5 -161.5t-226.5 -114t-310.5 -42.5h-473zM457 271h126q106 0 192.5 47t148 128.5t95 188.5t33.5 227q0 108 -38 177t-108.5 102.5
t-169.5 33.5h-145z" />
    <glyph glyph-name="E" unicode="E" horiz-adv-x="1278" 
d="M75 0l219 1446h1013l-44 -284h-673l-44 -295h573l-42 -278h-574l-46 -302l683 -1l-44 -286h-1021z" />
    <glyph glyph-name="F" unicode="F" horiz-adv-x="1243" 
d="M76 0l218 1446h1005l-44 -281h-666l-46 -312h567l-43 -274h-565l-86 -579h-340z" />
    <glyph glyph-name="G" unicode="G" horiz-adv-x="1523" 
d="M665 -20q-199 0 -333 92t-190.5 258t-22.5 388q35 228 146 396t277 260t367 92q180 0 302.5 -73.5t180.5 -191.5t41 -250h-354q-3 64 -28.5 116.5t-73 83.5t-120.5 31q-83 0 -158 -44t-130.5 -143.5t-81.5 -266.5q-20 -138 -5.5 -226t53.5 -137t92.5 -68.5t108.5 -19.5
q51 0 95 17t79 44t59 59t35 64l25 70h-270l36 232l624 -3l-113 -760h-226l25 174q-43 -43 -101 -88t-140 -75.5t-199 -30.5z" />
    <glyph glyph-name="H" unicode="H" horiz-adv-x="1531" 
d="M75 0l204 1446h340l-80 -564h556l79 564h339l-203 -1446h-340l85 601h-555l-85 -601h-340z" />
    <glyph glyph-name="I" unicode="I" horiz-adv-x="648" 
d="M76 0l216 1446h339l-216 -1446h-339z" />
    <glyph glyph-name="J" unicode="J" horiz-adv-x="819" 
d="M219 -20q-63 0 -136 8.5t-112 17.5l49 309q27 -5 61.5 -11.5t71.5 -6.5q101 0 143 53t59 169l140 927h336l-152 -1016q-22 -149 -69 -249t-139 -150.5t-252 -50.5z" />
    <glyph glyph-name="K" unicode="K" horiz-adv-x="1448" 
d="M75 0l219 1446h350l-92 -623l554 623h382l-493 -555l334 -891h-364l-249 642l-230 -246l-59 -396h-352z" />
    <glyph glyph-name="L" unicode="L" horiz-adv-x="1145" 
d="M75 0l219 1446h338l-174 -1163h591l-44 -283h-930z" />
    <glyph glyph-name="M" unicode="M" horiz-adv-x="1852" 
d="M76 0l216 1446h498l131 -956l420 956h494l-215 -1446h-340l161 1077l-468 -1077h-252l-146 1074l-161 -1074h-338z" />
    <glyph glyph-name="N" unicode="N" horiz-adv-x="1585" 
d="M75 0l219 1446h338l466 -882l131 882h339l-218 -1446h-304l-493 928l-138 -928h-340z" />
    <glyph glyph-name="O" unicode="O" horiz-adv-x="1527" 
d="M683 -20q-207 0 -345 90.5t-195 256t-23 392.5q35 229 144 396.5t274 259t368 91.5q202 0 339 -91.5t195 -258.5t24 -396q-34 -227 -141 -393t-271.5 -256.5t-368.5 -90.5zM724 256q91 0 165.5 45.5t128 146.5t77.5 267q27 171 4 275.5t-84 152t-151 47.5
q-135 0 -236 -109.5t-141 -365.5q-24 -166 -0.5 -267t85.5 -146.5t152 -45.5z" />
    <glyph glyph-name="P" unicode="P" horiz-adv-x="1312" 
d="M76 0l218 1446h543q156 0 272 -56t173 -163.5t34 -262.5q-22 -143 -100 -245.5t-200 -157t-276 -54.5h-248l-76 -507h-340zM527 765h242q59 0 110 30t85 79t42 108q13 91 -40 149.5t-136 58.5h-239z" />
    <glyph glyph-name="Q" unicode="Q" horiz-adv-x="1552" 
d="M1317 -248q-104 0 -187 15.5t-153 66.5t-133 158q-51 -7 -87 -9.5t-74 -2.5q-206 0 -344 90t-195.5 256t-23.5 394q35 229 144 396.5t274 258.5t367 91q204 0 341 -91t195.5 -258.5t24.5 -396.5q-28 -187 -105.5 -331.5t-199.5 -247.5q10 -52 65.5 -85.5t130.5 -34.5z
M724 256q143 0 239 105t134 356q26 169 4.5 273.5t-83 152t-154.5 47.5q-142 0 -239 -109t-136 -365q-36 -250 28.5 -355t206.5 -105z" />
    <glyph glyph-name="R" unicode="R" horiz-adv-x="1393" 
d="M75 0l217 1446h623q178 0 280 -58.5t138 -160t16 -230.5q-17 -113 -60.5 -191.5t-105 -132t-133.5 -90.5l170 -583h-347l-140 528h-241l-79 -528h-338zM531 785h240q61 0 112 28t84 75t41 103q13 88 -37 144t-130 56h-249z" />
    <glyph glyph-name="S" unicode="S" horiz-adv-x="1410" 
d="M638 -20q-109 0 -212 26t-183 81t-125 139t-38 201h352q4 -59 35 -99.5t84 -62t124 -21.5q70 0 131.5 16t103 50t50.5 91q7 49 -22 78.5t-81 47t-116 29.5l-227 45q-162 29 -245.5 132t-60.5 279q20 141 112.5 242.5t232 155.5t298.5 54q173 0 294 -63.5t183.5 -166
t56.5 -217.5h-344q3 66 -23 106t-77 57.5t-122 17.5q-76 0 -128.5 -20t-81 -53t-33.5 -72q-8 -56 23.5 -90.5t131.5 -56.5l225 -44q141 -26 217 -80t106 -121.5t32 -135.5t-6 -124q-17 -119 -108.5 -215t-236.5 -151t-322 -55z" />
    <glyph glyph-name="T" unicode="T" horiz-adv-x="1237" 
d="M366 0l170 1145h-414l46 301h1165l-45 -301h-413l-172 -1145h-337z" />
    <glyph glyph-name="U" unicode="U" horiz-adv-x="1458" 
d="M659 -20q-219 0 -337.5 74t-155.5 208.5t-9 316.5l129 867h344l-133 -886q-16 -104 7.5 -168.5t75.5 -94.5t123 -30q104 0 187.5 68.5t106.5 224.5l132 886h341l-129 -871q-27 -180 -104.5 -313.5t-218.5 -207.5t-359 -74z" />
    <glyph glyph-name="V" unicode="V" horiz-adv-x="1412" 
d="M432 0l-267 1446h320l194 -1048l508 1048h322l-703 -1446h-374z" />
    <glyph glyph-name="W" unicode="W" horiz-adv-x="1919" 
d="M373 0l-208 1446h329l111 -865l365 865h239l114 -865l365 865h328l-640 -1446h-259l-115 866l-375 -866h-254z" />
    <glyph glyph-name="X" unicode="X" horiz-adv-x="1440" 
d="M-30 0l578 732l-347 714h418l186 -429l311 429h356l-530 -667l382 -779h-421l-216 487l-355 -487h-362z" />
    <glyph glyph-name="Y" unicode="Y" horiz-adv-x="1370" 
d="M429 0l89 605l-370 841h365l220 -550l381 550h370l-628 -841l-91 -605h-336z" />
    <glyph glyph-name="Z" unicode="Z" horiz-adv-x="1365" 
d="M26 0l24 160l844 1004h-639l45 282h1121l-23 -153l-857 -1007h696l-43 -286h-1168z" />
    <glyph glyph-name="bracketleft" unicode="[" horiz-adv-x="714" 
d="M17 -322l264 1768h490l-28 -187h-218l-208 -1394h218l-29 -187h-489z" />
    <glyph glyph-name="backslash" unicode="\" horiz-adv-x="766" 
d="M432 -18l-279 1464h227l280 -1464h-228z" />
    <glyph glyph-name="bracketright" unicode="]" horiz-adv-x="714" 
d="M-44 -322l28 187h218l208 1394h-218l29 187h489l-264 -1768h-490z" />
    <glyph glyph-name="asciicircum" unicode="^" horiz-adv-x="964" 
d="M622 239l-120 478l-263 -477h-219l423 742q26 45 68 61.5t80 2t51 -61.5l198 -745h-218z" />
    <glyph glyph-name="underscore" unicode="_" horiz-adv-x="1127" 
d="M-1 -294l37 242h889l-37 -242h-889z" />
    <glyph glyph-name="grave" unicode="`" horiz-adv-x="652" 
d="M488 1155l-334 291h345l233 -291h-244z" />
    <glyph glyph-name="a" unicode="a" horiz-adv-x="1136" 
d="M345 -20q-97 0 -170.5 37.5t-109 109.5t-20.5 176q25 169 167.5 260t415.5 92l102 1l8 53q9 62 -22.5 92t-97.5 29q-51 -1 -107 -25t-88 -86h-276q23 115 97 189t184 110t239 36q166 0 257.5 -41t123 -114t16.5 -169l-110 -730h-280l-4 170q-66 -109 -143.5 -149.5
t-181.5 -40.5zM494 199q33 0 64.5 12t58 33.5t44 47.5t23.5 56l21 141l-81 -1q-50 0 -106 -14t-98 -46.5t-51 -89.5q-9 -65 28 -102t97 -37z" />
    <glyph glyph-name="b" unicode="b" horiz-adv-x="1219" 
d="M639 -20q-69 0 -119 18t-83.5 49.5t-53.5 74t-29 90.5l-70 -212h-242l207 1486h340l-80 -581q26 37 61 64.5t76.5 46t86 28.5t90.5 10q190 0 276.5 -140.5t52.5 -390.5q-35 -246 -167.5 -394.5t-345.5 -148.5zM594 221q79 0 142 68.5t86 235.5q21 153 -22 219.5
t-125 66.5q-86 0 -142.5 -68.5t-76.5 -217.5q-24 -168 14 -236t124 -68z" />
    <glyph glyph-name="c" unicode="c" horiz-adv-x="1084" 
d="M489 -20q-143 0 -247 65.5t-151.5 185.5t-23.5 281t106 282.5t206 190.5t271 69q136 0 223.5 -57.5t125.5 -153t26 -208.5h-277q1 35 -10 73t-40.5 64.5t-83.5 26.5q-86 0 -149.5 -70.5t-85.5 -212.5q-21 -140 22.5 -219t132.5 -79q53 0 90.5 29t59.5 67t29 67h270
q-19 -109 -86 -200t-171 -146t-237 -55z" />
    <glyph glyph-name="d" unicode="d" horiz-adv-x="1218" 
d="M430 -20q-209 0 -302.5 146t-58.5 397q33 245 158 388t317 143q46 0 88.5 -10t78.5 -28.5t63.5 -46t43.5 -64.5l81 581h340l-206 -1486h-243l-10 212q-22 -48 -54 -90.5t-75 -74t-97.5 -49.5t-123.5 -18zM541 221q87 0 144 68t80 236q14 99 1 162.5t-48.5 93.5t-93.5 30
q-78 0 -141 -64.5t-84 -221.5q-23 -162 19 -233t123 -71z" />
    <glyph glyph-name="e" unicode="e" horiz-adv-x="1144" 
d="M514 -20q-155 0 -262.5 65t-155 183t-23.5 277q22 151 100.5 275.5t203 199t283.5 74.5q162 0 260 -68.5t135 -188t14 -273.5l-14 -85h-660q-11 -71 3.5 -119.5t52 -73.5t92.5 -25q62 0 114 26.5t85 92.5h300q-33 -113 -116 -193.5t-192 -123.5t-220 -43zM422 635h350
q8 51 -5 93.5t-48.5 67.5t-94.5 25q-51 0 -94.5 -26.5t-71.5 -69t-36 -90.5z" />
    <glyph glyph-name="f" unicode="f" horiz-adv-x="787" 
d="M135 0l120 801h-175l36 233h174l22 143q19 127 107 198t224 71h254l-33 -223h-124q-52 0 -75 -24.5t-33 -84.5l-11 -80h206l-36 -233h-198l-121 -801h-337z" />
    <glyph glyph-name="g" unicode="g" horiz-adv-x="1248" 
d="M501 -342q-294 0 -433.5 75.5t-123.5 189.5q7 48 38.5 79t71 49.5t72.5 28t43 13.5q-11 7 -41 26t-54 55.5t-16 93.5q7 51 65 96t179 65q-94 47 -137.5 136t-30.5 180q13 92 82.5 160.5t184.5 106.5t264 38q113 0 177.5 -24t111.5 -55q30 12 72.5 28t90 34.5t95 36.5
t86.5 34l-29 -255l-183 -35q11 -58 5 -104q-12 -84 -75 -160t-173 -123.5t-264 -47.5q-27 0 -64.5 2t-54.5 3q-41 1 -60.5 -1.5t-18.5 -17.5q4 -25 44 -35.5t104 -16.5q35 -3 90.5 -5.5t115.5 -7.5q205 -13 292 -102.5t70 -216.5q-20 -141 -169.5 -232t-426.5 -91zM550 -158
q116 0 164.5 29.5t55.5 78.5q4 33 -26 53t-96 24l-207 14q-50 2 -86 -13t-56 -40t-24 -55q-7 -50 59.5 -70.5t215.5 -20.5zM585 563q73 0 125.5 47.5t62.5 123.5q10 62 -21 103t-93 41q-73 0 -127 -52t-65 -129q-8 -61 23 -97.5t95 -36.5z" />
    <glyph glyph-name="h" unicode="h" horiz-adv-x="1195" 
d="M42 0l221 1486h339l-87 -584q42 49 109.5 92t188.5 43q96 0 170.5 -41.5t112.5 -116.5t23 -175l-105 -704h-339l98 660q9 55 -30.5 86t-95.5 31q-37 0 -74 -15t-63 -42.5t-31 -65.5l-98 -654h-339z" />
    <glyph glyph-name="i" unicode="i" horiz-adv-x="552" 
d="M41 0l146 1034h323l-145 -1034h-324zM202 1151l42 295h325l-41 -295h-326z" />
    <glyph glyph-name="j" unicode="j" horiz-adv-x="609" 
d="M-16 -332q-77 0 -101.5 16l-24.5 16l33 227l71 9q59 10 83 33.5t30 63.5l150 1001h338l-151 -1002q-26 -181 -130.5 -272.5t-297.5 -91.5zM245 1184l46 296h341l-45 -296h-342z" />
    <glyph glyph-name="k" unicode="k" horiz-adv-x="1167" 
d="M40 0l221 1486h340l-126 -840l382 388h355l-434 -420l286 -614h-332l-190 413l-120 -117l-45 -296h-337z" />
    <glyph glyph-name="l" unicode="l" horiz-adv-x="675" 
d="M393 -20q-127 0 -196 29t-95.5 75.5t-27 103.5t7.5 113l178 1185h332l-171 -1141q-8 -47 8.5 -81.5t87.5 -43.5l43 -3l-32 -209q-33 -11 -68.5 -19.5t-66.5 -8.5z" />
    <glyph glyph-name="m" unicode="m" horiz-adv-x="1799" 
d="M40 0l155 1034h331l-20 -129q58 63 143.5 106t204.5 43q76 0 151 -33.5t109 -114.5q64 68 156 108t176 40q58 0 113 -20.5t98 -62.5t63 -105t7 -147l-108 -719h-338l103 680q7 45 -9.5 73.5t-46 42t-63.5 13.5q-56 0 -91 -20t-54.5 -58.5t-28.5 -94.5l-95 -636h-337
l104 693q7 37 -10 63t-47.5 39.5t-63.5 13.5t-68 -13.5t-61 -40.5t-32 -67l-105 -688h-336z" />
    <glyph glyph-name="n" unicode="n" horiz-adv-x="1193" 
d="M40 0l156 1034h332l-18 -129q36 36 75.5 66.5t94 50t134.5 19.5q91 0 165.5 -44t114 -122.5t23.5 -180.5l-104 -694h-339l98 650q10 60 -29 93.5t-93 33.5q-37 0 -75 -14t-65 -40.5t-32 -64.5l-100 -658h-338z" />
    <glyph glyph-name="o" unicode="o" horiz-adv-x="1145" 
d="M491 -20q-152 0 -255.5 66.5t-147.5 186t-21 278.5q24 162 106 284.5t206 190.5t274 68q156 0 258.5 -68.5t146 -191t19.5 -283.5q-24 -155 -103 -274.5t-202 -188t-281 -68.5zM533 230q67 0 111 43.5t69.5 111t35.5 137.5q11 69 5 135t-37 108.5t-101 42.5
q-69 0 -114 -41.5t-69.5 -107t-34.5 -137.5q-10 -68 -5 -135.5t36.5 -112t103.5 -44.5z" />
    <glyph glyph-name="p" unicode="p" horiz-adv-x="1216" 
d="M-3 -322l189 1356h340l-18 -134q43 50 97.5 84.5t115 52t117.5 17.5q111 0 189.5 -57t112.5 -175t9 -299q-27 -193 -101 -312.5t-177 -175t-218 -55.5q-39 0 -77 10.5t-71 31.5t-59.5 50.5t-44.5 68.5l-64 -463h-340zM602 226q78 0 144 70t87 225q18 138 -26 214t-125 76
q-97 0 -154.5 -84.5t-73.5 -205.5q-10 -74 0.5 -142t46.5 -110.5t101 -42.5z" />
    <glyph glyph-name="q" unicode="q" horiz-adv-x="1215" 
d="M645 -322l64 463q-38 -51 -87 -87t-102.5 -55t-106.5 -19q-112 0 -200.5 54t-130 173.5t-14.5 315.5q25 178 90.5 296.5t160.5 176.5t207 58q44 0 86 -10t80 -29t69 -48t52 -67l19 134h341l-189 -1356h-339zM533 226q65 0 113 42.5t77 110.5t40 142q16 121 -18 205.5
t-132 84.5q-77 0 -143.5 -73.5t-85.5 -216.5q-20 -150 24.5 -222.5t124.5 -72.5z" />
    <glyph glyph-name="r" unicode="r" horiz-adv-x="827" 
d="M40 0l146 1034h327l-37 -265q35 81 88.5 145.5t125.5 102t160 37.5q11 0 18.5 -0.5t10.5 -2.5l-46 -323q-5 2 -12 3t-14 1q-128 13 -201.5 -12.5t-107.5 -76t-43 -112.5l-75 -531h-340z" />
    <glyph glyph-name="s" unicode="s" horiz-adv-x="1065" 
d="M469 -20q-107 0 -203.5 36t-158 115t-64.5 206h290q6 -53 35.5 -81t66.5 -38t64 -10q73 0 121 21t53 64q6 36 -20 56.5t-93 32.5l-160 31q-138 27 -214 99.5t-59 205.5q13 95 75.5 171t168.5 120.5t251 44.5q200 0 306 -88t84 -243h-279q-3 53 -44 80.5t-102 27.5
q-64 0 -109 -21.5t-51 -64.5q-5 -33 29.5 -53t114.5 -36l144 -31q89 -23 141.5 -61.5t77 -83.5t30 -89.5t0.5 -78.5q-15 -107 -83.5 -181t-175.5 -112.5t-236 -38.5z" />
    <glyph glyph-name="t" unicode="t" horiz-adv-x="850" 
d="M500 -13q-148 0 -223 37.5t-96.5 103t-9.5 148.5l79 525h-165l36 233h175l100 317h273l-47 -315h224l-35 -235h-224l-74 -508q-7 -46 11.5 -59.5t53.5 -13.5h147l-30 -205q-22 -9 -66.5 -18.5t-128.5 -9.5z" />
    <glyph glyph-name="u" unicode="u" horiz-adv-x="1196" 
d="M414 -20q-66 0 -131 22t-116.5 64.5t-78 104t-15.5 141.5l101 722h340l-95 -676q-8 -58 25.5 -96.5t106.5 -38.5q71 0 117.5 37.5t54.5 99.5l95 674h337l-145 -1034h-253l-11 209q-31 -97 -89.5 -146.5t-123.5 -66t-119 -16.5z" />
    <glyph glyph-name="v" unicode="v" horiz-adv-x="1039" 
d="M323 0l-233 1034h303l110 -593h3l283 593h307l-545 -1034h-228z" />
    <glyph glyph-name="w" unicode="w" horiz-adv-x="1559" 
d="M274 0l-182 1034h296l90 -572h3l253 572h237l80 -573h3l259 573h301l-503 -1034h-251l-85 564l-259 -564h-242z" />
    <glyph glyph-name="x" unicode="x" horiz-adv-x="1180" 
d="M-50 0l471 539l-280 495h348l148 -257l222 257h349l-431 -495l307 -539h-348l-172 305l-264 -305h-350z" />
    <glyph glyph-name="y" unicode="y" horiz-adv-x="1134" 
d="M166 -330q-111 0 -155.5 20l-44.5 20l31 216l99 -5q94 -7 140 12t63 44t22 36l18 39l-249 982h333l123 -618l314 618h330l-552 -1007q-83 -147 -159 -224.5t-152.5 -105t-160.5 -27.5z" />
    <glyph glyph-name="z" unicode="z" horiz-adv-x="1002" 
d="M-14 0l23 184l556 615h-437l33 235h853l-22 -184l-557 -615h469l-33 -235h-885z" />
    <glyph glyph-name="braceleft" unicode="{" horiz-adv-x="819" 
d="M452 -322q-78 0 -149.5 27.5t-113 83t-29.5 142.5l60 395q7 47 -9.5 84t-62.5 58.5t-125 21.5l25 164q120 0 177.5 42.5t69.5 129.5l55 370q13 85 71 140.5t137 82.5t154 27h165l-29 -187h-94q-58 0 -85.5 -14t-37.5 -38t-14 -51l-57 -384q-13 -68 -53 -108.5
t-91.5 -60.5t-98.5 -25q-11 -1 -12.5 -5.5t10.5 -6.5q45 -4 91 -22t73.5 -62t17.5 -125l-57 -388q-9 -55 13 -79.5t93 -24.5h93l-29 -187h-158z" />
    <glyph glyph-name="bar" unicode="|" horiz-adv-x="556" 
d="M31 -322l293 1974h243l-295 -1974h-241z" />
    <glyph glyph-name="braceright" unicode="}" horiz-adv-x="815" 
d="M-93 -322l28 187h94q58 0 86 14t37.5 38t13.5 51l57 384q13 68 53 108.5t91.5 60.5t98.5 25q12 2 13 6.5t-11 5.5q-45 4 -90.5 22t-73.5 62t-18 126l57 387q9 56 -13 80t-93 24h-92l28 187h158q78 0 150 -27t113.5 -83t28.5 -143l-60 -395q-7 -47 10 -84t62.5 -58.5
t124.5 -21.5l-25 -164q-119 0 -176.5 -42.5t-70.5 -129.5l-55 -370q-13 -85 -71 -140.5t-137 -82.5t-154 -27h-164z" />
    <glyph glyph-name="asciitilde" unicode="~" horiz-adv-x="1250" 
d="M208 533l-71 165q93 85 178 141.5t185 56.5q62 0 106 -19.5t81 -45t73.5 -45.5t83.5 -20q69 0 130.5 45.5t107.5 109.5l73 -163q-70 -101 -160.5 -151.5t-176.5 -50.5q-60 0 -104.5 20t-82.5 46t-77.5 46t-89.5 20q-75 0 -136 -48.5t-120 -106.5z" />
    <glyph glyph-name="uni00A0" unicode="&#xa0;" horiz-adv-x="436" 
 />
    <glyph glyph-name="exclamdown" unicode="&#xa1;" horiz-adv-x="593" 
d="M-30 -322l216 872h209l-29 -872h-396zM126 686l49 348h363l-49 -348h-363z" />
    <glyph glyph-name="cent" unicode="&#xa2;" horiz-adv-x="1191" 
d="M584 202q-153 0 -264 65.5t-162 185.5t-25 281q25 161 113 282.5t220 190.5t290 69q146 0 239.5 -57.5t134 -153t27.5 -208.5h-299q1 35 -10.5 73t-42.5 64.5t-88 26.5q-91 0 -158 -70.5t-91 -212.5q-22 -140 24 -219t141 -79q56 0 95.5 29t62 67t31.5 67h290
q-20 -109 -91 -200t-183.5 -146t-253.5 -55zM424 0l54 359h216l-54 -359h-216zM619 1087l54 359h216l-54 -359h-216z" />
    <glyph glyph-name="sterling" unicode="&#xa3;" horiz-adv-x="1312" 
d="M-28 0l43 280h64q72 0 123 40.5t65 134.5q8 47 10 92.5t4 125.5h-202l28 182h163l14 187q5 105 50.5 183.5t120 132.5t167 81t188.5 27q112 0 201 -35.5t150 -104.5t88 -169l-305 -87q-20 70 -45.5 100t-76.5 30q-56 0 -96 -38t-51 -107q-5 -34 -5.5 -82t1.5 -118h274
l-27 -182h-250q-6 -67 -14.5 -111t-27.5 -91q-15 -45 -34.5 -76.5t-46 -57.5t-62.5 -55h228q92 0 139.5 36t91.5 122l274 -59q-75 -189 -204 -285t-318 -96h-722z" />
    <glyph glyph-name="currency" unicode="&#xa4;" horiz-adv-x="1183" 
d="M151 206l-113 141l156 136q-26 58 -34.5 114.5t1.5 128.5q10 64 33 120t60 107q8 12 8.5 18.5t-7.5 14.5l-101 123l156 142l117 -140q59 35 123.5 55t126.5 20q125 0 226 -67q11 -7 23 2l127 114l115 -141l-141 -122q27 -56 36 -116.5t-2 -127.5q-8 -62 -34 -124
t-68 -113q-5 -9 -2 -12l101 -117l-158 -141l-101 124q-61 -35 -124 -55t-128 -20q-125 0 -221 63q-17 12 -32 -4zM576 487q67 0 125 34t97 88.5t49 118.5q10 63 -12 117.5t-70.5 89t-117.5 34.5q-66 0 -124.5 -34.5t-98 -89t-48.5 -117.5q-10 -64 12.5 -118.5t71 -88.5
t116.5 -34z" />
    <glyph glyph-name="yen" unicode="&#xa5;" horiz-adv-x="1339" 
d="M400 0l89 603l-379 843h439l215 -541l375 541h352l-612 -808l-97 -638h-382zM140 205l27 177h962l-26 -177h-963zM188 526l27 179h964l-27 -178z" />
    <glyph glyph-name="brokenbar" unicode="&#xa6;" horiz-adv-x="556" 
d="M203 830l121 822h243l-122 -822h-242zM31 -322l121 822h242l-122 -822h-241z" />
    <glyph glyph-name="section" unicode="&#xa7;" horiz-adv-x="1032" 
d="M416 -161q-120 0 -209.5 33t-145.5 86.5t-76 114.5l220 100q30 -49 82 -90.5t152 -41.5q69 0 116 23t54 70q5 35 -18.5 63.5t-99.5 59.5l-133 54q-157 63 -221.5 137t-46.5 194q14 93 68 159t136 105q-74 52 -97.5 110.5t-13.5 128.5q13 90 73.5 163t159 115.5
t225.5 42.5q106 0 187.5 -32.5t134 -84t71.5 -110.5l-218 -99q-34 46 -79 85.5t-118 39.5q-56 0 -92 -24t-42 -63q-4 -32 21.5 -53.5t54.5 -34.5l141 -57q159 -65 224.5 -140.5t46.5 -198.5q-13 -92 -63.5 -155t-126.5 -107q82 -51 112 -110t17 -142q-16 -100 -77.5 -176.5
t-167 -120.5t-251.5 -44zM575 533q34 -4 61.5 11.5t43.5 43t17 61.5q-1 36 -28 65t-95 57l-75 31q-40 -3 -68 -18.5t-44.5 -39.5t-20.5 -52q-5 -38 18.5 -63t107.5 -59z" />
    <glyph glyph-name="dieresis" unicode="&#xa8;" horiz-adv-x="828" 
d="M592 1182l39 264h316l-40 -264h-315zM103 1182l40 264h316l-40 -264h-316z" />
    <glyph glyph-name="copyright" unicode="&#xa9;" horiz-adv-x="1648" 
d="M733 -20q-151 0 -274.5 57.5t-208.5 159.5t-122 237t-14 290q23 153 100 287.5t192.5 236.5t256.5 160t292 58t275 -58t209 -160t122 -236.5t14 -287.5q-24 -155 -101.5 -290t-193 -237t-256.5 -159.5t-291 -57.5zM788 313q-115 0 -197 52.5t-120 145t-20 214.5
q19 124 84.5 217t163.5 145.5t212 52.5q103 0 169.5 -42.5t101 -106t40.5 -127.5l-232 -18q-3 28 -11 56.5t-28 47.5t-58 19q-42 0 -77 -25t-60.5 -78.5t-37.5 -136.5q-19 -131 13.5 -188t104.5 -57q67 0 108 38.5t77 95.5l158 -37q-13 -34 -44 -79.5t-80 -88.5
t-115.5 -71.5t-151.5 -28.5zM760 161q119 0 222.5 39t186 113t136.5 178t73 233q20 128 -3 231.5t-83 178.5t-152 115t-211 40q-120 0 -224 -40t-186 -115t-135.5 -178.5t-72.5 -231.5q-27 -172 21 -298.5t158 -195.5t270 -69z" />
    <glyph glyph-name="ordfeminine" unicode="&#xaa;" horiz-adv-x="759" 
d="M309 795q-94 0 -138 51.5t-32 133.5q14 98 108.5 160.5t241.5 64.5l59 3l5 41q8 52 -17.5 67.5t-52.5 15.5q-32 0 -63.5 -16t-56.5 -63l-167 37q49 86 116.5 130.5t194.5 44.5q151 -1 200.5 -55t35.5 -149q-12 -84 -19.5 -138t-15.5 -119q-1 -9 -5 -37t-6.5 -59t-2.5 -47
l5 -54h-194l-6 63q-52 -37 -94.5 -56t-95.5 -19zM404 926q50 0 84 30q12 11 21 21t10 27l13 93l-48 -2q-61 -2 -102 -29t-48 -72q-3 -30 15 -49t55 -19z" />
    <glyph glyph-name="guillemotleft" unicode="&#xab;" horiz-adv-x="1029" 
d="M658 123l-165 379l281 395h176l-201 -395l86 -379h-177zM272 123l-163 379l277 395h178l-201 -395l84 -379h-175z" />
    <glyph glyph-name="logicalnot" unicode="&#xac;" horiz-adv-x="1195" 
d="M125 605l38 245h966l-37 -244zM773 297l70 467h272l-70 -467h-272z" />
    <glyph glyph-name="uni00AD" unicode="&#xad;" horiz-adv-x="791" 
d="M101 392l35 243l554 1l-36 -244h-553z" />
    <glyph glyph-name="registered" unicode="&#xae;" horiz-adv-x="1101" 
d="M542 536q-127 0 -221.5 62t-140.5 167.5t-27 234.5q20 129 97 235t190 168.5t241 62.5q126 0 219.5 -62.5t139.5 -168.5t26 -235q-18 -129 -95.5 -234.5t-190 -167.5t-238.5 -62zM561 663q96 0 174 42t129 117.5t66 177.5t-13 178.5t-93 118.5t-161 42q-99 0 -177 -42
t-128.5 -118.5t-65.5 -178.5q-23 -153 49.5 -245t219.5 -92zM388 768l69 460h216q85 0 128 -32t34 -93q-7 -46 -37.5 -77t-70.5 -47l58 -211h-139l-36 196h-67l-28 -196h-127zM556 1051h88q23 0 39.5 12t19.5 33q3 22 -11.5 34t-40.5 12h-82z" />
    <glyph glyph-name="macron" unicode="&#xaf;" horiz-adv-x="837" 
d="M141 1192l32 212h742l-32 -212h-742z" />
    <glyph glyph-name="degree" unicode="&#xb0;" horiz-adv-x="947" 
d="M526 982q-97 0 -167 43.5t-102.5 121.5t-16.5 179q15 100 71 178.5t139 123t181 44.5q96 0 166 -44.5t102.5 -123t17.5 -178.5q-15 -101 -71 -179t-139.5 -121.5t-180.5 -43.5zM553 1166q66 0 112.5 44.5t55.5 113.5q12 68 -22 112t-101 44t-113.5 -44t-56.5 -112
q-8 -69 24.5 -113.5t100.5 -44.5z" />
    <glyph glyph-name="plusminus" unicode="&#xb1;" horiz-adv-x="1202" 
d="M466 416l146 981h244l-149 -981h-241zM48 51l37 242l965 1l-36 -243h-966zM157 784l37 244h967l-37 -244h-967z" />
    <glyph glyph-name="uni00B2" unicode="&#xb2;" horiz-adv-x="796" 
d="M62 768l13 99l9 52q11 80 52 135.5t100.5 94.5t123 68t120.5 55.5t95.5 58.5t44.5 75q6 48 -22 79t-85 31q-58 0 -107 -35.5t-72 -112.5h-203q20 135 123 228.5t289 93.5q159 0 239 -78t62 -204q-11 -79 -51.5 -133t-97 -90t-118.5 -62.5t-116.5 -49.5t-91.5 -51.5
t-43 -71.5l-1 -4h451l-26 -178h-688z" />
    <glyph glyph-name="uni00B3" unicode="&#xb3;" horiz-adv-x="857" 
d="M421 754q-173 0 -252.5 80.5t-60.5 223.5h203q3 -74 41 -103.5t94 -29.5q76 0 122 31.5t53 80.5q7 48 -29.5 77.5t-101.5 32.5l-88 4l24 167l78 5q44 3 76.5 16.5t53 37.5t25.5 55q5 46 -33 70.5t-98 24.5q-39 0 -73.5 -12.5t-59 -42t-36.5 -81.5h-202q14 102 71 168.5
t143 98.5t186 32q104 0 182.5 -26t118.5 -80.5t28 -142.5q-10 -67 -54 -116.5t-135 -79.5q44 -13 81.5 -40t58 -70t11.5 -106q-13 -92 -75 -153t-155 -91.5t-197 -30.5z" />
    <glyph glyph-name="acute" unicode="&#xb4;" horiz-adv-x="570" 
d="M100 1155l244 291h346l-344 -291h-246z" />
    <glyph glyph-name="uni00B5" unicode="&#xb5;" horiz-adv-x="1223" 
d="M-18 -330l208 1390h346l-95 -631q-4 -36 10.5 -64t44.5 -43.5t71 -15.5q57 0 103.5 33.5t71.5 88.5l93 632h351l-165 -1060h-338l23 164q-40 -41 -81 -66t-86 -35q-38 -9 -77 -8t-73 14l-61 -399h-346z" />
    <glyph glyph-name="paragraph" unicode="&#xb6;" horiz-adv-x="1221" 
d="M358 -166l115 765q-104 10 -187.5 59t-125.5 139t-22 224q18 118 85.5 214.5t178.5 153.5t259 57h589l-28 -189h-125l-213 -1423h-202l213 1423h-120l-215 -1423h-202z" />
    <glyph glyph-name="periodcentered" unicode="&#xb7;" horiz-adv-x="545" 
d="M102 569l49 318h326l-49 -318h-326z" />
    <glyph glyph-name="cedilla" unicode="&#xb8;" horiz-adv-x="578" 
d="M144 -432q-65 0 -126.5 12t-109.5 44l60 109q29 -19 68.5 -35t82.5 -16t70.5 15t32.5 42q5 38 -29.5 58t-130.5 21q-14 0 -18.5 3.5t4.5 17.5l98 171h141l-59 -116q77 0 119.5 -25t57.5 -61.5t10 -72.5q-8 -52 -48 -89t-99 -57.5t-124 -20.5z" />
    <glyph glyph-name="uni00B9" unicode="&#xb9;" horiz-adv-x="523" 
d="M193 760l99 662h-154l17 116q114 0 173.5 36t77.5 96h137l-137 -910h-213z" />
    <glyph glyph-name="ordmasculine" unicode="&#xba;" horiz-adv-x="751" 
d="M413 796q-137 0 -208 93.5t-51 238.5q15 101 65.5 177t126 118.5t164.5 42.5q138 0 209.5 -95.5t50.5 -242.5q-13 -97 -63.5 -172t-126 -117.5t-167.5 -42.5zM434 937q54 0 87 48t47 147t-5.5 147t-72.5 48q-54 0 -86.5 -48t-46.5 -147t5.5 -147t71.5 -48z" />
    <glyph glyph-name="guillemotright" unicode="&#xbb;" horiz-adv-x="1029" 
d="M462 123l200 379l-84 395h178l160 -395l-276 -379h-178zM77 123l197 379l-82 395h178l160 -395l-278 -379h-175z" />
    <glyph glyph-name="onequarter" unicode="&#xbc;" horiz-adv-x="1676" 
d="M193 552l99 662h-154l17 116q114 0 173.5 36t77.5 96h137l-137 -910h-213zM344 -8l-188 3l1179 1467h187zM1223 0l30 188h-408l26 171l485 551h207l-81 -545h132l-26 -177h-134l-28 -188h-203zM1067 365h213l43 292z" />
    <glyph glyph-name="onehalf" unicode="&#xbd;" horiz-adv-x="1813" 
d="M193 552l99 662h-154l17 116q114 0 173.5 36t77.5 96h137l-137 -910h-213zM344 -8l-188 3l1179 1467h187zM1000 0l14 99l8 52q11 80 52 135.5t100.5 94.5t123 68t120.5 55.5t96 58.5t44 75q6 48 -22 79t-84 31q-59 0 -108 -35.5t-72 -112.5h-203q20 135 123.5 228.5
t288.5 93.5q159 0 239.5 -78t61.5 -204q-11 -79 -51.5 -133t-97 -90t-118 -62.5t-116.5 -49.5t-92 -51.5t-43 -71.5v-4h450l-26 -178h-688z" />
    <glyph glyph-name="threequarters" unicode="&#xbe;" horiz-adv-x="1929" 
d="M421 544q-173 0 -252.5 80.5t-60.5 223.5h203q3 -74 41 -103.5t94 -29.5q76 0 122 31.5t53 80.5q7 48 -29.5 77.5t-101.5 32.5l-88 4l24 167l78 5q44 3 76.5 16.5t53 37.5t25.5 55q5 46 -33 70.5t-98 24.5q-39 0 -73.5 -12.5t-59 -42t-36.5 -81.5h-202q14 102 71 168.5
t143 98.5t186 32q104 0 182.5 -26t118.5 -80.5t28 -142.5q-10 -67 -54 -116.5t-135 -79.5q44 -13 81.5 -40t58 -70t11.5 -106q-13 -92 -75 -153t-155 -91.5t-197 -30.5zM597 -8l-188 3l1179 1467h187zM1476 0l30 188h-408l26 171l485 551h207l-81 -545h132l-26 -177h-134
l-28 -188h-203zM1320 365h213l43 292z" />
    <glyph glyph-name="questiondown" unicode="&#xbf;" horiz-adv-x="1100" 
d="M434 -342q-163 0 -264 46.5t-144 123.5t-31 169q14 96 60.5 159.5t108 108t123 84.5t106 90t54.5 122h270q-13 -94 -53.5 -161t-93.5 -115.5t-104.5 -90t-88.5 -83t-45 -95.5t32.5 -88t104.5 -34q48 0 96 21.5t90 61t70 93.5l276 -64q-86 -168 -230.5 -258t-336.5 -90z
M419 686l48 348h364l-49 -348h-363z" />
    <glyph glyph-name="Agrave" unicode="&#xc0;" horiz-adv-x="1447" 
d="M-30 0l724 1446h348l289 -1446h-334l-58 308h-478l-153 -308h-338zM578 601h326l-84 518zM753 1567l-334 291h345l233 -291h-244z" />
    <glyph glyph-name="Aacute" unicode="&#xc1;" horiz-adv-x="1447" 
d="M-30 0l724 1446h348l289 -1446h-334l-58 308h-478l-153 -308h-338zM578 601h326l-84 518zM759 1567l244 291h346l-344 -291h-246z" />
    <glyph glyph-name="Acircumflex" unicode="&#xc2;" horiz-adv-x="1447" 
d="M-30 0l724 1446h348l289 -1446h-334l-58 308h-478l-153 -308h-338zM578 601h326l-84 518zM443 1567l271 275h232l256 -275h-253l-123 144l-144 -144h-239z" />
    <glyph glyph-name="Atilde" unicode="&#xc3;" horiz-adv-x="1447" 
d="M-30 0l724 1446h348l289 -1446h-334l-58 308h-478l-153 -308h-338zM578 601h326l-84 518zM586 1596l-25 160q44 41 94 70t123 29q57 0 107.5 -16t96.5 -32t91 -16q54 0 102.5 25t83.5 51l11 -184q-37 -29 -96.5 -53t-127.5 -24q-56 0 -101 14.5t-89.5 29t-96.5 14.5
q-50 0 -87 -15.5t-86 -52.5z" />
    <glyph glyph-name="Adieresis" unicode="&#xc4;" horiz-adv-x="1447" 
d="M-30 0l724 1446h348l289 -1446h-334l-58 308h-478l-153 -308h-338zM578 601h326l-84 518zM973 1594l39 264h316l-40 -264h-315zM484 1594l40 264h316l-40 -264h-316z" />
    <glyph glyph-name="Aring" unicode="&#xc5;" horiz-adv-x="1447" 
d="M-30 0l724 1446h348l289 -1446h-334l-58 308h-478l-153 -308h-338zM578 601h326l-84 518zM884 1539q-93 0 -146.5 66t-39.5 161q9 59 46 108t91.5 78t114.5 29q92 0 146 -64t40 -155q-9 -63 -46.5 -113.5t-91.5 -80t-114 -29.5zM900 1661q40 0 71.5 30t37.5 69
q6 41 -17 68t-63 27q-39 0 -72 -27t-40 -68q-6 -39 19 -69t64 -30z" />
    <glyph glyph-name="AE" unicode="&#xc6;" horiz-adv-x="2111" 
d="M-73 0l964 1446h1244l-43 -280h-670l-46 -300h572l-42 -277h-570l-46 -307h689l-42 -282h-1075l46 309h-445l-198 -309h-338zM632 601h319l95 627z" />
    <glyph glyph-name="Ccedilla" unicode="&#xc7;" horiz-adv-x="1449" 
d="M614 -432q-66 0 -127 12t-110 44l60 109q30 -19 69.5 -35t81.5 -16q44 0 71.5 15t31.5 42q6 38 -28.5 58t-130.5 21q-14 0 -19 3.5t4 17.5l98 171h142l-59 -116q77 0 119 -25t57 -61.5t10 -72.5q-8 -52 -47.5 -89t-98.5 -57.5t-124 -20.5zM673 -20q-182 0 -308.5 79
t-191 221t-59.5 333q3 165 54.5 318t149.5 273.5t242 191t334 70.5q163 0 280.5 -62.5t180.5 -178t62 -274.5h-352q-2 72 -27.5 125.5t-74.5 83.5t-123 30q-97 0 -164 -53t-109 -140.5t-62.5 -191.5t-23.5 -208q-7 -180 53 -260.5t170 -80.5q74 0 132.5 36t100 96.5
t63.5 131.5h354q-30 -107 -80.5 -204.5t-129.5 -173.5t-194 -119t-277 -43z" />
    <glyph glyph-name="Egrave" unicode="&#xc8;" horiz-adv-x="1278" 
d="M75 0l219 1446h1013l-44 -284h-673l-44 -295h573l-42 -278h-574l-46 -302l683 -1l-44 -286h-1021zM663 1567l-334 291h345l233 -291h-244z" />
    <glyph glyph-name="Eacute" unicode="&#xc9;" horiz-adv-x="1278" 
d="M75 0l219 1446h1013l-44 -284h-673l-44 -295h573l-42 -278h-574l-46 -302l683 -1l-44 -286h-1021zM669 1567l244 291h346l-344 -291h-246z" />
    <glyph glyph-name="Ecircumflex" unicode="&#xca;" horiz-adv-x="1278" 
d="M75 0l219 1446h1013l-44 -284h-673l-44 -295h573l-42 -278h-574l-46 -302l683 -1l-44 -286h-1021zM416 1567l271 275h232l256 -275h-253l-123 144l-144 -144h-239z" />
    <glyph glyph-name="Edieresis" unicode="&#xcb;" horiz-adv-x="1278" 
d="M75 0l219 1446h1013l-44 -284h-673l-44 -295h573l-42 -278h-574l-46 -302l683 -1l-44 -286h-1021zM883 1594l39 264h316l-40 -264h-315zM394 1594l40 264h316l-40 -264h-316z" />
    <glyph glyph-name="Igrave" unicode="&#xcc;" horiz-adv-x="648" 
d="M76 0l216 1446h339l-216 -1446h-339zM347 1567l-334 291h345l233 -291h-244z" />
    <glyph glyph-name="Iacute" unicode="&#xcd;" horiz-adv-x="648" 
d="M76 0l216 1446h339l-216 -1446h-339zM353 1567l244 291h346l-344 -291h-246z" />
    <glyph glyph-name="Icircumflex" unicode="&#xce;" horiz-adv-x="648" 
d="M76 0l216 1446h339l-216 -1446h-339zM100 1567l271 275h232l256 -275h-253l-123 144l-144 -144h-239z" />
    <glyph glyph-name="Idieresis" unicode="&#xcf;" horiz-adv-x="648" 
d="M76 0l216 1446h339l-216 -1446h-339zM568 1594l39 264h316l-40 -264h-315zM79 1594l40 264h316l-40 -264h-316z" />
    <glyph glyph-name="Eth" unicode="&#xd0;" horiz-adv-x="1581" 
d="M82 590l34 244h819l-34 -244h-819zM204 0l209 1446h69h127q147 0 283 -10t251.5 -40.5t202.5 -93.5t134.5 -169.5t47.5 -267.5q0 -77 -14 -170t-48.5 -190t-96 -187t-155.5 -161.5t-226.5 -114t-310.5 -42.5h-473zM585 271h126q106 0 192.5 47t148 128.5t95 188.5
t33.5 227q0 108 -38 177t-108.5 102.5t-169.5 33.5h-145z" />
    <glyph glyph-name="Ntilde" unicode="&#xd1;" horiz-adv-x="1585" 
d="M75 0l219 1446h338l466 -882l131 882h339l-218 -1446h-304l-493 928l-138 -928h-340zM647 1596l-25 160q44 41 94 70t123 29q57 0 107.5 -16t96.5 -32t91 -16q54 0 102.5 25t83.5 51l11 -184q-37 -29 -96.5 -53t-127.5 -24q-56 0 -101 14.5t-89.5 29t-96.5 14.5
q-50 0 -87 -15.5t-86 -52.5z" />
    <glyph glyph-name="Ograve" unicode="&#xd2;" horiz-adv-x="1527" 
d="M683 -20q-207 0 -345 90.5t-195 256t-23 392.5q35 229 144 396.5t274 259t368 91.5q202 0 339 -91.5t195 -258.5t24 -396q-34 -227 -141 -393t-271.5 -256.5t-368.5 -90.5zM724 256q91 0 165.5 45.5t128 146.5t77.5 267q27 171 4 275.5t-84 152t-151 47.5
q-135 0 -236 -109.5t-141 -365.5q-24 -166 -0.5 -267t85.5 -146.5t152 -45.5zM770 1567l-334 291h345l233 -291h-244z" />
    <glyph glyph-name="Oacute" unicode="&#xd3;" horiz-adv-x="1527" 
d="M683 -20q-207 0 -345 90.5t-195 256t-23 392.5q35 229 144 396.5t274 259t368 91.5q202 0 339 -91.5t195 -258.5t24 -396q-34 -227 -141 -393t-271.5 -256.5t-368.5 -90.5zM724 256q91 0 165.5 45.5t128 146.5t77.5 267q27 171 4 275.5t-84 152t-151 47.5
q-135 0 -236 -109.5t-141 -365.5q-24 -166 -0.5 -267t85.5 -146.5t152 -45.5zM776 1567l244 291h346l-344 -291h-246z" />
    <glyph glyph-name="Ocircumflex" unicode="&#xd4;" horiz-adv-x="1527" 
d="M683 -20q-207 0 -345 90.5t-195 256t-23 392.5q35 229 144 396.5t274 259t368 91.5q202 0 339 -91.5t195 -258.5t24 -396q-34 -227 -141 -393t-271.5 -256.5t-368.5 -90.5zM724 256q91 0 165.5 45.5t128 146.5t77.5 267q27 171 4 275.5t-84 152t-151 47.5
q-135 0 -236 -109.5t-141 -365.5q-24 -166 -0.5 -267t85.5 -146.5t152 -45.5zM523 1567l271 275h232l256 -275h-253l-123 144l-144 -144h-239z" />
    <glyph glyph-name="Otilde" unicode="&#xd5;" horiz-adv-x="1527" 
d="M683 -20q-207 0 -345 90.5t-195 256t-23 392.5q35 229 144 396.5t274 259t368 91.5q202 0 339 -91.5t195 -258.5t24 -396q-34 -227 -141 -393t-271.5 -256.5t-368.5 -90.5zM724 256q91 0 165.5 45.5t128 146.5t77.5 267q27 171 4 275.5t-84 152t-151 47.5
q-135 0 -236 -109.5t-141 -365.5q-24 -166 -0.5 -267t85.5 -146.5t152 -45.5zM603 1596l-25 160q44 41 94 70t123 29q57 0 107.5 -16t96.5 -32t91 -16q54 0 102.5 25t83.5 51l11 -184q-37 -29 -96.5 -53t-127.5 -24q-56 0 -101 14.5t-89.5 29t-96.5 14.5q-50 0 -87 -15.5
t-86 -52.5z" />
    <glyph glyph-name="Odieresis" unicode="&#xd6;" horiz-adv-x="1527" 
d="M683 -20q-207 0 -345 90.5t-195 256t-23 392.5q35 229 144 396.5t274 259t368 91.5q202 0 339 -91.5t195 -258.5t24 -396q-34 -227 -141 -393t-271.5 -256.5t-368.5 -90.5zM724 256q91 0 165.5 45.5t128 146.5t77.5 267q27 171 4 275.5t-84 152t-151 47.5
q-135 0 -236 -109.5t-141 -365.5q-24 -166 -0.5 -267t85.5 -146.5t152 -45.5zM990 1594l39 264h316l-40 -264h-315zM501 1594l40 264h316l-40 -264h-316z" />
    <glyph glyph-name="multiply" unicode="&#xd7;" horiz-adv-x="1175" 
d="M242 249l-142 174l889 785l145 -173zM841 249l-651 785l194 173l655 -784z" />
    <glyph glyph-name="Oslash" unicode="&#xd8;" horiz-adv-x="1560" 
d="M99 -28l-119 147l187 165q-37 87 -47.5 196.5t8.5 238.5q34 229 142.5 396.5t273.5 259t368 91.5q135 0 239.5 -40t177.5 -116l185 162l116 -145l-197 -177q37 -86 47 -194.5t-9 -235.5q-33 -227 -140 -393t-271.5 -256.5t-368.5 -90.5q-134 0 -237.5 38.5t-177.5 109.5z
M732 250q106 0 177.5 68.5t112.5 217.5q19 67 32 143t20 164l-533 -487q49 -106 191 -106zM523 589l537 489q-22 64 -69 93t-118 29q-113 0 -188 -80t-118 -253q-16 -64 -27 -133t-17 -145z" />
    <glyph glyph-name="Ugrave" unicode="&#xd9;" horiz-adv-x="1458" 
d="M659 -20q-219 0 -337.5 74t-155.5 208.5t-9 316.5l129 867h344l-133 -886q-16 -104 7.5 -168.5t75.5 -94.5t123 -30q104 0 187.5 68.5t106.5 224.5l132 886h341l-129 -871q-27 -180 -104.5 -313.5t-218.5 -207.5t-359 -74zM762 1567l-334 291h345l233 -291h-244z" />
    <glyph glyph-name="Uacute" unicode="&#xda;" horiz-adv-x="1458" 
d="M659 -20q-219 0 -337.5 74t-155.5 208.5t-9 316.5l129 867h344l-133 -886q-16 -104 7.5 -168.5t75.5 -94.5t123 -30q104 0 187.5 68.5t106.5 224.5l132 886h341l-129 -871q-27 -180 -104.5 -313.5t-218.5 -207.5t-359 -74zM768 1567l244 291h346l-344 -291h-246z" />
    <glyph glyph-name="Ucircumflex" unicode="&#xdb;" horiz-adv-x="1458" 
d="M659 -20q-219 0 -337.5 74t-155.5 208.5t-9 316.5l129 867h344l-133 -886q-16 -104 7.5 -168.5t75.5 -94.5t123 -30q104 0 187.5 68.5t106.5 224.5l132 886h341l-129 -871q-27 -180 -104.5 -313.5t-218.5 -207.5t-359 -74zM515 1567l271 275h232l256 -275h-253l-123 144
l-144 -144h-239z" />
    <glyph glyph-name="Udieresis" unicode="&#xdc;" horiz-adv-x="1458" 
d="M659 -20q-219 0 -337.5 74t-155.5 208.5t-9 316.5l129 867h344l-133 -886q-16 -104 7.5 -168.5t75.5 -94.5t123 -30q104 0 187.5 68.5t106.5 224.5l132 886h341l-129 -871q-27 -180 -104.5 -313.5t-218.5 -207.5t-359 -74zM982 1594l39 264h316l-40 -264h-315zM493 1594
l40 264h316l-40 -264h-316z" />
    <glyph glyph-name="Yacute" unicode="&#xdd;" horiz-adv-x="1370" 
d="M429 0l89 605l-370 841h365l220 -550l381 550h370l-628 -841l-91 -605h-336zM689 1568l244 291h346l-344 -291h-246z" />
    <glyph glyph-name="Thorn" unicode="&#xde;" horiz-adv-x="1377" 
d="M75 0l204 1446h340l-38 -269h275q161 0 279.5 -49t176 -148t36.5 -248q-20 -142 -105 -241t-217.5 -151t-292.5 -52h-277l-41 -288h-340zM495 564h277q46 0 94 18.5t84 56t44 93.5q7 55 -18.5 92.5t-68.5 57t-90 19.5l-275 1z" />
    <glyph glyph-name="germandbls" unicode="&#xdf;" horiz-adv-x="1201" 
d="M651 -20q-78 0 -136.5 18.5t-97.5 46.5l118 206q23 -18 55.5 -37.5t82.5 -19.5q55 0 98 28t50 85q5 38 -10.5 62t-48 43t-79.5 41q-52 26 -92 63t-59 88.5t-10 122.5q13 76 51 128t87 93q33 28 62.5 54t50.5 54.5t26 64.5q6 46 -21.5 77.5t-92.5 31.5q-78 0 -128 -52
t-61 -134l-146 -1044h-309l136 978q16 90 53.5 173.5t103 150t163 105.5t231.5 39q128 0 212 -36t121.5 -104t22.5 -165q-9 -70 -42 -122.5t-93.5 -94t-153.5 -80.5q-17 -8 -25 -16t-11 -18q-1 -11 5 -18t24 -14q66 -34 128 -70t109.5 -84t70 -115.5t9.5 -165.5
q-16 -118 -78 -199t-157.5 -122.5t-218.5 -41.5z" />
    <glyph glyph-name="agrave" unicode="&#xe0;" horiz-adv-x="1159" 
d="M355 -20q-97 0 -170.5 37.5t-109 109.5t-20.5 176q25 169 167.5 260t415.5 92l102 1l8 53q9 62 -22.5 92t-97.5 29q-51 -1 -107 -25t-88 -86h-276q23 115 97 189t184 110t239 36q166 0 257.5 -41t123 -114t16.5 -169l-110 -730h-280l-4 170q-66 -109 -143.5 -149.5
t-181.5 -40.5zM504 199q33 0 64.5 12t58 33.5t44 47.5t23.5 56l21 141l-81 -1q-50 0 -106 -14t-98 -46.5t-51 -89.5q-9 -65 28 -102t97 -37zM560 1155l-334 291h345l233 -291h-244z" />
    <glyph glyph-name="aacute" unicode="&#xe1;" horiz-adv-x="1149" 
d="M345 -20q-97 0 -170.5 37.5t-109 109.5t-20.5 176q25 169 167.5 260t415.5 92l102 1l8 53q9 62 -22.5 92t-97.5 29q-51 -1 -107 -25t-88 -86h-276q23 115 97 189t184 110t239 36q166 0 257.5 -41t123 -114t16.5 -169l-110 -730h-280l-4 170q-66 -109 -143.5 -149.5
t-181.5 -40.5zM494 199q33 0 64.5 12t58 33.5t44 47.5t23.5 56l21 141l-81 -1q-50 0 -106 -14t-98 -46.5t-51 -89.5q-9 -65 28 -102t97 -37zM544 1155l244 291h346l-344 -291h-246z" />
    <glyph glyph-name="acircumflex" unicode="&#xe2;" horiz-adv-x="1149" 
d="M345 -20q-97 0 -170.5 37.5t-109 109.5t-20.5 176q25 169 167.5 260t415.5 92l102 1l8 53q9 62 -22.5 92t-97.5 29q-51 -1 -107 -25t-88 -86h-276q23 115 97 189t184 110t239 36q166 0 257.5 -41t123 -114t16.5 -169l-110 -730h-280l-4 170q-66 -109 -143.5 -149.5
t-181.5 -40.5zM494 199q33 0 64.5 12t58 33.5t44 47.5t23.5 56l21 141l-81 -1q-50 0 -106 -14t-98 -46.5t-51 -89.5q-9 -65 28 -102t97 -37zM287 1155l271 275h232l256 -275h-253l-123 144l-144 -144h-239z" />
    <glyph glyph-name="atilde" unicode="&#xe3;" horiz-adv-x="1149" 
d="M345 -20q-97 0 -170.5 37.5t-109 109.5t-20.5 176q25 169 167.5 260t415.5 92l102 1l8 53q9 62 -22.5 92t-97.5 29q-51 -1 -107 -25t-88 -86h-276q23 115 97 189t184 110t239 36q166 0 257.5 -41t123 -114t16.5 -169l-110 -730h-280l-4 170q-66 -109 -143.5 -149.5
t-181.5 -40.5zM494 199q33 0 64.5 12t58 33.5t44 47.5t23.5 56l21 141l-81 -1q-50 0 -106 -14t-98 -46.5t-51 -89.5q-9 -65 28 -102t97 -37zM368 1184l-25 160q44 41 94 70t123 29q57 0 107.5 -16t96.5 -32t91 -16q54 0 102.5 25t83.5 51l11 -184q-37 -29 -96.5 -53
t-127.5 -24q-56 0 -101 14.5t-89.5 29t-96.5 14.5q-50 0 -87 -15.5t-86 -52.5z" />
    <glyph glyph-name="adieresis" unicode="&#xe4;" horiz-adv-x="1149" 
d="M345 -20q-97 0 -170.5 37.5t-109 109.5t-20.5 176q25 169 167.5 260t415.5 92l102 1l8 53q9 62 -22.5 92t-97.5 29q-51 -1 -107 -25t-88 -86h-276q23 115 97 189t184 110t239 36q166 0 257.5 -41t123 -114t16.5 -169l-110 -730h-280l-4 170q-66 -109 -143.5 -149.5
t-181.5 -40.5zM494 199q33 0 64.5 12t58 33.5t44 47.5t23.5 56l21 141l-81 -1q-50 0 -106 -14t-98 -46.5t-51 -89.5q-9 -65 28 -102t97 -37zM753 1177l39 264h316l-40 -264h-315zM264 1177l40 264h316l-40 -264h-316z" />
    <glyph glyph-name="aring" unicode="&#xe5;" horiz-adv-x="1149" 
d="M893 1500l-80 -144q49 -23 74.5 -71t16.5 -111q-13 -89 -82.5 -144t-156.5 -55q-86 0 -137.5 56.5t-38.5 146.5q10 69 57.5 119t111.5 67l52 136h183zM788 1172q7 41 -16.5 68.5t-64.5 27.5q-37 0 -70 -27.5t-39 -68.5q-6 -38 18.5 -68.5t62.5 -30.5q40 0 71.5 30.5
t37.5 68.5zM345 -20q-97 0 -170.5 37.5t-109 109.5t-20.5 176q25 169 167.5 260t415.5 92l102 1l8 53q9 62 -22.5 92t-97.5 29q-51 -1 -107 -25t-88 -86h-276q23 115 97 189t184 110t239 36q166 0 257.5 -41t123 -114t16.5 -169l-110 -730h-280l-4 170
q-66 -109 -143.5 -149.5t-181.5 -40.5zM494 199q33 0 64.5 12t58 33.5t44 47.5t23.5 56l21 141l-81 -1q-50 0 -106 -14t-98 -46.5t-51 -89.5q-9 -65 28 -102t97 -37z" />
    <glyph glyph-name="ae" unicode="&#xe6;" horiz-adv-x="1802" 
d="M349 -20q-97 0 -171 37.5t-111 109.5t-22 176q23 169 165.5 260t417.5 92l102 1l8 53q8 62 -23.5 92t-100.5 29q-50 -1 -105 -25t-87 -86h-278q22 115 95.5 189t183 110t238.5 36t213 -28t127 -79q65 51 145.5 79t172.5 28q162 0 260 -68.5t135 -188t14 -273.5l-14 -85
h-660q-12 -71 3 -119.5t52.5 -73.5t91.5 -25q63 0 115 26.5t84 92.5h301q-33 -113 -116.5 -193.5t-192.5 -123.5t-219 -43q-139 0 -240.5 54t-153.5 152q-35 -65 -93 -111.5t-141.5 -70.5t-195.5 -24zM497 199q48 0 89 23t68 58.5t34 74.5l19 134l-83 -1q-49 0 -105.5 -14
t-98.5 -46.5t-50 -89.5q-9 -65 29 -102t98 -37zM1080 635h351q7 51 -6 93.5t-48 67.5t-94 25q-51 0 -94.5 -26.5t-72 -69t-36.5 -90.5z" />
    <glyph glyph-name="ccedilla" unicode="&#xe7;" horiz-adv-x="1084" 
d="M428 -432q-66 0 -127 12t-110 44l60 109q30 -19 69.5 -35t82.5 -16t70.5 15t31.5 42q6 38 -28.5 58t-130.5 21q-14 0 -18.5 3.5t3.5 17.5l99 171h141l-59 -116q77 0 119.5 -25t57 -61.5t9.5 -72.5q-7 -52 -47 -89t-99 -57.5t-124 -20.5zM489 -20q-143 0 -247 65.5
t-151.5 185.5t-23.5 281t106 282.5t206 190.5t271 69q136 0 223.5 -57.5t125.5 -153t26 -208.5h-277q1 35 -10 73t-40.5 64.5t-83.5 26.5q-86 0 -149.5 -70.5t-85.5 -212.5q-21 -140 22.5 -219t132.5 -79q53 0 90.5 29t59.5 67t29 67h270q-19 -109 -86 -200t-171 -146
t-237 -55z" />
    <glyph glyph-name="egrave" unicode="&#xe8;" horiz-adv-x="1144" 
d="M514 -20q-155 0 -262.5 65t-155 183t-23.5 277q22 151 100.5 275.5t203 199t283.5 74.5q162 0 260 -68.5t135 -188t14 -273.5l-14 -85h-660q-11 -71 3.5 -119.5t52 -73.5t92.5 -25q62 0 114 26.5t85 92.5h300q-33 -113 -116 -193.5t-192 -123.5t-220 -43zM422 635h350
q8 51 -5 93.5t-48.5 67.5t-94.5 25q-51 0 -94.5 -26.5t-71.5 -69t-36 -90.5zM542 1155l-334 291h345l233 -291h-244z" />
    <glyph glyph-name="eacute" unicode="&#xe9;" horiz-adv-x="1144" 
d="M514 -20q-155 0 -262.5 65t-155 183t-23.5 277q22 151 100.5 275.5t203 199t283.5 74.5q162 0 260 -68.5t135 -188t14 -273.5l-14 -85h-660q-11 -71 3.5 -119.5t52 -73.5t92.5 -25q62 0 114 26.5t85 92.5h300q-33 -113 -116 -193.5t-192 -123.5t-220 -43zM422 635h350
q8 51 -5 93.5t-48.5 67.5t-94.5 25q-51 0 -94.5 -26.5t-71.5 -69t-36 -90.5zM548 1155l244 291h346l-344 -291h-246z" />
    <glyph glyph-name="ecircumflex" unicode="&#xea;" horiz-adv-x="1144" 
d="M514 -20q-155 0 -262.5 65t-155 183t-23.5 277q22 151 100.5 275.5t203 199t283.5 74.5q162 0 260 -68.5t135 -188t14 -273.5l-14 -85h-660q-11 -71 3.5 -119.5t52 -73.5t92.5 -25q62 0 114 26.5t85 92.5h300q-33 -113 -116 -193.5t-192 -123.5t-220 -43zM422 635h350
q8 51 -5 93.5t-48.5 67.5t-94.5 25q-51 0 -94.5 -26.5t-71.5 -69t-36 -90.5zM295 1155l271 275h232l256 -275h-253l-123 144l-144 -144h-239z" />
    <glyph glyph-name="edieresis" unicode="&#xeb;" horiz-adv-x="1144" 
d="M514 -20q-155 0 -262.5 65t-155 183t-23.5 277q22 151 100.5 275.5t203 199t283.5 74.5q162 0 260 -68.5t135 -188t14 -273.5l-14 -85h-660q-11 -71 3.5 -119.5t52 -73.5t92.5 -25q62 0 114 26.5t85 92.5h300q-33 -113 -116 -193.5t-192 -123.5t-220 -43zM422 635h350
q8 51 -5 93.5t-48.5 67.5t-94.5 25q-51 0 -94.5 -26.5t-71.5 -69t-36 -90.5zM762 1182l39 264h316l-40 -264h-315zM273 1182l40 264h316l-40 -264h-316z" />
    <glyph glyph-name="igrave" unicode="&#xec;" horiz-adv-x="574" 
d="M40 0l156 1034h338l-156 -1034h-338zM261 1155l-227 291h320l147 -288z" />
    <glyph glyph-name="iacute" unicode="&#xed;" horiz-adv-x="574" 
d="M40 0l156 1034h338l-156 -1034h-338zM499 1155l-249 3l183 288h330z" />
    <glyph glyph-name="icircumflex" unicode="&#xee;" horiz-adv-x="574" 
d="M40 0l156 1034h338l-156 -1034h-338zM7 1155l271 275h232l256 -275h-253l-123 144l-144 -144h-239z" />
    <glyph glyph-name="idieresis" unicode="&#xef;" horiz-adv-x="574" 
d="M40 0l156 1034h338l-156 -1034h-338zM474 1182l39 264h316l-40 -264h-315zM-15 1182l40 264h316l-40 -264h-316z" />
    <glyph glyph-name="eth" unicode="&#xf0;" horiz-adv-x="1153" 
d="M514 -20q-139 0 -240.5 57t-156 160t-54.5 242q0 85 28.5 185t93.5 190.5t171.5 148t259.5 57.5q147 0 223.5 -76t81.5 -218l-179 175q-3 93 -39 188.5t-100 193.5t-152 198h262q117 -86 203.5 -211t134.5 -275t48 -311q0 -127 -33.5 -252t-104 -227t-181.5 -163.5
t-266 -61.5zM542 230q63 0 105.5 36.5t67.5 93.5t35.5 119t10.5 112q0 94 -36.5 143t-108.5 49q-63 0 -105.5 -35.5t-67.5 -90.5t-36 -115.5t-11 -111.5q0 -93 36.5 -146.5t109.5 -53.5zM386 1088l-23 141l752 212l24 -141z" />
    <glyph glyph-name="ntilde" unicode="&#xf1;" horiz-adv-x="1193" 
d="M40 0l156 1034h332l-18 -129q36 36 75.5 66.5t94 50t134.5 19.5q91 0 165.5 -44t114 -122.5t23.5 -180.5l-104 -694h-339l98 650q10 60 -29 93.5t-93 33.5q-37 0 -75 -14t-65 -40.5t-32 -64.5l-100 -658h-338zM401 1184l-25 160q44 41 94 70t123 29q57 0 107.5 -16
t96.5 -32t91 -16q54 0 102.5 25t83.5 51l11 -184q-37 -29 -96.5 -53t-127.5 -24q-56 0 -101 14.5t-89.5 29t-96.5 14.5q-50 0 -87 -15.5t-86 -52.5z" />
    <glyph glyph-name="ograve" unicode="&#xf2;" horiz-adv-x="1145" 
d="M491 -20q-152 0 -255.5 66.5t-147.5 186t-21 278.5q24 162 106 284.5t206 190.5t274 68q156 0 258.5 -68.5t146 -191t19.5 -283.5q-24 -155 -103 -274.5t-202 -188t-281 -68.5zM533 230q67 0 111 43.5t69.5 111t35.5 137.5q11 69 5 135t-37 108.5t-101 42.5
q-69 0 -114 -41.5t-69.5 -107t-34.5 -137.5q-10 -68 -5 -135.5t36.5 -112t103.5 -44.5zM529 1155l-334 291h345l233 -291h-244z" />
    <glyph glyph-name="oacute" unicode="&#xf3;" horiz-adv-x="1145" 
d="M491 -20q-152 0 -255.5 66.5t-147.5 186t-21 278.5q24 162 106 284.5t206 190.5t274 68q156 0 258.5 -68.5t146 -191t19.5 -283.5q-24 -155 -103 -274.5t-202 -188t-281 -68.5zM533 230q67 0 111 43.5t69.5 111t35.5 137.5q11 69 5 135t-37 108.5t-101 42.5
q-69 0 -114 -41.5t-69.5 -107t-34.5 -137.5q-10 -68 -5 -135.5t36.5 -112t103.5 -44.5zM535 1155l244 291h346l-344 -291h-246z" />
    <glyph glyph-name="ocircumflex" unicode="&#xf4;" horiz-adv-x="1145" 
d="M491 -20q-152 0 -255.5 66.5t-147.5 186t-21 278.5q24 162 106 284.5t206 190.5t274 68q156 0 258.5 -68.5t146 -191t19.5 -283.5q-24 -155 -103 -274.5t-202 -188t-281 -68.5zM533 230q67 0 111 43.5t69.5 111t35.5 137.5q11 69 5 135t-37 108.5t-101 42.5
q-69 0 -114 -41.5t-69.5 -107t-34.5 -137.5q-10 -68 -5 -135.5t36.5 -112t103.5 -44.5zM282 1155l271 275h232l256 -275h-253l-123 144l-144 -144h-239z" />
    <glyph glyph-name="otilde" unicode="&#xf5;" horiz-adv-x="1145" 
d="M491 -20q-152 0 -255.5 66.5t-147.5 186t-21 278.5q24 162 106 284.5t206 190.5t274 68q156 0 258.5 -68.5t146 -191t19.5 -283.5q-24 -155 -103 -274.5t-202 -188t-281 -68.5zM533 230q67 0 111 43.5t69.5 111t35.5 137.5q11 69 5 135t-37 108.5t-101 42.5
q-69 0 -114 -41.5t-69.5 -107t-34.5 -137.5q-10 -68 -5 -135.5t36.5 -112t103.5 -44.5zM362 1184l-25 160q44 41 94 70t123 29q57 0 107.5 -16t96.5 -32t91 -16q54 0 102.5 25t83.5 51l11 -184q-37 -29 -96.5 -53t-127.5 -24q-56 0 -101 14.5t-89.5 29t-96.5 14.5
q-50 0 -87 -15.5t-86 -52.5z" />
    <glyph glyph-name="odieresis" unicode="&#xf6;" horiz-adv-x="1145" 
d="M491 -20q-152 0 -255.5 66.5t-147.5 186t-21 278.5q24 162 106 284.5t206 190.5t274 68q156 0 258.5 -68.5t146 -191t19.5 -283.5q-24 -155 -103 -274.5t-202 -188t-281 -68.5zM533 230q67 0 111 43.5t69.5 111t35.5 137.5q11 69 5 135t-37 108.5t-101 42.5
q-69 0 -114 -41.5t-69.5 -107t-34.5 -137.5q-10 -68 -5 -135.5t36.5 -112t103.5 -44.5zM749 1182l39 264h316l-40 -264h-315zM260 1182l40 264h316l-40 -264h-316z" />
    <glyph glyph-name="divide" unicode="&#xf7;" horiz-adv-x="1195" 
d="M125 605l37 245h967l-37 -244zM375 153l49 324h333l-48 -324h-334zM500 979l49 324h334l-49 -324h-334z" />
    <glyph glyph-name="oslash" unicode="&#xf8;" horiz-adv-x="1160" 
d="M102 -16l-106 113l1015 951l104 -113zM495 -20q-153 0 -256.5 66.5t-147.5 186t-21 278.5q25 162 106.5 284.5t205.5 190.5t275 68q155 0 258 -68.5t146 -191t19 -283.5q-24 -155 -103 -274.5t-202 -188t-280 -68.5zM536 230q67 0 111.5 43.5t70 111t35.5 137.5
q10 69 4.5 135t-37 108.5t-100.5 42.5q-70 0 -114.5 -41.5t-69.5 -107t-35 -137.5q-9 -68 -4.5 -135.5t36.5 -112t103 -44.5z" />
    <glyph glyph-name="ugrave" unicode="&#xf9;" horiz-adv-x="1196" 
d="M414 -20q-66 0 -131 22t-116.5 64.5t-78 104t-15.5 141.5l101 722h340l-95 -676q-8 -58 25.5 -96.5t106.5 -38.5q71 0 117.5 37.5t54.5 99.5l95 674h337l-145 -1034h-253l-11 209q-31 -97 -89.5 -146.5t-123.5 -66t-119 -16.5zM549 1155l-334 291h345l233 -291h-244z" />
    <glyph glyph-name="uacute" unicode="&#xfa;" horiz-adv-x="1196" 
d="M414 -20q-66 0 -131 22t-116.5 64.5t-78 104t-15.5 141.5l101 722h340l-95 -676q-8 -58 25.5 -96.5t106.5 -38.5q71 0 117.5 37.5t54.5 99.5l95 674h337l-145 -1034h-253l-11 209q-31 -97 -89.5 -146.5t-123.5 -66t-119 -16.5zM555 1155l244 291h346l-344 -291h-246z" />
    <glyph glyph-name="ucircumflex" unicode="&#xfb;" horiz-adv-x="1196" 
d="M414 -20q-66 0 -131 22t-116.5 64.5t-78 104t-15.5 141.5l101 722h340l-95 -676q-8 -58 25.5 -96.5t106.5 -38.5q71 0 117.5 37.5t54.5 99.5l95 674h337l-145 -1034h-253l-11 209q-31 -97 -89.5 -146.5t-123.5 -66t-119 -16.5zM302 1155l271 275h232l256 -275h-253
l-123 144l-144 -144h-239z" />
    <glyph glyph-name="udieresis" unicode="&#xfc;" horiz-adv-x="1196" 
d="M414 -20q-66 0 -131 22t-116.5 64.5t-78 104t-15.5 141.5l101 722h340l-95 -676q-8 -58 25.5 -96.5t106.5 -38.5q71 0 117.5 37.5t54.5 99.5l95 674h337l-145 -1034h-253l-11 209q-31 -97 -89.5 -146.5t-123.5 -66t-119 -16.5zM769 1182l39 264h316l-40 -264h-315z
M280 1182l40 264h316l-40 -264h-316z" />
    <glyph glyph-name="yacute" unicode="&#xfd;" horiz-adv-x="1134" 
d="M166 -330q-111 0 -155.5 20l-44.5 20l31 216l99 -5q94 -7 140 12t63 44t22 36l18 39l-249 982h333l123 -618l314 618h330l-552 -1007q-83 -147 -159 -224.5t-152.5 -105t-160.5 -27.5zM521 1155l244 291h346l-344 -291h-246z" />
    <glyph glyph-name="thorn" unicode="&#xfe;" horiz-adv-x="1214" 
d="M-5 -322l265 1768h340l-79 -537q42 40 88.5 73t103.5 52.5t129 19.5q110 0 188 -57t111.5 -175t5.5 -299q-28 -193 -99 -312.5t-170 -175t-211 -55.5q-70 0 -128 22.5t-108 77.5q-20 20 -26.5 19t-11.5 -30l-60 -391h-338zM569 191q58 0 104.5 31.5t80.5 106t53 202.5
q18 120 5.5 188t-49 96t-94.5 28q-45 0 -84.5 -19t-65.5 -49.5t-32 -66.5l-63 -428q24 -40 58.5 -64.5t86.5 -24.5z" />
    <glyph glyph-name="ydieresis" unicode="&#xff;" horiz-adv-x="1134" 
d="M166 -330q-111 0 -155.5 20l-44.5 20l31 216l99 -5q94 -7 140 12t63 44t22 36l18 39l-249 982h333l123 -618l314 618h330l-552 -1007q-83 -147 -159 -224.5t-152.5 -105t-160.5 -27.5zM735 1182l39 264h316l-40 -264h-315zM246 1182l40 264h316l-40 -264h-316z" />
    <glyph glyph-name="Amacron" unicode="&#x100;" horiz-adv-x="1447" 
d="M-30 0l724 1446h348l289 -1446h-334l-58 308h-478l-153 -308h-338zM578 601h326l-84 518zM529 1604l32 212h742l-32 -212h-742z" />
    <glyph glyph-name="amacron" unicode="&#x101;" horiz-adv-x="1149" 
d="M345 -20q-97 0 -170.5 37.5t-109 109.5t-20.5 176q25 169 167.5 260t415.5 92l102 1l8 53q9 62 -22.5 92t-97.5 29q-51 -1 -107 -25t-88 -86h-276q23 115 97 189t184 110t239 36q166 0 257.5 -41t123 -114t16.5 -169l-110 -730h-280l-4 170q-66 -109 -143.5 -149.5
t-181.5 -40.5zM494 199q33 0 64.5 12t58 33.5t44 47.5t23.5 56l21 141l-81 -1q-50 0 -106 -14t-98 -46.5t-51 -89.5q-9 -65 28 -102t97 -37zM310 1192l32 212h742l-32 -212h-742z" />
    <glyph glyph-name="Abreve" unicode="&#x102;" horiz-adv-x="1447" 
d="M-30 0l724 1446h348l289 -1446h-334l-58 308h-478l-153 -308h-338zM578 601h326l-84 518zM887 1568q-84 0 -153.5 30t-115 90.5t-57.5 151.5h191q13 -31 33 -56.5t51 -41t74 -15.5q66 0 113.5 33t81.5 80h191q-40 -88 -103 -148.5t-142 -92t-164 -31.5z" />
    <glyph glyph-name="abreve" unicode="&#x103;" horiz-adv-x="1149" 
d="M345 -20q-97 0 -170.5 37.5t-109 109.5t-20.5 176q25 169 167.5 260t415.5 92l102 1l8 53q9 62 -22.5 92t-97.5 29q-51 -1 -107 -25t-88 -86h-276q23 115 97 189t184 110t239 36q166 0 257.5 -41t123 -114t16.5 -169l-110 -730h-280l-4 170q-66 -109 -143.5 -149.5
t-181.5 -40.5zM494 199q33 0 64.5 12t58 33.5t44 47.5t23.5 56l21 141l-81 -1q-50 0 -106 -14t-98 -46.5t-51 -89.5q-9 -65 28 -102t97 -37zM667 1155q-84 0 -153.5 30t-115 90.5t-57.5 151.5h191q13 -31 33 -56.5t51 -41t74 -15.5q66 0 113.5 33t81.5 80h191
q-40 -88 -103 -148.5t-142 -92t-164 -31.5z" />
    <glyph glyph-name="Aogonek" unicode="&#x104;" horiz-adv-x="1447" 
d="M-30 0l724 1446h348l289 -1446h-334l-58 308h-478l-153 -308h-338zM578 601h326l-84 518zM1085 -346q-103 0 -157.5 41.5t-42.5 125.5q8 52 50.5 98.5t160.5 86.5l234 -3q-112 -38 -153.5 -69t-47.5 -68q-4 -30 8.5 -45t44.5 -15q44 0 79 14t70 33l-21 -148
q-32 -18 -93.5 -34.5t-131.5 -16.5z" />
    <glyph glyph-name="aogonek" unicode="&#x105;" horiz-adv-x="1135" 
d="M345 -20q-97 0 -170.5 37.5t-109 109.5t-20.5 176q25 169 167.5 260t415.5 92l102 1l8 53q9 62 -22.5 92t-97.5 29q-51 -1 -107 -25t-88 -86h-276q23 115 97 189t184 110t239 36q166 0 257.5 -41t123 -114t16.5 -169l-110 -730h-280l-4 170q-66 -109 -143.5 -149.5
t-181.5 -40.5zM494 199q33 0 64.5 12t58 33.5t44 47.5t23.5 56l21 141l-81 -1q-50 0 -106 -14t-98 -46.5t-51 -89.5q-9 -65 28 -102t97 -37zM688 -337q-103 0 -157.5 41.5t-42.5 125.5q8 52 50.5 98.5t160.5 86.5l234 -3q-112 -38 -153.5 -69t-47.5 -68q-4 -30 8.5 -45
t44.5 -15q44 0 79 14t70 33l-21 -148q-32 -18 -93.5 -34.5t-131.5 -16.5z" />
    <glyph glyph-name="Cacute" unicode="&#x106;" horiz-adv-x="1449" 
d="M673 -20q-182 0 -308.5 79t-191 221t-59.5 333q3 165 54.5 318t149.5 273.5t242 191t334 70.5q163 0 280.5 -62.5t180.5 -178t62 -274.5h-352q-2 72 -27.5 125.5t-74.5 83.5t-123 30q-97 0 -164 -53t-109 -140.5t-62.5 -191.5t-23.5 -208q-7 -180 53 -260.5t170 -80.5
q74 0 132.5 36t100 96.5t63.5 131.5h354q-30 -107 -80.5 -204.5t-129.5 -173.5t-194 -119t-277 -43zM781 1567l244 291h346l-344 -291h-246z" />
    <glyph glyph-name="cacute" unicode="&#x107;" horiz-adv-x="1066" 
d="M489 -20q-143 0 -247 65.5t-151.5 185.5t-23.5 281t106 282.5t206 190.5t271 69q136 0 223.5 -57.5t125.5 -153t26 -208.5h-277q1 35 -10 73t-40.5 64.5t-83.5 26.5q-86 0 -149.5 -70.5t-85.5 -212.5q-21 -140 22.5 -219t132.5 -79q53 0 90.5 29t59.5 67t29 67h270
q-19 -109 -86 -200t-171 -146t-237 -55zM521 1155l244 291h346l-344 -291h-246z" />
    <glyph glyph-name="Ccircumflex" unicode="&#x108;" horiz-adv-x="1449" 
d="M673 -20q-182 0 -308.5 79t-191 221t-59.5 333q3 165 54.5 318t149.5 273.5t242 191t334 70.5q163 0 280.5 -62.5t180.5 -178t62 -274.5h-352q-2 72 -27.5 125.5t-74.5 83.5t-123 30q-97 0 -164 -53t-109 -140.5t-62.5 -191.5t-23.5 -208q-7 -180 53 -260.5t170 -80.5
q74 0 132.5 36t100 96.5t63.5 131.5h354q-30 -107 -80.5 -204.5t-129.5 -173.5t-194 -119t-277 -43zM528 1567l271 275h232l256 -275h-253l-123 144l-144 -144h-239z" />
    <glyph glyph-name="ccircumflex" unicode="&#x109;" horiz-adv-x="1084" 
d="M489 -20q-143 0 -247 65.5t-151.5 185.5t-23.5 281t106 282.5t206 190.5t271 69q136 0 223.5 -57.5t125.5 -153t26 -208.5h-277q1 35 -10 73t-40.5 64.5t-83.5 26.5q-86 0 -149.5 -70.5t-85.5 -212.5q-21 -140 22.5 -219t132.5 -79q53 0 90.5 29t59.5 67t29 67h270
q-19 -109 -86 -200t-171 -146t-237 -55zM285 1155l271 275h232l256 -275h-253l-123 144l-144 -144h-239z" />
    <glyph glyph-name="Cdotaccent" unicode="&#x10a;" horiz-adv-x="1449" 
d="M673 -20q-182 0 -308.5 79t-191 221t-59.5 333q3 165 54.5 318t149.5 273.5t242 191t334 70.5q163 0 280.5 -62.5t180.5 -178t62 -274.5h-352q-2 72 -27.5 125.5t-74.5 83.5t-123 30q-97 0 -164 -53t-109 -140.5t-62.5 -191.5t-23.5 -208q-7 -180 53 -260.5t170 -80.5
q74 0 132.5 36t100 96.5t63.5 131.5h354q-30 -107 -80.5 -204.5t-129.5 -173.5t-194 -119t-277 -43zM753 1594l40 264h315l-39 -264h-316z" />
    <glyph glyph-name="cdotaccent" unicode="&#x10b;" horiz-adv-x="1084" 
d="M489 -20q-143 0 -247 65.5t-151.5 185.5t-23.5 281t106 282.5t206 190.5t271 69q136 0 223.5 -57.5t125.5 -153t26 -208.5h-277q1 35 -10 73t-40.5 64.5t-83.5 26.5q-86 0 -149.5 -70.5t-85.5 -212.5q-21 -140 22.5 -219t132.5 -79q53 0 90.5 29t59.5 67t29 67h270
q-19 -109 -86 -200t-171 -146t-237 -55zM511 1182l40 264h315l-39 -264h-316z" />
    <glyph glyph-name="Ccaron" unicode="&#x10c;" horiz-adv-x="1449" 
d="M673 -20q-182 0 -308.5 79t-191 221t-59.5 333q3 165 54.5 318t149.5 273.5t242 191t334 70.5q163 0 280.5 -62.5t180.5 -178t62 -274.5h-352q-2 72 -27.5 125.5t-74.5 83.5t-123 30q-97 0 -164 -53t-109 -140.5t-62.5 -191.5t-23.5 -208q-7 -180 53 -260.5t170 -80.5
q74 0 132.5 36t100 96.5t63.5 131.5h354q-30 -107 -80.5 -204.5t-129.5 -173.5t-194 -119t-277 -43zM786 1567l-226 277h239l120 -157l148 157h252l-299 -277h-234z" />
    <glyph glyph-name="ccaron" unicode="&#x10d;" horiz-adv-x="1084" 
d="M489 -20q-143 0 -247 65.5t-151.5 185.5t-23.5 281t106 282.5t206 190.5t271 69q136 0 223.5 -57.5t125.5 -153t26 -208.5h-277q1 35 -10 73t-40.5 64.5t-83.5 26.5q-86 0 -149.5 -70.5t-85.5 -212.5q-21 -140 22.5 -219t132.5 -79q53 0 90.5 29t59.5 67t29 67h270
q-19 -109 -86 -200t-171 -146t-237 -55zM543 1155l-226 277h239l120 -157l148 157h252l-299 -277h-234z" />
    <glyph glyph-name="Dcaron" unicode="&#x10e;" horiz-adv-x="1453" 
d="M76 0l209 1446h69h127q147 0 283 -10t251.5 -40.5t202.5 -93.5t134.5 -169.5t47.5 -267.5q0 -77 -14 -170t-48.5 -190t-96 -187t-155.5 -161.5t-226.5 -114t-310.5 -42.5h-473zM457 271h126q106 0 192.5 47t148 128.5t95 188.5t33.5 227q0 108 -38 177t-108.5 102.5
t-169.5 33.5h-145zM862 1567l-226 277h239l120 -157l148 157h252l-299 -277h-234z" />
    <glyph glyph-name="dcaron" unicode="&#x10f;" horiz-adv-x="1212" 
d="M430 -20q-209 0 -302.5 146t-58.5 397q33 245 158 388t317 143q46 0 88.5 -10t78.5 -28.5t63.5 -46t43.5 -64.5l81 581h340l-206 -1486h-243l-10 212q-22 -48 -54 -90.5t-75 -74t-97.5 -49.5t-123.5 -18zM541 221q87 0 144 68t80 236q14 99 1 162.5t-48.5 93.5t-93.5 30
q-78 0 -141 -64.5t-84 -221.5q-23 -162 19 -233t123 -71zM1273 1028l114 210l-75 13l36 235h217l-37 -247l-119 -211h-136z" />
    <glyph glyph-name="Dcroat" unicode="&#x110;" horiz-adv-x="1581" 
d="M82 590l34 244h819l-34 -244h-819zM204 0l209 1446h69h127q147 0 283 -10t251.5 -40.5t202.5 -93.5t134.5 -169.5t47.5 -267.5q0 -77 -14 -170t-48.5 -190t-96 -187t-155.5 -161.5t-226.5 -114t-310.5 -42.5h-473zM585 271h126q106 0 192.5 47t148 128.5t95 188.5
t33.5 227q0 108 -38 177t-108.5 102.5t-169.5 33.5h-145z" />
    <glyph glyph-name="dcroat" unicode="&#x111;" horiz-adv-x="1266" 
d="M595 1146l24 186h698l-23 -186h-699zM430 -20q-209 0 -302.5 146t-58.5 397q33 245 158 388t317 143q46 0 88.5 -10t78.5 -28.5t63.5 -46t43.5 -64.5l81 581h340l-206 -1486h-243l-10 212q-22 -48 -54 -90.5t-75 -74t-97.5 -49.5t-123.5 -18zM541 221q87 0 144 68t80 236
q14 99 1 162.5t-48.5 93.5t-93.5 30q-78 0 -141 -64.5t-84 -221.5q-23 -162 19 -233t123 -71z" />
    <glyph glyph-name="Emacron" unicode="&#x112;" horiz-adv-x="1278" 
d="M75 0l219 1446h1013l-44 -284h-673l-44 -295h573l-42 -278h-574l-46 -302l683 -1l-44 -286h-1021zM439 1604l32 212h742l-32 -212h-742z" />
    <glyph glyph-name="emacron" unicode="&#x113;" horiz-adv-x="1144" 
d="M514 -20q-155 0 -262.5 65t-155 183t-23.5 277q22 151 100.5 275.5t203 199t283.5 74.5q162 0 260 -68.5t135 -188t14 -273.5l-14 -85h-660q-11 -71 3.5 -119.5t52 -73.5t92.5 -25q62 0 114 26.5t85 92.5h300q-33 -113 -116 -193.5t-192 -123.5t-220 -43zM422 635h350
q8 51 -5 93.5t-48.5 67.5t-94.5 25q-51 0 -94.5 -26.5t-71.5 -69t-36 -90.5zM318 1192l32 212h742l-32 -212h-742z" />
    <glyph glyph-name="Ebreve" unicode="&#x114;" horiz-adv-x="1278" 
d="M75 0l219 1446h1013l-44 -284h-673l-44 -295h573l-42 -278h-574l-46 -302l683 -1l-44 -286h-1021zM797 1568q-84 0 -153.5 30t-115 90.5t-57.5 151.5h191q13 -31 33 -56.5t51 -41t74 -15.5q66 0 113.5 33t81.5 80h191q-40 -88 -103 -148.5t-142 -92t-164 -31.5z" />
    <glyph glyph-name="ebreve" unicode="&#x115;" horiz-adv-x="1144" 
d="M514 -20q-155 0 -262.5 65t-155 183t-23.5 277q22 151 100.5 275.5t203 199t283.5 74.5q162 0 260 -68.5t135 -188t14 -273.5l-14 -85h-660q-11 -71 3.5 -119.5t52 -73.5t92.5 -25q62 0 114 26.5t85 92.5h300q-33 -113 -116 -193.5t-192 -123.5t-220 -43zM422 635h350
q8 51 -5 93.5t-48.5 67.5t-94.5 25q-51 0 -94.5 -26.5t-71.5 -69t-36 -90.5zM675 1156q-84 0 -153.5 30t-115 90.5t-57.5 151.5h191q13 -31 33 -56.5t51 -41t74 -15.5q66 0 113.5 33t81.5 80h191q-40 -88 -103 -148.5t-142 -92t-164 -31.5z" />
    <glyph glyph-name="Edotaccent" unicode="&#x116;" horiz-adv-x="1278" 
d="M75 0l219 1446h1013l-44 -284h-673l-44 -295h573l-42 -278h-574l-46 -302l683 -1l-44 -286h-1021zM642 1594l40 264h315l-39 -264h-316z" />
    <glyph glyph-name="edotaccent" unicode="&#x117;" horiz-adv-x="1144" 
d="M514 -20q-155 0 -262.5 65t-155 183t-23.5 277q22 151 100.5 275.5t203 199t283.5 74.5q162 0 260 -68.5t135 -188t14 -273.5l-14 -85h-660q-11 -71 3.5 -119.5t52 -73.5t92.5 -25q62 0 114 26.5t85 92.5h300q-33 -113 -116 -193.5t-192 -123.5t-220 -43zM422 635h350
q8 51 -5 93.5t-48.5 67.5t-94.5 25q-51 0 -94.5 -26.5t-71.5 -69t-36 -90.5zM521 1182l40 264h315l-39 -264h-316z" />
    <glyph glyph-name="Eogonek" unicode="&#x118;" horiz-adv-x="1278" 
d="M75 0l219 1446h1013l-44 -284h-673l-44 -295h573l-42 -278h-574l-46 -302l683 -1l-44 -286h-1021zM848 -339q-103 0 -157.5 41.5t-42.5 125.5q8 52 50.5 98.5t160.5 86.5l234 -3q-112 -38 -153.5 -69t-47.5 -68q-4 -30 8.5 -45t44.5 -15q44 0 79 14t70 33l-21 -148
q-32 -18 -93.5 -34.5t-131.5 -16.5z" />
    <glyph glyph-name="eogonek" unicode="&#x119;" horiz-adv-x="1144" 
d="M660 1054q162 0 260.5 -68.5t136 -188t12.5 -273.5l-14 -85h-660q-11 -71 3.5 -119.5t52 -73.5t92.5 -25q62 0 114 26.5t85 92.5h300q-32 -112 -103.5 -183.5t-175.5 -121.5q-75 -35 -120.5 -66.5t-51.5 -67.5q-3 -30 9 -45t44 -15q44 0 79 14t70 33l-21 -148
q-32 -18 -93.5 -34.5t-131.5 -16.5q-103 0 -157.5 42t-42.5 125q5 35 31.5 67.5t67.5 60.5q-134 14 -225.5 81.5t-131 180t-16.5 259.5q22 151 100.5 275.5t203 199t283.5 74.5zM422 635h350q8 51 -5 93.5t-48.5 67.5t-94.5 25q-51 0 -94.5 -26.5t-71.5 -69t-36 -90.5z" />
    <glyph glyph-name="Ecaron" unicode="&#x11a;" horiz-adv-x="1278" 
d="M75 0l219 1446h1013l-44 -284h-673l-44 -295h573l-42 -278h-574l-46 -302l683 -1l-44 -286h-1021zM675 1567l-226 277h239l120 -157l148 157h252l-299 -277h-234z" />
    <glyph glyph-name="ecaron" unicode="&#x11b;" horiz-adv-x="1125" 
d="M514 -20q-155 0 -262.5 65t-155 183t-23.5 277q22 151 100.5 275.5t203 199t283.5 74.5q162 0 260 -68.5t135 -188t14 -273.5l-14 -85h-660q-11 -71 3.5 -119.5t52 -73.5t92.5 -25q62 0 114 26.5t85 92.5h300q-33 -113 -116 -193.5t-192 -123.5t-220 -43zM422 635h350
q8 51 -5 93.5t-48.5 67.5t-94.5 25q-51 0 -94.5 -26.5t-71.5 -69t-36 -90.5zM546 1155l-226 277h239l120 -157l148 157h252l-299 -277h-234z" />
    <glyph glyph-name="Gcircumflex" unicode="&#x11c;" horiz-adv-x="1523" 
d="M665 -20q-199 0 -333 92t-190.5 258t-22.5 388q35 228 146 396t277 260t367 92q180 0 302.5 -73.5t180.5 -191.5t41 -250h-354q-3 64 -28.5 116.5t-73 83.5t-120.5 31q-83 0 -158 -44t-130.5 -143.5t-81.5 -266.5q-20 -138 -5.5 -226t53.5 -137t92.5 -68.5t108.5 -19.5
q51 0 95 17t79 44t59 59t35 64l25 70h-270l36 232l624 -3l-113 -760h-226l25 174q-43 -43 -101 -88t-140 -75.5t-199 -30.5zM530 1567l271 275h232l256 -275h-253l-123 144l-144 -144h-239z" />
    <glyph glyph-name="gcircumflex" unicode="&#x11d;" horiz-adv-x="1248" 
d="M501 -342q-294 0 -433.5 75.5t-123.5 189.5q7 48 38.5 79t71 49.5t72.5 28t43 13.5q-11 7 -41 26t-54 55.5t-16 93.5q7 51 65 96t179 65q-94 47 -137.5 136t-30.5 180q13 92 82.5 160.5t184.5 106.5t264 38q113 0 177.5 -24t111.5 -55q30 12 72.5 28t90 34.5t95 36.5
t86.5 34l-29 -255l-183 -35q11 -58 5 -104q-12 -84 -75 -160t-173 -123.5t-264 -47.5q-27 0 -64.5 2t-54.5 3q-41 1 -60.5 -1.5t-18.5 -17.5q4 -25 44 -35.5t104 -16.5q35 -3 90.5 -5.5t115.5 -7.5q205 -13 292 -102.5t70 -216.5q-20 -141 -169.5 -232t-426.5 -91zM550 -158
q116 0 164.5 29.5t55.5 78.5q4 33 -26 53t-96 24l-207 14q-50 2 -86 -13t-56 -40t-24 -55q-7 -50 59.5 -70.5t215.5 -20.5zM585 563q73 0 125.5 47.5t62.5 123.5q10 62 -21 103t-93 41q-73 0 -127 -52t-65 -129q-8 -61 23 -97.5t95 -36.5zM380 1155l271 275h232l256 -275
h-253l-123 144l-144 -144h-239z" />
    <glyph glyph-name="Gbreve" unicode="&#x11e;" horiz-adv-x="1523" 
d="M665 -20q-199 0 -333 92t-190.5 258t-22.5 388q35 228 146 396t277 260t367 92q180 0 302.5 -73.5t180.5 -191.5t41 -250h-354q-3 64 -28.5 116.5t-73 83.5t-120.5 31q-83 0 -158 -44t-130.5 -143.5t-81.5 -266.5q-20 -138 -5.5 -226t53.5 -137t92.5 -68.5t108.5 -19.5
q51 0 95 17t79 44t59 59t35 64l25 70h-270l36 232l624 -3l-113 -760h-226l25 174q-43 -43 -101 -88t-140 -75.5t-199 -30.5zM911 1568q-84 0 -153.5 30t-115 90.5t-57.5 151.5h191q13 -31 33 -56.5t51 -41t74 -15.5q66 0 113.5 33t81.5 80h191q-40 -88 -103 -148.5t-142 -92
t-164 -31.5z" />
    <glyph glyph-name="gbreve" unicode="&#x11f;" horiz-adv-x="1248" 
d="M501 -342q-294 0 -433.5 75.5t-123.5 189.5q7 48 38.5 79t71 49.5t72.5 28t43 13.5q-11 7 -41 26t-54 55.5t-16 93.5q7 51 65 96t179 65q-94 47 -137.5 136t-30.5 180q13 92 82.5 160.5t184.5 106.5t264 38q113 0 177.5 -24t111.5 -55q30 12 72.5 28t90 34.5t95 36.5
t86.5 34l-29 -255l-183 -35q11 -58 5 -104q-12 -84 -75 -160t-173 -123.5t-264 -47.5q-27 0 -64.5 2t-54.5 3q-41 1 -60.5 -1.5t-18.5 -17.5q4 -25 44 -35.5t104 -16.5q35 -3 90.5 -5.5t115.5 -7.5q205 -13 292 -102.5t70 -216.5q-20 -141 -169.5 -232t-426.5 -91zM550 -158
q116 0 164.5 29.5t55.5 78.5q4 33 -26 53t-96 24l-207 14q-50 2 -86 -13t-56 -40t-24 -55q-7 -50 59.5 -70.5t215.5 -20.5zM585 563q73 0 125.5 47.5t62.5 123.5q10 62 -21 103t-93 41q-73 0 -127 -52t-65 -129q-8 -61 23 -97.5t95 -36.5zM760 1156q-84 0 -153.5 30
t-115 90.5t-57.5 151.5h191q13 -31 33 -56.5t51 -41t74 -15.5q66 0 113.5 33t81.5 80h191q-40 -88 -103 -148.5t-142 -92t-164 -31.5z" />
    <glyph glyph-name="Gdotaccent" unicode="&#x120;" horiz-adv-x="1523" 
d="M665 -20q-199 0 -333 92t-190.5 258t-22.5 388q35 228 146 396t277 260t367 92q180 0 302.5 -73.5t180.5 -191.5t41 -250h-354q-3 64 -28.5 116.5t-73 83.5t-120.5 31q-83 0 -158 -44t-130.5 -143.5t-81.5 -266.5q-20 -138 -5.5 -226t53.5 -137t92.5 -68.5t108.5 -19.5
q51 0 95 17t79 44t59 59t35 64l25 70h-270l36 232l624 -3l-113 -760h-226l25 174q-43 -43 -101 -88t-140 -75.5t-199 -30.5zM756 1594l40 264h315l-39 -264h-316z" />
    <glyph glyph-name="gdotaccent" unicode="&#x121;" horiz-adv-x="1248" 
d="M501 -342q-294 0 -433.5 75.5t-123.5 189.5q7 48 38.5 79t71 49.5t72.5 28t43 13.5q-11 7 -41 26t-54 55.5t-16 93.5q7 51 65 96t179 65q-94 47 -137.5 136t-30.5 180q13 92 82.5 160.5t184.5 106.5t264 38q113 0 177.5 -24t111.5 -55q30 12 72.5 28t90 34.5t95 36.5
t86.5 34l-29 -255l-183 -35q11 -58 5 -104q-12 -84 -75 -160t-173 -123.5t-264 -47.5q-27 0 -64.5 2t-54.5 3q-41 1 -60.5 -1.5t-18.5 -17.5q4 -25 44 -35.5t104 -16.5q35 -3 90.5 -5.5t115.5 -7.5q205 -13 292 -102.5t70 -216.5q-20 -141 -169.5 -232t-426.5 -91zM550 -158
q116 0 164.5 29.5t55.5 78.5q4 33 -26 53t-96 24l-207 14q-50 2 -86 -13t-56 -40t-24 -55q-7 -50 59.5 -70.5t215.5 -20.5zM585 563q73 0 125.5 47.5t62.5 123.5q10 62 -21 103t-93 41q-73 0 -127 -52t-65 -129q-8 -61 23 -97.5t95 -36.5zM606 1182l40 264h315l-39 -264
h-316z" />
    <glyph glyph-name="uni0122" unicode="&#x122;" horiz-adv-x="1523" 
d="M665 -20q-199 0 -333 92t-190.5 258t-22.5 388q35 228 146 396t277 260t367 92q180 0 302.5 -73.5t180.5 -191.5t41 -250h-354q-3 64 -28.5 116.5t-73 83.5t-120.5 31q-83 0 -158 -44t-130.5 -143.5t-81.5 -266.5q-20 -138 -5.5 -226t53.5 -137t92.5 -68.5t108.5 -19.5
q51 0 95 17t79 44t59 59t35 64l25 70h-270l36 232l624 -3l-113 -760h-226l25 174q-43 -43 -101 -88t-140 -75.5t-199 -30.5zM454 -468l118 161l-86 12l29 203h274l-24 -168l-196 -208h-115z" />
    <glyph glyph-name="uni0123" unicode="&#x123;" horiz-adv-x="1248" 
d="M501 -342q-294 0 -433.5 75.5t-123.5 189.5q7 48 38.5 79t71 49.5t72.5 28t43 13.5q-11 7 -41 26t-54 55.5t-16 93.5q7 51 65 96t179 65q-94 47 -137.5 136t-30.5 180q13 92 82.5 160.5t184.5 106.5t264 38q113 0 177.5 -24t111.5 -55q30 12 72.5 28t90 34.5t95 36.5
t86.5 34l-29 -255l-183 -35q11 -58 5 -104q-12 -84 -75 -160t-173 -123.5t-264 -47.5q-27 0 -64.5 2t-54.5 3q-41 1 -60.5 -1.5t-18.5 -17.5q4 -25 44 -35.5t104 -16.5q35 -3 90.5 -5.5t115.5 -7.5q205 -13 292 -102.5t70 -216.5q-20 -141 -169.5 -232t-426.5 -91zM550 -158
q116 0 164.5 29.5t55.5 78.5q4 33 -26 53t-96 24l-207 14q-50 2 -86 -13t-56 -40t-24 -55q-7 -50 59.5 -70.5t215.5 -20.5zM585 563q73 0 125.5 47.5t62.5 123.5q10 62 -21 103t-93 41q-73 0 -127 -52t-65 -129q-8 -61 23 -97.5t95 -36.5zM640 1155l29 209l145 162h121
l-148 -177h110l-27 -194h-230z" />
    <glyph glyph-name="Hcircumflex" unicode="&#x124;" horiz-adv-x="1531" 
d="M75 0l204 1446h340l-80 -564h556l79 564h339l-203 -1446h-340l85 601h-555l-85 -601h-340zM543 1567l271 275h232l256 -275h-253l-123 144l-144 -144h-239z" />
    <glyph glyph-name="hcircumflex" unicode="&#x125;" horiz-adv-x="1195" 
d="M42 0l221 1486h339l-87 -584q42 49 109.5 92t188.5 43q96 0 170.5 -41.5t112.5 -116.5t23 -175l-105 -704h-339l98 660q9 55 -30.5 86t-95.5 31q-37 0 -74 -15t-63 -42.5t-31 -65.5l-98 -654h-339zM62 1567l271 275h232l256 -275h-253l-123 144l-144 -144h-239z" />
    <glyph glyph-name="Hbar" unicode="&#x126;" horiz-adv-x="1650" 
d="M117 1089l27 183h1575l-27 -183h-1575zM142 0l204 1446h340l-80 -564h556l79 564h339l-203 -1446h-340l85 601h-555l-85 -601h-340z" />
    <glyph glyph-name="hbar" unicode="&#x127;" horiz-adv-x="1295" 
d="M130 1146l25 186h697l-25 -186h-697zM142 0l221 1486h339l-87 -584q42 49 109.5 92t188.5 43q96 0 170.5 -41.5t112.5 -116.5t23 -175l-105 -704h-339l98 660q9 55 -30.5 86t-95.5 31q-37 0 -74 -15t-63 -42.5t-31 -65.5l-98 -654h-339z" />
    <glyph glyph-name="Itilde" unicode="&#x128;" horiz-adv-x="648" 
d="M76 0l216 1446h339l-216 -1446h-339zM180 1596l-25 160q44 41 94 70t123 29q57 0 107.5 -16t96.5 -32t91 -16q54 0 102.5 25t83.5 51l11 -184q-37 -29 -96.5 -53t-127.5 -24q-56 0 -101 14.5t-89.5 29t-96.5 14.5q-50 0 -87 -15.5t-86 -52.5z" />
    <glyph glyph-name="itilde" unicode="&#x129;" horiz-adv-x="574" 
d="M40 0l156 1034h338l-156 -1034h-338zM87 1184l-25 160q44 41 94 70t123 29q57 0 107.5 -16t96.5 -32t91 -16q54 0 102.5 25t83.5 51l11 -184q-37 -29 -96.5 -53t-127.5 -24q-56 0 -101 14.5t-89.5 29t-96.5 14.5q-50 0 -87 -15.5t-86 -52.5z" />
    <glyph glyph-name="Imacron" unicode="&#x12a;" horiz-adv-x="648" 
d="M76 0l216 1446h339l-216 -1446h-339zM124 1604l32 212h742l-32 -212h-742z" />
    <glyph glyph-name="imacron" unicode="&#x12b;" horiz-adv-x="574" 
d="M40 0l156 1034h338l-156 -1034h-338zM30 1192l32 212h742l-32 -212h-742z" />
    <glyph glyph-name="Ibreve" unicode="&#x12c;" horiz-adv-x="648" 
d="M76 0l216 1446h339l-216 -1446h-339zM481 1568q-84 0 -153.5 30t-115 90.5t-57.5 151.5h191q13 -31 33 -56.5t51 -41t74 -15.5q66 0 113.5 33t81.5 80h191q-40 -88 -103 -148.5t-142 -92t-164 -31.5z" />
    <glyph glyph-name="ibreve" unicode="&#x12d;" horiz-adv-x="574" 
d="M40 0l156 1034h338l-156 -1034h-338zM387 1156q-84 0 -153.5 30t-115 90.5t-57.5 151.5h191q13 -31 33 -56.5t51 -41t74 -15.5q66 0 113.5 33t81.5 80h191q-40 -88 -103 -148.5t-142 -92t-164 -31.5z" />
    <glyph glyph-name="Iogonek" unicode="&#x12e;" horiz-adv-x="648" 
d="M76 0l216 1446h339l-216 -1446h-339zM167 -348q-103 0 -157.5 41.5t-42.5 125.5q8 52 50.5 98.5t160.5 86.5l234 -3q-112 -38 -153.5 -69t-47.5 -68q-4 -30 8.5 -45t44.5 -15q44 0 79 14t70 33l-21 -148q-32 -18 -93.5 -34.5t-131.5 -16.5z" />
    <glyph glyph-name="iogonek" unicode="&#x12f;" horiz-adv-x="552" 
d="M41 0l146 1034h323l-145 -1034h-324zM202 1151l42 295h325l-41 -295h-326zM126 -339q-103 0 -157.5 41.5t-42.5 125.5q8 52 50.5 98.5t160.5 86.5l234 -3q-112 -38 -153.5 -69t-47.5 -68q-4 -30 8.5 -45t44.5 -15q44 0 79 14t70 33l-21 -148q-32 -18 -93.5 -34.5
t-131.5 -16.5z" />
    <glyph glyph-name="Idotaccent" unicode="&#x130;" horiz-adv-x="648" 
d="M76 0l216 1446h339l-216 -1446h-339zM326 1594l40 264h315l-39 -264h-316z" />
    <glyph glyph-name="dotlessi" unicode="&#x131;" horiz-adv-x="574" 
d="M40 0l156 1034h338l-156 -1034h-338z" />
    <glyph glyph-name="Jcircumflex" unicode="&#x134;" horiz-adv-x="819" 
d="M219 -20q-63 0 -136 8.5t-112 17.5l49 309q27 -5 61.5 -11.5t71.5 -6.5q101 0 143 53t59 169l140 927h336l-152 -1016q-22 -149 -69 -249t-139 -150.5t-252 -50.5zM293 1567l271 275h232l256 -275h-253l-123 144l-144 -144h-239z" />
    <glyph glyph-name="jcircumflex" unicode="&#x135;" horiz-adv-x="600" 
d="M-17 -332q-77 0 -101 15t-24 17l33 227l70 9q59 10 84 33.5t30 63.5l151 1001h337l-149 -1002q-27 -181 -132 -272.5t-299 -91.5zM29 1155l271 275h232l256 -275h-253l-123 144l-144 -144h-239z" />
    <glyph glyph-name="uni0136" unicode="&#x136;" horiz-adv-x="1448" 
d="M75 0l219 1446h350l-92 -623l554 623h382l-493 -555l334 -891h-364l-249 642l-230 -246l-59 -396h-352zM415 -468l118 161l-86 12l29 203h274l-24 -168l-196 -208h-115z" />
    <glyph glyph-name="uni0137" unicode="&#x137;" horiz-adv-x="1167" 
d="M40 0l221 1486h340l-126 -840l382 388h355l-434 -420l286 -614h-332l-190 413l-120 -117l-45 -296h-337zM299 -468l118 161l-86 12l29 203h274l-24 -168l-196 -208h-115z" />
    <glyph glyph-name="kgreenlandic" unicode="&#x138;" horiz-adv-x="1211" 
d="M40 0l157 1034h336l-62 -424l435 424h337l-382 -341l255 -693h-382l-135 449l-177 -153l-44 -296h-338z" />
    <glyph glyph-name="Lacute" unicode="&#x139;" horiz-adv-x="1145" 
d="M75 0l219 1446h338l-174 -1163h591l-44 -283h-930zM345 1567l244 291h346l-344 -291h-246z" />
    <glyph glyph-name="lacute" unicode="&#x13a;" horiz-adv-x="694" 
d="M393 -20q-127 0 -196 29t-95.5 75.5t-27 103.5t7.5 113l178 1185h332l-171 -1141q-8 -47 8.5 -81.5t87.5 -43.5l43 -3l-32 -209q-33 -11 -68.5 -19.5t-66.5 -8.5zM331 1650l244 291h346l-344 -291h-246z" />
    <glyph glyph-name="uni013B" unicode="&#x13b;" horiz-adv-x="1145" 
d="M75 0l219 1446h338l-174 -1163h591l-44 -283h-930zM318 -468l118 161l-86 12l29 203h274l-24 -168l-196 -208h-115z" />
    <glyph glyph-name="uni013C" unicode="&#x13c;" horiz-adv-x="675" 
d="M393 -20q-127 0 -196 29t-95.5 75.5t-27 103.5t7.5 113l178 1185h332l-171 -1141q-8 -47 8.5 -81.5t87.5 -43.5l43 -3l-32 -209q-33 -11 -68.5 -19.5t-66.5 -8.5zM-26 -468l118 161l-86 12l29 203h274l-24 -168l-196 -208h-115z" />
    <glyph glyph-name="Lcaron" unicode="&#x13d;" horiz-adv-x="1145" 
d="M75 0l219 1446h338l-174 -1163h591l-44 -283h-930zM822 988l114 210l-75 13l36 235h217l-37 -247l-119 -211h-136z" />
    <glyph glyph-name="lcaron" unicode="&#x13e;" horiz-adv-x="675" 
d="M393 -20q-127 0 -196 29t-95.5 75.5t-27 103.5t7.5 113l178 1185h332l-171 -1141q-8 -47 8.5 -81.5t87.5 -43.5l43 -3l-32 -209q-33 -11 -68.5 -19.5t-66.5 -8.5zM630 1028l114 210l-75 13l36 235h217l-37 -247l-119 -211h-136z" />
    <glyph glyph-name="Ldot" unicode="&#x13f;" horiz-adv-x="1201" 
d="M75 0l219 1446h338l-174 -1163h591l-44 -283h-930zM788 649l49 318h326l-49 -318h-326z" />
    <glyph glyph-name="ldot" unicode="&#x140;" horiz-adv-x="919" 
d="M393 -20q-127 0 -196 29t-95.5 75.5t-27 103.5t7.5 113l178 1185h332l-171 -1141q-8 -47 8.5 -81.5t87.5 -43.5l43 -3l-32 -209q-33 -11 -68.5 -19.5t-66.5 -8.5zM594 649l49 318h326l-49 -318h-326z" />
    <glyph glyph-name="Lslash" unicode="&#x141;" horiz-adv-x="1222" 
d="M54 553v280l827 219v-266zM152 0l219 1446h338l-174 -1163h591l-44 -283h-930z" />
    <glyph glyph-name="lslash" unicode="&#x142;" horiz-adv-x="894" 
d="M88 360v288l774 455v-271zM551 -20q-127 0 -196 29t-95.5 75.5t-27 103.5t7.5 113l178 1185h332l-171 -1141q-8 -47 8.5 -81.5t87.5 -43.5l43 -3l-32 -209q-33 -11 -68.5 -19.5t-66.5 -8.5z" />
    <glyph glyph-name="Nacute" unicode="&#x143;" horiz-adv-x="1585" 
d="M75 0l219 1446h338l466 -882l131 882h339l-218 -1446h-304l-493 928l-138 -928h-340zM820 1567l244 291h346l-344 -291h-246z" />
    <glyph glyph-name="nacute" unicode="&#x144;" horiz-adv-x="1193" 
d="M40 0l156 1034h332l-18 -129q36 36 75.5 66.5t94 50t134.5 19.5q91 0 165.5 -44t114 -122.5t23.5 -180.5l-104 -694h-339l98 650q10 60 -29 93.5t-93 33.5q-37 0 -75 -14t-65 -40.5t-32 -64.5l-100 -658h-338zM574 1155l244 291h346l-344 -291h-246z" />
    <glyph glyph-name="uni0145" unicode="&#x145;" horiz-adv-x="1585" 
d="M75 0l219 1446h338l466 -882l131 882h339l-218 -1446h-304l-493 928l-138 -928h-340zM490 -468l118 161l-86 12l29 203h274l-24 -168l-196 -208h-115z" />
    <glyph glyph-name="uni0146" unicode="&#x146;" horiz-adv-x="1193" 
d="M40 0l156 1034h332l-18 -129q36 36 75.5 66.5t94 50t134.5 19.5q91 0 165.5 -44t114 -122.5t23.5 -180.5l-104 -694h-339l98 650q10 60 -29 93.5t-93 33.5q-37 0 -75 -14t-65 -40.5t-32 -64.5l-100 -658h-338zM312 -468l118 161l-86 12l29 203h274l-24 -168l-196 -208
h-115z" />
    <glyph glyph-name="Ncaron" unicode="&#x147;" horiz-adv-x="1585" 
d="M75 0l219 1446h338l466 -882l131 882h339l-218 -1446h-304l-493 928l-138 -928h-340zM826 1567l-226 277h239l120 -157l148 157h252l-299 -277h-234z" />
    <glyph glyph-name="ncaron" unicode="&#x148;" horiz-adv-x="1193" 
d="M40 0l156 1034h332l-18 -129q36 36 75.5 66.5t94 50t134.5 19.5q91 0 165.5 -44t114 -122.5t23.5 -180.5l-104 -694h-339l98 650q10 60 -29 93.5t-93 33.5q-37 0 -75 -14t-65 -40.5t-32 -64.5l-100 -658h-338zM579 1155l-226 277h239l120 -157l148 157h252l-299 -277
h-234z" />
    <glyph glyph-name="Eng" unicode="&#x14a;" horiz-adv-x="1585" 
d="M883 -480q-63 0 -135.5 8.5t-110.5 17.5l48 308q27 -5 62.5 -11t71.5 -6q87 0 133 39t59 127l8 47l-466 878l-138 -928h-340l219 1446h338l466 -882l131 882h339l-222 -1474q-25 -165 -77 -264t-144.5 -143.5t-241.5 -44.5z" />
    <glyph glyph-name="eng" unicode="&#x14b;" horiz-adv-x="1136" 
d="M565 -332q-78 0 -95 11.5t-17 13.5l33 235l53 5q47 8 71.5 28.5t29.5 66.5l94 662q8 55 -17 87.5t-82 32.5q-49 0 -93.5 -28.5t-86.5 -83.5l-98 -698h-317l152 1034h304l-22 -161q55 55 111 95.5t114 63t116 22.5q128 0 194 -85t46 -227l-100 -707q-16 -114 -70 -196
t-136.5 -126.5t-183.5 -44.5z" />
    <glyph glyph-name="Omacron" unicode="&#x14c;" horiz-adv-x="1527" 
d="M683 -20q-207 0 -345 90.5t-195 256t-23 392.5q35 229 144 396.5t274 259t368 91.5q202 0 339 -91.5t195 -258.5t24 -396q-34 -227 -141 -393t-271.5 -256.5t-368.5 -90.5zM724 256q91 0 165.5 45.5t128 146.5t77.5 267q27 171 4 275.5t-84 152t-151 47.5
q-135 0 -236 -109.5t-141 -365.5q-24 -166 -0.5 -267t85.5 -146.5t152 -45.5zM547 1604l32 212h742l-32 -212h-742z" />
    <glyph glyph-name="omacron" unicode="&#x14d;" horiz-adv-x="1145" 
d="M491 -20q-152 0 -255.5 66.5t-147.5 186t-21 278.5q24 162 106 284.5t206 190.5t274 68q156 0 258.5 -68.5t146 -191t19.5 -283.5q-24 -155 -103 -274.5t-202 -188t-281 -68.5zM533 230q67 0 111 43.5t69.5 111t35.5 137.5q11 69 5 135t-37 108.5t-101 42.5
q-69 0 -114 -41.5t-69.5 -107t-34.5 -137.5q-10 -68 -5 -135.5t36.5 -112t103.5 -44.5zM305 1192l32 212h742l-32 -212h-742z" />
    <glyph glyph-name="Obreve" unicode="&#x14e;" horiz-adv-x="1527" 
d="M683 -20q-207 0 -345 90.5t-195 256t-23 392.5q35 229 144 396.5t274 259t368 91.5q202 0 339 -91.5t195 -258.5t24 -396q-34 -227 -141 -393t-271.5 -256.5t-368.5 -90.5zM724 256q91 0 165.5 45.5t128 146.5t77.5 267q27 171 4 275.5t-84 152t-151 47.5
q-135 0 -236 -109.5t-141 -365.5q-24 -166 -0.5 -267t85.5 -146.5t152 -45.5zM904 1568q-84 0 -153.5 30t-115 90.5t-57.5 151.5h191q13 -31 33 -56.5t51 -41t74 -15.5q66 0 113.5 33t81.5 80h191q-40 -88 -103 -148.5t-142 -92t-164 -31.5z" />
    <glyph glyph-name="obreve" unicode="&#x14f;" horiz-adv-x="1145" 
d="M491 -20q-152 0 -255.5 66.5t-147.5 186t-21 278.5q24 162 106 284.5t206 190.5t274 68q156 0 258.5 -68.5t146 -191t19.5 -283.5q-24 -155 -103 -274.5t-202 -188t-281 -68.5zM533 230q67 0 111 43.5t69.5 111t35.5 137.5q11 69 5 135t-37 108.5t-101 42.5
q-69 0 -114 -41.5t-69.5 -107t-34.5 -137.5q-10 -68 -5 -135.5t36.5 -112t103.5 -44.5zM662 1156q-84 0 -153.5 30t-115 90.5t-57.5 151.5h191q13 -31 33 -56.5t51 -41t74 -15.5q66 0 113.5 33t81.5 80h191q-40 -88 -103 -148.5t-142 -92t-164 -31.5z" />
    <glyph glyph-name="Ohungarumlaut" unicode="&#x150;" horiz-adv-x="1527" 
d="M683 -20q-207 0 -345 90.5t-195 256t-23 392.5q35 229 144 396.5t274 259t368 91.5q202 0 339 -91.5t195 -258.5t24 -396q-34 -227 -141 -393t-271.5 -256.5t-368.5 -90.5zM724 256q91 0 165.5 45.5t128 146.5t77.5 267q27 171 4 275.5t-84 152t-151 47.5
q-135 0 -236 -109.5t-141 -365.5q-24 -166 -0.5 -267t85.5 -146.5t152 -45.5zM972 1567l209 291h303l-277 -291h-235zM588 1567l161 291h293l-220 -291h-234z" />
    <glyph glyph-name="ohungarumlaut" unicode="&#x151;" horiz-adv-x="1052" 
d="M491 -20q-152 0 -255.5 66.5t-147.5 186t-21 278.5q24 162 106 284.5t206 190.5t274 68q156 0 258.5 -68.5t146 -191t19.5 -283.5q-24 -155 -103 -274.5t-202 -188t-281 -68.5zM533 230q67 0 111 43.5t69.5 111t35.5 137.5q11 69 5 135t-37 108.5t-101 42.5
q-69 0 -114 -41.5t-69.5 -107t-34.5 -137.5q-10 -68 -5 -135.5t36.5 -112t103.5 -44.5zM714 1155l209 291h303l-277 -291h-235zM330 1155l161 291h293l-220 -291h-234z" />
    <glyph glyph-name="OE" unicode="&#x152;" horiz-adv-x="2223" 
d="M2252 1446l-44 -284h-673l-44 -295h573l-41 -278h-575l-46 -302l683 -1l-44 -286h-1021l13 86q-75 -51 -163 -78.5t-187 -27.5q-207 0 -345 90.5t-195 256t-23 392.5q35 229 144 396.5t274 259t368 91.5q99 0 180 -27.5t140 -81.5l13 89h1013zM724 256q91 0 165.5 45.5
t128 146.5t77.5 267q27 171 4 275.5t-84 152t-151 47.5q-135 0 -236 -109.5t-141 -365.5q-24 -166 -0.5 -267t85.5 -146.5t152 -45.5z" />
    <glyph glyph-name="oe" unicode="&#x153;" horiz-adv-x="1828" 
d="M1344 1054q162 0 261 -68.5t136 -188t12 -273.5l-14 -85h-660q-11 -71 3.5 -119.5t52.5 -73.5t92 -25q62 0 114 26.5t85 92.5h301q-33 -113 -116.5 -193.5t-192.5 -123.5t-220 -43t-197 36t-142 104q-71 -67 -164 -103.5t-204 -36.5q-152 0 -255.5 66.5t-147.5 186
t-21 278.5q24 162 106 284.5t206 190.5t274 68q109 0 192 -37t135 -107q71 68 163 106t201 38zM533 230q67 0 111 43.5t69.5 111t35.5 137.5q11 69 5 135t-37 108.5t-101 42.5q-69 0 -114 -41.5t-69.5 -107t-34.5 -137.5q-10 -68 -5 -135.5t36.5 -112t103.5 -44.5zM1106 635
h350q8 51 -5 93.5t-48.5 67.5t-94.5 25q-51 0 -94 -26.5t-71.5 -69t-36.5 -90.5z" />
    <glyph glyph-name="Racute" unicode="&#x154;" horiz-adv-x="1393" 
d="M75 0l217 1446h623q178 0 280 -58.5t138 -160t16 -230.5q-17 -113 -60.5 -191.5t-105 -132t-133.5 -90.5l170 -583h-347l-140 528h-241l-79 -528h-338zM531 785h240q61 0 112 28t84 75t41 103q13 88 -37 144t-130 56h-249zM716 1567l244 291h346l-344 -291h-246z" />
    <glyph glyph-name="racute" unicode="&#x155;" horiz-adv-x="839" 
d="M40 0l146 1034h327l-37 -265q35 81 88.5 145.5t125.5 102t160 37.5q11 0 18.5 -0.5t10.5 -2.5l-46 -323q-5 2 -12 3t-14 1q-128 13 -201.5 -12.5t-107.5 -76t-43 -112.5l-75 -531h-340zM439 1155l244 291h346l-344 -291h-246z" />
    <glyph glyph-name="uni0156" unicode="&#x156;" horiz-adv-x="1393" 
d="M75 0l217 1446h623q178 0 280 -58.5t138 -160t16 -230.5q-17 -113 -60.5 -191.5t-105 -132t-133.5 -90.5l170 -583h-347l-140 528h-241l-79 -528h-338zM531 785h240q61 0 112 28t84 75t41 103q13 88 -37 144t-130 56h-249zM413 -468l118 161l-86 12l29 203h274l-24 -168
l-196 -208h-115z" />
    <glyph glyph-name="uni0157" unicode="&#x157;" horiz-adv-x="827" 
d="M40 0l146 1034h327l-37 -265q35 81 88.5 145.5t125.5 102t160 37.5q11 0 18.5 -0.5t10.5 -2.5l-46 -323q-5 2 -12 3t-14 1q-128 13 -201.5 -12.5t-107.5 -76t-43 -112.5l-75 -531h-340zM-11 -468l118 161l-86 12l29 203h274l-24 -168l-196 -208h-115z" />
    <glyph glyph-name="Rcaron" unicode="&#x158;" horiz-adv-x="1393" 
d="M75 0l217 1446h623q178 0 280 -58.5t138 -160t16 -230.5q-17 -113 -60.5 -191.5t-105 -132t-133.5 -90.5l170 -583h-347l-140 528h-241l-79 -528h-338zM531 785h240q61 0 112 28t84 75t41 103q13 88 -37 144t-130 56h-249zM722 1567l-226 277h239l120 -157l148 157h252
l-299 -277h-234z" />
    <glyph glyph-name="rcaron" unicode="&#x159;" horiz-adv-x="827" 
d="M40 0l146 1034h327l-37 -265q35 81 88.5 145.5t125.5 102t160 37.5q11 0 18.5 -0.5t10.5 -2.5l-46 -323q-5 2 -12 3t-14 1q-128 13 -201.5 -12.5t-107.5 -76t-43 -112.5l-75 -531h-340zM427 1155l-226 277h239l120 -157l148 157h252l-299 -277h-234z" />
    <glyph glyph-name="Sacute" unicode="&#x15a;" horiz-adv-x="1410" 
d="M638 -20q-109 0 -212 26t-183 81t-125 139t-38 201h352q4 -59 35 -99.5t84 -62t124 -21.5q70 0 131.5 16t103 50t50.5 91q7 49 -22 78.5t-81 47t-116 29.5l-227 45q-162 29 -245.5 132t-60.5 279q20 141 112.5 242.5t232 155.5t298.5 54q173 0 294 -63.5t183.5 -166
t56.5 -217.5h-344q3 66 -23 106t-77 57.5t-122 17.5q-76 0 -128.5 -20t-81 -53t-33.5 -72q-8 -56 23.5 -90.5t131.5 -56.5l225 -44q141 -26 217 -80t106 -121.5t32 -135.5t-6 -124q-17 -119 -108.5 -215t-236.5 -151t-322 -55zM740 1567l244 291h346l-344 -291h-246z" />
    <glyph glyph-name="sacute" unicode="&#x15b;" horiz-adv-x="1093" 
d="M469 -20q-107 0 -203.5 36t-158 115t-64.5 206h290q6 -53 35.5 -81t66.5 -38t64 -10q73 0 121 21t53 64q6 36 -20 56.5t-93 32.5l-160 31q-138 27 -214 99.5t-59 205.5q13 95 75.5 171t168.5 120.5t251 44.5q200 0 306 -88t84 -243h-279q-3 53 -44 80.5t-102 27.5
q-64 0 -109 -21.5t-51 -64.5q-5 -33 29.5 -53t114.5 -36l144 -31q89 -23 141.5 -61.5t77 -83.5t30 -89.5t0.5 -78.5q-15 -107 -83.5 -181t-175.5 -112.5t-236 -38.5zM555 1155l244 291h346l-344 -291h-246z" />
    <glyph glyph-name="Scircumflex" unicode="&#x15c;" horiz-adv-x="1410" 
d="M638 -20q-109 0 -212 26t-183 81t-125 139t-38 201h352q4 -59 35 -99.5t84 -62t124 -21.5q70 0 131.5 16t103 50t50.5 91q7 49 -22 78.5t-81 47t-116 29.5l-227 45q-162 29 -245.5 132t-60.5 279q20 141 112.5 242.5t232 155.5t298.5 54q173 0 294 -63.5t183.5 -166
t56.5 -217.5h-344q3 66 -23 106t-77 57.5t-122 17.5q-76 0 -128.5 -20t-81 -53t-33.5 -72q-8 -56 23.5 -90.5t131.5 -56.5l225 -44q141 -26 217 -80t106 -121.5t32 -135.5t-6 -124q-17 -119 -108.5 -215t-236.5 -151t-322 -55zM487 1567l271 275h232l256 -275h-253l-123 144
l-144 -144h-239z" />
    <glyph glyph-name="scircumflex" unicode="&#x15d;" horiz-adv-x="1065" 
d="M469 -20q-107 0 -203.5 36t-158 115t-64.5 206h290q6 -53 35.5 -81t66.5 -38t64 -10q73 0 121 21t53 64q6 36 -20 56.5t-93 32.5l-160 31q-138 27 -214 99.5t-59 205.5q13 95 75.5 171t168.5 120.5t251 44.5q200 0 306 -88t84 -243h-279q-3 53 -44 80.5t-102 27.5
q-64 0 -109 -21.5t-51 -64.5q-5 -33 29.5 -53t114.5 -36l144 -31q89 -23 141.5 -61.5t77 -83.5t30 -89.5t0.5 -78.5q-15 -107 -83.5 -181t-175.5 -112.5t-236 -38.5zM259 1155l271 275h232l256 -275h-253l-123 144l-144 -144h-239z" />
    <glyph glyph-name="Scedilla" unicode="&#x15e;" horiz-adv-x="1410" 
d="M567 -432q-65 0 -126 12t-110 44l60 109q30 -19 69 -35t82 -16q44 0 71.5 15t31.5 42q5 38 -29 58t-130 21q-14 0 -19 3.5t4 17.5l98 171h142l-59 -116q77 0 119 -25t57 -61.5t10 -72.5q-8 -52 -48 -89t-99 -57.5t-124 -20.5zM638 -20q-109 0 -212 26t-183 81t-125 139
t-38 201h352q4 -59 35 -99.5t84 -62t124 -21.5q70 0 131.5 16t103 50t50.5 91q7 49 -22 78.5t-81 47t-116 29.5l-227 45q-162 29 -245.5 132t-60.5 279q20 141 112.5 242.5t232 155.5t298.5 54q173 0 294 -63.5t183.5 -166t56.5 -217.5h-344q3 66 -23 106t-77 57.5
t-122 17.5q-76 0 -128.5 -20t-81 -53t-33.5 -72q-8 -56 23.5 -90.5t131.5 -56.5l225 -44q141 -26 217 -80t106 -121.5t32 -135.5t-6 -124q-17 -119 -108.5 -215t-236.5 -151t-322 -55z" />
    <glyph glyph-name="scedilla" unicode="&#x15f;" horiz-adv-x="1065" 
d="M404 -432q-66 0 -127 12t-110 44l60 109q30 -19 69.5 -35t82.5 -16t70.5 15t32.5 42q5 38 -29.5 58t-130.5 21q-14 0 -18.5 3.5t4.5 17.5l98 171h141l-59 -116q77 0 119.5 -25t57 -61.5t10.5 -72.5q-8 -52 -48 -89t-99 -57.5t-124 -20.5zM469 -20q-107 0 -203.5 36
t-158 115t-64.5 206h290q6 -53 35.5 -81t66.5 -38t64 -10q73 0 121 21t53 64q6 36 -20 56.5t-93 32.5l-160 31q-138 27 -214 99.5t-59 205.5q13 95 75.5 171t168.5 120.5t251 44.5q200 0 306 -88t84 -243h-279q-3 53 -44 80.5t-102 27.5q-64 0 -109 -21.5t-51 -64.5
q-5 -33 29.5 -53t114.5 -36l144 -31q89 -23 141.5 -61.5t77 -83.5t30 -89.5t0.5 -78.5q-15 -107 -83.5 -181t-175.5 -112.5t-236 -38.5z" />
    <glyph glyph-name="Scaron" unicode="&#x160;" horiz-adv-x="1410" 
d="M638 -20q-109 0 -212 26t-183 81t-125 139t-38 201h352q4 -59 35 -99.5t84 -62t124 -21.5q70 0 131.5 16t103 50t50.5 91q7 49 -22 78.5t-81 47t-116 29.5l-227 45q-162 29 -245.5 132t-60.5 279q20 141 112.5 242.5t232 155.5t298.5 54q173 0 294 -63.5t183.5 -166
t56.5 -217.5h-344q3 66 -23 106t-77 57.5t-122 17.5q-76 0 -128.5 -20t-81 -53t-33.5 -72q-8 -56 23.5 -90.5t131.5 -56.5l225 -44q141 -26 217 -80t106 -121.5t32 -135.5t-6 -124q-17 -119 -108.5 -215t-236.5 -151t-322 -55zM745 1567l-226 277h239l120 -157l148 157h252
l-299 -277h-234z" />
    <glyph glyph-name="scaron" unicode="&#x161;" horiz-adv-x="1047" 
d="M469 -20q-107 0 -203.5 36t-158 115t-64.5 206h290q6 -53 35.5 -81t66.5 -38t64 -10q73 0 121 21t53 64q6 36 -20 56.5t-93 32.5l-160 31q-138 27 -214 99.5t-59 205.5q13 95 75.5 171t168.5 120.5t251 44.5q200 0 306 -88t84 -243h-279q-3 53 -44 80.5t-102 27.5
q-64 0 -109 -21.5t-51 -64.5q-5 -33 29.5 -53t114.5 -36l144 -31q89 -23 141.5 -61.5t77 -83.5t30 -89.5t0.5 -78.5q-15 -107 -83.5 -181t-175.5 -112.5t-236 -38.5zM572 1155l-226 277h239l120 -157l148 157h252l-299 -277h-234z" />
    <glyph glyph-name="uni0162" unicode="&#x162;" horiz-adv-x="1237" 
d="M488 -431q-66 0 -127 12t-110 44l60 108q30 -19 69.5 -34.5t82.5 -15.5t70.5 15t32.5 42q5 37 -29.5 57.5t-130.5 20.5q-14 0 -18.5 4t4.5 18l98 171h141l-59 -116q77 -1 119.5 -25.5t57 -61.5t10.5 -73q-8 -51 -48 -88.5t-99 -57.5t-124 -20zM366 0l170 1145h-414
l46 301h1165l-45 -301h-413l-172 -1145h-337z" />
    <glyph glyph-name="uni0163" unicode="&#x163;" horiz-adv-x="850" 
d="M350 -417q-66 0 -127 12t-110 45l61 108q29 -19 68.5 -35t82.5 -16t70.5 15.5t32.5 41.5q5 38 -29.5 58t-130.5 21q-14 0 -18.5 3.5t4.5 17.5l98 171h141l-59 -115q77 -1 119.5 -26t57.5 -61.5t10 -72.5q-8 -52 -48 -89t-99 -57.5t-124 -20.5zM500 -13q-148 0 -223 37.5
t-96.5 103t-9.5 148.5l79 525h-165l36 233h175l100 317h273l-47 -315h224l-35 -235h-224l-74 -508q-7 -46 11.5 -59.5t53.5 -13.5h147l-30 -205q-22 -9 -66.5 -18.5t-128.5 -9.5z" />
    <glyph glyph-name="Tcaron" unicode="&#x164;" horiz-adv-x="1237" 
d="M366 0l170 1145h-414l46 301h1165l-45 -301h-413l-172 -1145h-337zM664 1567l-226 277h239l120 -157l148 157h252l-299 -277h-234z" />
    <glyph glyph-name="tcaron" unicode="&#x165;" horiz-adv-x="909" 
d="M500 -13q-148 0 -223 37.5t-96.5 103t-9.5 148.5l79 525h-165l36 233h175l100 317h273l-47 -315h224l-35 -235h-224l-74 -508q-7 -46 11.5 -59.5t53.5 -13.5h147l-30 -205q-22 -9 -66.5 -18.5t-128.5 -9.5zM686 1112l114 210l-75 13l36 235h217l-37 -247l-119 -211h-136z
" />
    <glyph glyph-name="Tbar" unicode="&#x166;" horiz-adv-x="1237" 
d="M199 572l35 244h832l-35 -244h-832zM366 0l170 1145h-414l46 301h1165l-45 -301h-413l-172 -1145h-337z" />
    <glyph glyph-name="tbar" unicode="&#x167;" horiz-adv-x="883" 
d="M64 465l28 188h679l-27 -188h-680zM510 -13q-148 0 -223 37.5t-96.5 103t-9.5 148.5l79 525h-165l36 233h175l100 317h273l-47 -315h224l-35 -235h-224l-74 -508q-7 -46 11.5 -59.5t53.5 -13.5h148l-31 -205q-22 -9 -66.5 -18.5t-128.5 -9.5z" />
    <glyph glyph-name="Utilde" unicode="&#x168;" horiz-adv-x="1458" 
d="M659 -20q-219 0 -337.5 74t-155.5 208.5t-9 316.5l129 867h344l-133 -886q-16 -104 7.5 -168.5t75.5 -94.5t123 -30q104 0 187.5 68.5t106.5 224.5l132 886h341l-129 -871q-27 -180 -104.5 -313.5t-218.5 -207.5t-359 -74zM595 1596l-25 160q44 41 94 70t123 29
q57 0 107.5 -16t96.5 -32t91 -16q54 0 102.5 25t83.5 51l11 -184q-37 -29 -96.5 -53t-127.5 -24q-56 0 -101 14.5t-89.5 29t-96.5 14.5q-50 0 -87 -15.5t-86 -52.5z" />
    <glyph glyph-name="utilde" unicode="&#x169;" horiz-adv-x="1196" 
d="M414 -20q-66 0 -131 22t-116.5 64.5t-78 104t-15.5 141.5l101 722h340l-95 -676q-8 -58 25.5 -96.5t106.5 -38.5q71 0 117.5 37.5t54.5 99.5l95 674h337l-145 -1034h-253l-11 209q-31 -97 -89.5 -146.5t-123.5 -66t-119 -16.5zM382 1184l-25 160q44 41 94 70t123 29
q57 0 107.5 -16t96.5 -32t91 -16q54 0 102.5 25t83.5 51l11 -184q-37 -29 -96.5 -53t-127.5 -24q-56 0 -101 14.5t-89.5 29t-96.5 14.5q-50 0 -87 -15.5t-86 -52.5z" />
    <glyph glyph-name="Umacron" unicode="&#x16a;" horiz-adv-x="1458" 
d="M659 -20q-219 0 -337.5 74t-155.5 208.5t-9 316.5l129 867h344l-133 -886q-16 -104 7.5 -168.5t75.5 -94.5t123 -30q104 0 187.5 68.5t106.5 224.5l132 886h341l-129 -871q-27 -180 -104.5 -313.5t-218.5 -207.5t-359 -74zM539 1604l32 212h742l-32 -212h-742z" />
    <glyph glyph-name="umacron" unicode="&#x16b;" horiz-adv-x="1196" 
d="M414 -20q-66 0 -131 22t-116.5 64.5t-78 104t-15.5 141.5l101 722h340l-95 -676q-8 -58 25.5 -96.5t106.5 -38.5q71 0 117.5 37.5t54.5 99.5l95 674h337l-145 -1034h-253l-11 209q-31 -97 -89.5 -146.5t-123.5 -66t-119 -16.5zM325 1192l32 212h742l-32 -212h-742z" />
    <glyph glyph-name="Ubreve" unicode="&#x16c;" horiz-adv-x="1458" 
d="M659 -20q-219 0 -337.5 74t-155.5 208.5t-9 316.5l129 867h344l-133 -886q-16 -104 7.5 -168.5t75.5 -94.5t123 -30q104 0 187.5 68.5t106.5 224.5l132 886h341l-129 -871q-27 -180 -104.5 -313.5t-218.5 -207.5t-359 -74zM896 1568q-84 0 -153.5 30t-115 90.5
t-57.5 151.5h191q13 -31 33 -56.5t51 -41t74 -15.5q66 0 113.5 33t81.5 80h191q-40 -88 -103 -148.5t-142 -92t-164 -31.5z" />
    <glyph glyph-name="ubreve" unicode="&#x16d;" horiz-adv-x="1196" 
d="M414 -20q-66 0 -131 22t-116.5 64.5t-78 104t-15.5 141.5l101 722h340l-95 -676q-8 -58 25.5 -96.5t106.5 -38.5q71 0 117.5 37.5t54.5 99.5l95 674h337l-145 -1034h-253l-11 209q-31 -97 -89.5 -146.5t-123.5 -66t-119 -16.5zM683 1156q-84 0 -153.5 30t-115 90.5
t-57.5 151.5h191q13 -31 33 -56.5t51 -41t74 -15.5q66 0 113.5 33t81.5 80h191q-40 -88 -103 -148.5t-142 -92t-164 -31.5z" />
    <glyph glyph-name="Uring" unicode="&#x16e;" horiz-adv-x="1458" 
d="M659 -20q-219 0 -337.5 74t-155.5 208.5t-9 316.5l129 867h344l-133 -886q-16 -104 7.5 -168.5t75.5 -94.5t123 -30q104 0 187.5 68.5t106.5 224.5l132 886h341l-129 -871q-27 -180 -104.5 -313.5t-218.5 -207.5t-359 -74zM893 1539q-93 0 -146.5 66t-39.5 161
q9 59 46 108t91.5 78t114.5 29q92 0 146 -64t40 -155q-9 -63 -46.5 -113.5t-91.5 -80t-114 -29.5zM909 1661q40 0 71.5 30t37.5 69q6 41 -17 68t-63 27q-39 0 -72 -27t-40 -68q-6 -39 19 -69t64 -30z" />
    <glyph glyph-name="uring" unicode="&#x16f;" horiz-adv-x="1196" 
d="M414 -20q-66 0 -131 22t-116.5 64.5t-78 104t-15.5 141.5l101 722h340l-95 -676q-8 -58 25.5 -96.5t106.5 -38.5q71 0 117.5 37.5t54.5 99.5l95 674h337l-145 -1034h-253l-11 209q-31 -97 -89.5 -146.5t-123.5 -66t-119 -16.5zM680 1127q-93 0 -146.5 66t-39.5 161
q9 59 46 108t91.5 78t114.5 29q92 0 146 -64t40 -155q-9 -63 -46.5 -113.5t-91.5 -80t-114 -29.5zM696 1249q40 0 71.5 30t37.5 69q6 41 -17 68t-63 27q-39 0 -72 -27t-40 -68q-6 -39 19 -69t64 -30z" />
    <glyph glyph-name="Uhungarumlaut" unicode="&#x170;" horiz-adv-x="1416" 
d="M659 -20q-219 0 -337.5 74t-155.5 208.5t-9 316.5l129 867h344l-133 -886q-16 -104 7.5 -168.5t75.5 -94.5t123 -30q104 0 187.5 68.5t106.5 224.5l132 886h341l-129 -871q-27 -180 -104.5 -313.5t-218.5 -207.5t-359 -74zM959 1567l209 291h303l-277 -291h-235z
M575 1567l161 291h293l-220 -291h-234z" />
    <glyph glyph-name="uhungarumlaut" unicode="&#x171;" horiz-adv-x="1122" 
d="M414 -20q-66 0 -131 22t-116.5 64.5t-78 104t-15.5 141.5l101 722h340l-95 -676q-8 -58 25.5 -96.5t106.5 -38.5q71 0 117.5 37.5t54.5 99.5l95 674h337l-145 -1034h-253l-11 209q-31 -97 -89.5 -146.5t-123.5 -66t-119 -16.5zM768 1155l209 291h303l-277 -291h-235z
M384 1155l161 291h293l-220 -291h-234z" />
    <glyph glyph-name="Uogonek" unicode="&#x172;" horiz-adv-x="1458" 
d="M578 -356q-103 0 -157.5 42t-41.5 125q8 53 50.5 99t159.5 86l234 -3q-112 -37 -153.5 -68.5t-47.5 -68.5q-3 -30 9.5 -45t43.5 -15q45 0 80 14t70 33l-22 -148q-31 -18 -93 -34.5t-132 -16.5zM659 -20q-219 0 -337.5 74t-155.5 208.5t-9 316.5l129 867h344l-133 -886
q-16 -104 7.5 -168.5t75.5 -94.5t123 -30q104 0 187.5 68.5t106.5 224.5l132 886h341l-129 -871q-27 -180 -104.5 -313.5t-218.5 -207.5t-359 -74z" />
    <glyph glyph-name="uogonek" unicode="&#x173;" horiz-adv-x="1196" 
d="M414 -20q-66 0 -131 22t-116.5 64.5t-78 104t-15.5 141.5l101 722h340l-95 -676q-8 -58 25.5 -96.5t106.5 -38.5q71 0 117.5 37.5t54.5 99.5l95 674h337l-145 -1034h-253l-11 209q-31 -97 -89.5 -146.5t-123.5 -66t-119 -16.5zM759 -338q-103 0 -157.5 41.5t-42.5 125.5
q8 52 50.5 98.5t160.5 86.5l234 -3q-112 -38 -153.5 -69t-47.5 -68q-4 -30 8.5 -45t44.5 -15q44 0 79 14t70 33l-21 -148q-32 -18 -93.5 -34.5t-131.5 -16.5z" />
    <glyph glyph-name="Wcircumflex" unicode="&#x174;" horiz-adv-x="1919" 
d="M373 0l-208 1446h329l111 -865l365 865h239l114 -865l365 865h328l-640 -1446h-259l-115 866l-375 -866h-254zM727 1567l271 275h232l256 -275h-253l-123 144l-144 -144h-239z" />
    <glyph glyph-name="wcircumflex" unicode="&#x175;" horiz-adv-x="1559" 
d="M274 0l-182 1034h296l90 -572h3l253 572h237l80 -573h3l259 573h301l-503 -1034h-251l-85 564l-259 -564h-242zM497 1155l271 275h232l256 -275h-253l-123 144l-144 -144h-239z" />
    <glyph glyph-name="Ycircumflex" unicode="&#x176;" horiz-adv-x="1370" 
d="M429 0l89 605l-370 841h365l220 -550l381 550h370l-628 -841l-91 -605h-336zM436 1568l271 275h232l256 -275h-253l-123 144l-144 -144h-239z" />
    <glyph glyph-name="ycircumflex" unicode="&#x177;" horiz-adv-x="1134" 
d="M166 -330q-111 0 -155.5 20l-44.5 20l31 216l99 -5q94 -7 140 12t63 44t22 36l18 39l-249 982h333l123 -618l314 618h330l-552 -1007q-83 -147 -159 -224.5t-152.5 -105t-160.5 -27.5zM267 1155l271 275h232l256 -275h-253l-123 144l-144 -144h-239z" />
    <glyph glyph-name="Ydieresis" unicode="&#x178;" horiz-adv-x="1370" 
d="M429 0l89 605l-370 841h365l220 -550l381 550h370l-628 -841l-91 -605h-336zM903 1595l39 264h316l-40 -264h-315zM414 1595l40 264h316l-40 -264h-316z" />
    <glyph glyph-name="Zacute" unicode="&#x179;" horiz-adv-x="1365" 
d="M26 0l24 160l844 1004h-639l45 282h1121l-23 -153l-857 -1007h696l-43 -286h-1168zM767 1567l244 291h346l-344 -291h-246z" />
    <glyph glyph-name="zacute" unicode="&#x17a;" horiz-adv-x="1102" 
d="M-14 0l23 184l556 615h-437l33 235h853l-22 -184l-557 -615h469l-33 -235h-885zM579 1155l244 291h346l-344 -291h-246z" />
    <glyph glyph-name="Zdotaccent" unicode="&#x17b;" horiz-adv-x="1365" 
d="M26 0l24 160l844 1004h-639l45 282h1121l-23 -153l-857 -1007h696l-43 -286h-1168zM740 1594l40 264h315l-39 -264h-316z" />
    <glyph glyph-name="zdotaccent" unicode="&#x17c;" horiz-adv-x="1002" 
d="M-14 0l23 184l556 615h-437l33 235h853l-22 -184l-557 -615h469l-33 -235h-885zM452 1182l40 264h315l-39 -264h-316z" />
    <glyph glyph-name="Zcaron" unicode="&#x17d;" horiz-adv-x="1365" 
d="M26 0l24 160l844 1004h-639l45 282h1121l-23 -153l-857 -1007h696l-43 -286h-1168zM772 1567l-226 277h239l120 -157l148 157h252l-299 -277h-234z" />
    <glyph glyph-name="zcaron" unicode="&#x17e;" horiz-adv-x="1057" 
d="M-14 0l23 184l556 615h-437l33 235h853l-22 -184l-557 -615h469l-33 -235h-885zM596 1155l-226 277h239l120 -157l148 157h252l-299 -277h-234z" />
    <glyph glyph-name="uni018F" unicode="&#x18f;" horiz-adv-x="1530" 
d="M686 -20q-195 0 -334.5 85.5t-199.5 270t-18 479.5h940q23 161 -38.5 248.5t-192.5 87.5q-65 0 -120 -19t-96.5 -51t-66 -69t-30.5 -74h-380q13 89 72.5 181.5t158 171t229.5 127t285 48.5q211 0 351 -85t198.5 -247t25.5 -395q-36 -259 -147.5 -427t-276 -250
t-360.5 -82zM728 275q88 0 152.5 37t104 104t51.5 155l-522 1q-12 -89 8 -156t72 -104t134 -37z" />
    <glyph glyph-name="florin" unicode="&#x192;" horiz-adv-x="1094" 
d="M-137 -335l67 224l119 1q54 0 82 26t53 104l252 781h-165l75 233h166l45 143q43 127 143 198t235 71h254l-71 -223h-124q-37 0 -75 -32t-53 -78l-26 -79h209l-78 -233h-196l-279 -864q-41 -126 -141.5 -199t-237.5 -73h-254z" />
    <glyph glyph-name="Ohorn" unicode="&#x1a0;" horiz-adv-x="1683" 
d="M683 -20q-207 0 -345 90.5t-195 256t-23 392.5q35 229 144 396.5t274 259t368 91.5q148 0 262 -50t187 -143q57 -1 94.5 10t64 56.5t49.5 149.5h211q-21 -127 -58 -210.5t-102 -125t-171 -47.5q26 -81 32 -177.5t-11 -208.5q-34 -227 -141 -393t-271.5 -256.5
t-368.5 -90.5zM724 256q91 0 165.5 45.5t128 146.5t77.5 267q27 171 4 275.5t-84 152t-151 47.5q-135 0 -236 -109.5t-141 -365.5q-24 -166 -0.5 -267t85.5 -146.5t152 -45.5z" />
    <glyph glyph-name="ohorn" unicode="&#x1a1;" horiz-adv-x="1309" 
d="M491 -20q-152 0 -255.5 66.5t-147.5 186t-21 278.5q24 162 106 284.5t206 190.5t274 68q118 0 205.5 -40.5t142.5 -112.5q48 9 78.5 52.5t56.5 158.5h211q-28 -173 -88 -264.5t-186 -111.5q10 -49 11.5 -105.5t-7.5 -119.5q-24 -155 -103 -274.5t-202 -188t-281 -68.5z
M533 230q67 0 111 43.5t69.5 111t35.5 137.5q11 69 5 135t-37 108.5t-101 42.5q-69 0 -114 -41.5t-69.5 -107t-34.5 -137.5q-10 -68 -5 -135.5t36.5 -112t103.5 -44.5z" />
    <glyph glyph-name="Uhorn" unicode="&#x1af;" horiz-adv-x="1752" 
d="M659 -20q-219 0 -337.5 74t-155 208.5t-9.5 316.5l129 867h344l-133 -886q-16 -104 7.5 -168.5t75.5 -94.5t123 -30q104 0 187.5 68.5t106.5 224.5l132 886h341l-25 -173q45 2 76 17t54 60.5t44 137.5h211q-23 -142 -67 -228.5t-125.5 -123.5t-217.5 -29l-79 -532
q-27 -180 -104.5 -313.5t-218.5 -207.5t-359 -74z" />
    <glyph glyph-name="uhorn" unicode="&#x1b0;" horiz-adv-x="1456" 
d="M414 -20q-66 0 -131 22t-116.5 64.5t-78 104t-15.5 141.5l101 722h341l-96 -676q-8 -58 25.5 -96.5t107.5 -38.5q70 0 116.5 37.5t54.5 99.5l95 674h337l-19 -137q46 1 77 16.5t53.5 61t43.5 137.5h211q-23 -141 -66.5 -228t-125 -124t-216.5 -29l-103 -731h-253l-10 209
q-32 -97 -90 -146.5t-123 -66t-120 -16.5z" />
    <glyph glyph-name="uni01D4" unicode="&#x1d4;" horiz-adv-x="1196" 
d="M414 -20q-66 0 -131 22t-116.5 64.5t-78 104t-15.5 141.5l101 722h340l-95 -676q-8 -58 25.5 -96.5t106.5 -38.5q71 0 117.5 37.5t54.5 99.5l95 674h337l-145 -1034h-253l-11 209q-31 -97 -89.5 -146.5t-123.5 -66t-119 -16.5zM561 1155l-226 277h239l120 -157l148 157
h252l-299 -277h-234z" />
    <glyph glyph-name="uni01EA" unicode="&#x1ea;" horiz-adv-x="1527" 
d="M653 -339q-102 0 -156.5 41.5t-42.5 125.5q8 52 50.5 98.5t160.5 86.5l234 -3q-112 -38 -153.5 -69t-48.5 -68q-3 -30 9.5 -45t43.5 -15q45 0 80 14t70 33l-22 -148q-31 -18 -93 -34.5t-132 -16.5zM683 -20q-207 0 -345 90.5t-195 256t-23 392.5q35 229 144 396.5
t274 259t368 91.5q202 0 339 -91.5t195 -258.5t24 -396q-34 -227 -141 -393t-271.5 -256.5t-368.5 -90.5zM724 256q91 0 165.5 45.5t128 146.5t77.5 267q27 171 4 275.5t-84 152t-151 47.5q-135 0 -236 -109.5t-141 -365.5q-24 -166 -0.5 -267t85.5 -146.5t152 -45.5z" />
    <glyph glyph-name="uni01EB" unicode="&#x1eb;" horiz-adv-x="1145" 
d="M431 -339q-102 0 -156.5 42t-42.5 125q8 53 50.5 99.5t160.5 85.5l234 -3q-112 -37 -153.5 -68.5t-48.5 -68.5q-3 -29 9.5 -44.5t43.5 -15.5q45 0 80 14t70 33l-22 -148q-31 -18 -93 -34.5t-132 -16.5zM491 -20q-152 0 -255.5 66.5t-147.5 186t-21 278.5
q24 162 106 284.5t206 190.5t274 68q156 0 258.5 -68.5t146 -191t19.5 -283.5q-24 -155 -103 -274.5t-202 -188t-281 -68.5zM533 230q67 0 111 43.5t69.5 111t35.5 137.5q11 69 5 135t-37 108.5t-101 42.5q-69 0 -114 -41.5t-69.5 -107t-34.5 -137.5q-10 -68 -5 -135.5
t36.5 -112t103.5 -44.5z" />
    <glyph glyph-name="Aringacute" unicode="&#x1fa;" horiz-adv-x="1447" 
d="M1097 1912l-80 -144q49 -23 74.5 -71t15.5 -111q-12 -89 -81.5 -144t-156.5 -55q-86 0 -137.5 56.5t-38.5 146.5q10 69 57.5 119t111.5 67l52 136h183zM992 1584q7 41 -16.5 68.5t-64.5 27.5q-37 0 -70 -27.5t-39 -68.5q-6 -38 18.5 -68.5t62.5 -30.5q40 0 71.5 30.5
t37.5 68.5zM-30 0l724 1446h348l289 -1446h-334l-58 308h-478l-153 -308h-338zM578 601h326l-84 518z" />
    <glyph glyph-name="aringacute" unicode="&#x1fb;" horiz-adv-x="1136" 
d="M893 1500l-80 -144q49 -23 74.5 -71t16.5 -111q-13 -89 -82.5 -144t-156.5 -55q-86 0 -137.5 56.5t-38.5 146.5q10 69 57.5 119t111.5 67l52 136h183zM788 1172q7 41 -16.5 68.5t-64.5 27.5q-37 0 -70 -27.5t-39 -68.5q-6 -38 18.5 -68.5t62.5 -30.5q40 0 71.5 30.5
t37.5 68.5zM345 -20q-97 0 -170.5 37.5t-109 109.5t-20.5 176q25 169 167.5 260t415.5 92l102 1l8 53q9 62 -22.5 92t-97.5 29q-51 -1 -107 -25t-88 -86h-276q23 115 97 189t184 110t239 36q166 0 257.5 -41t123 -114t16.5 -169l-110 -730h-280l-4 170
q-66 -109 -143.5 -149.5t-181.5 -40.5zM494 199q33 0 64.5 12t58 33.5t44 47.5t23.5 56l21 141l-81 -1q-50 0 -106 -14t-98 -46.5t-51 -89.5q-9 -65 28 -102t97 -37z" />
    <glyph glyph-name="AEacute" unicode="&#x1fc;" horiz-adv-x="2111" 
d="M-73 0l964 1446h1244l-43 -280h-670l-46 -300h572l-42 -277h-570l-46 -307h689l-42 -282h-1075l46 309h-445l-198 -309h-338zM632 601h319l95 627zM1370 1567l244 291h346l-344 -291h-246z" />
    <glyph glyph-name="aeacute" unicode="&#x1fd;" horiz-adv-x="1802" 
d="M349 -20q-97 0 -171 37.5t-111 109.5t-22 176q23 169 165.5 260t417.5 92l102 1l8 53q8 62 -23.5 92t-100.5 29q-50 -1 -105 -25t-87 -86h-278q22 115 95.5 189t183 110t238.5 36t213 -28t127 -79q65 51 145.5 79t172.5 28q162 0 260 -68.5t135 -188t14 -273.5l-14 -85
h-660q-12 -71 3 -119.5t52.5 -73.5t91.5 -25q63 0 115 26.5t84 92.5h301q-33 -113 -116.5 -193.5t-192.5 -123.5t-219 -43q-139 0 -240.5 54t-153.5 152q-35 -65 -93 -111.5t-141.5 -70.5t-195.5 -24zM497 199q48 0 89 23t68 58.5t34 74.5l19 134l-83 -1q-49 0 -105.5 -14
t-98.5 -46.5t-50 -89.5q-9 -65 29 -102t98 -37zM1080 635h351q7 51 -6 93.5t-48 67.5t-94 25q-51 0 -94.5 -26.5t-72 -69t-36.5 -90.5zM867 1155l244 291h346l-344 -291h-246z" />
    <glyph glyph-name="Oslashacute" unicode="&#x1fe;" horiz-adv-x="1560" 
d="M99 -28l-119 147l187 165q-37 87 -47.5 196.5t8.5 238.5q34 229 142.5 396.5t273.5 259t368 91.5q135 0 239.5 -40t177.5 -116l185 162l116 -145l-197 -177q37 -86 47 -194.5t-9 -235.5q-33 -227 -140 -393t-271.5 -256.5t-368.5 -90.5q-134 0 -237.5 38.5t-177.5 109.5z
M732 250q106 0 177.5 68.5t112.5 217.5q19 67 32 143t20 164l-533 -487q49 -106 191 -106zM523 589l537 489q-22 64 -69 93t-118 29q-113 0 -188 -80t-118 -253q-16 -64 -27 -133t-17 -145zM799 1567l244 291h346l-344 -291h-246z" />
    <glyph glyph-name="oslashacute" unicode="&#x1ff;" horiz-adv-x="1160" 
d="M102 -16l-106 113l1015 951l104 -113zM495 -20q-153 0 -256.5 66.5t-147.5 186t-21 278.5q25 162 106.5 284.5t205.5 190.5t275 68q155 0 258 -68.5t146 -191t19 -283.5q-24 -155 -103 -274.5t-202 -188t-280 -68.5zM536 230q67 0 111.5 43.5t70 111t35.5 137.5
q10 69 4.5 135t-37 108.5t-100.5 42.5q-70 0 -114.5 -41.5t-69.5 -107t-35 -137.5q-9 -68 -4.5 -135.5t36.5 -112t103 -44.5zM447 1155l244 291h346l-344 -291h-246z" />
    <glyph glyph-name="uni0200" unicode="&#x200;" horiz-adv-x="1447" 
d="M-30 0l724 1446h348l289 -1446h-334l-58 308h-478l-153 -308h-338zM578 601h326l-84 518zM558 1567l-277 291h304l208 -291h-235zM943 1567l-220 291h293l161 -291h-234z" />
    <glyph glyph-name="uni0201" unicode="&#x201;" horiz-adv-x="1278" 
d="M474 -20q-97 0 -170.5 37.5t-109 109.5t-20.5 176q25 169 167.5 260t415.5 92l102 1l8 53q9 62 -22.5 92t-97.5 29q-51 -1 -107 -25t-88 -86h-276q23 115 97 189t184 110t239 36q166 0 257.5 -41t123 -114t16.5 -169l-110 -730h-280l-4 170q-66 -109 -143.5 -149.5
t-181.5 -40.5zM623 199q33 0 64.5 12t58 33.5t44 47.5t23.5 56l21 141l-81 -1q-50 0 -106 -14t-98 -46.5t-51 -89.5q-9 -65 28 -102t97 -37zM485 1155l-277 291h304l208 -291h-235zM870 1155l-220 291h293l161 -291h-234z" />
    <glyph glyph-name="uni0202" unicode="&#x202;" horiz-adv-x="1447" 
d="M-30 0l724 1446h348l289 -1446h-334l-58 308h-478l-153 -308h-338zM578 601h326l-84 518zM535 1571q38 91 100.5 151.5t140.5 90.5t161 30q86 0 156 -31t116 -92t61 -149h-191q-20 47 -58.5 80t-104.5 33q-43 0 -78 -15.5t-63 -41t-49 -56.5h-191z" />
    <glyph glyph-name="uni0203" unicode="&#x203;" horiz-adv-x="1149" 
d="M345 -20q-97 0 -170.5 37.5t-109 109.5t-20.5 176q25 169 167.5 260t415.5 92l102 1l8 53q9 62 -22.5 92t-97.5 29q-51 -1 -107 -25t-88 -86h-276q23 115 97 189t184 110t239 36q166 0 257.5 -41t123 -114t16.5 -169l-110 -730h-280l-4 170q-66 -109 -143.5 -149.5
t-181.5 -40.5zM494 199q33 0 64.5 12t58 33.5t44 47.5t23.5 56l21 141l-81 -1q-50 0 -106 -14t-98 -46.5t-51 -89.5q-9 -65 28 -102t97 -37zM315 1159q38 91 100.5 151.5t140.5 90.5t161 30q86 0 156 -31t116 -92t61 -149h-191q-20 47 -58.5 80t-104.5 33q-43 0 -78 -15.5
t-63 -41t-49 -56.5h-191z" />
    <glyph glyph-name="uni0204" unicode="&#x204;" horiz-adv-x="1278" 
d="M75 0l219 1446h1013l-44 -284h-673l-44 -295h573l-42 -278h-574l-46 -302l683 -1l-44 -286h-1021zM468 1567l-277 291h304l208 -291h-235zM853 1567l-220 291h293l161 -291h-234z" />
    <glyph glyph-name="uni0205" unicode="&#x205;" horiz-adv-x="1144" 
d="M514 -20q-155 0 -262.5 65t-155 183t-23.5 277q22 151 100.5 275.5t203 199t283.5 74.5q162 0 260 -68.5t135 -188t14 -273.5l-14 -85h-660q-11 -71 3.5 -119.5t52 -73.5t92.5 -25q62 0 114 26.5t85 92.5h300q-33 -113 -116 -193.5t-192 -123.5t-220 -43zM422 635h350
q8 51 -5 93.5t-48.5 67.5t-94.5 25q-51 0 -94.5 -26.5t-71.5 -69t-36 -90.5zM347 1155l-277 291h304l208 -291h-235zM732 1155l-220 291h293l161 -291h-234z" />
    <glyph glyph-name="uni0206" unicode="&#x206;" horiz-adv-x="1278" 
d="M75 0l219 1446h1013l-44 -284h-673l-44 -295h573l-42 -278h-574l-46 -302l683 -1l-44 -286h-1021zM445 1571q38 91 100.5 151.5t140.5 90.5t161 30q86 0 156 -31t116 -92t61 -149h-191q-20 47 -58.5 80t-104.5 33q-43 0 -78 -15.5t-63 -41t-49 -56.5h-191z" />
    <glyph glyph-name="uni0207" unicode="&#x207;" horiz-adv-x="1144" 
d="M514 -20q-155 0 -262.5 65t-155 183t-23.5 277q22 151 100.5 275.5t203 199t283.5 74.5q162 0 260 -68.5t135 -188t14 -273.5l-14 -85h-660q-11 -71 3.5 -119.5t52 -73.5t92.5 -25q62 0 114 26.5t85 92.5h300q-33 -113 -116 -193.5t-192 -123.5t-220 -43zM422 635h350
q8 51 -5 93.5t-48.5 67.5t-94.5 25q-51 0 -94.5 -26.5t-71.5 -69t-36 -90.5zM324 1159q38 91 100.5 151.5t140.5 90.5t161 30q86 0 156 -31t116 -92t61 -149h-191q-20 47 -58.5 80t-104.5 33q-43 0 -78 -15.5t-63 -41t-49 -56.5h-191z" />
    <glyph glyph-name="uni0208" unicode="&#x208;" horiz-adv-x="648" 
d="M76 0l216 1446h339l-216 -1446h-339zM152 1567l-277 291h304l208 -291h-235zM537 1567l-220 291h293l161 -291h-234z" />
    <glyph glyph-name="uni0209" unicode="&#x209;" horiz-adv-x="574" 
d="M40 0l156 1034h338l-156 -1034h-338zM59 1155l-277 291h304l208 -291h-235zM444 1155l-220 291h293l161 -291h-234z" />
    <glyph glyph-name="uni020A" unicode="&#x20a;" horiz-adv-x="648" 
d="M76 0l216 1446h339l-216 -1446h-339zM129 1571q38 91 100.5 151.5t140.5 90.5t161 30q86 0 156 -31t116 -92t61 -149h-191q-20 47 -58.5 80t-104.5 33q-43 0 -78 -15.5t-63 -41t-49 -56.5h-191z" />
    <glyph glyph-name="uni020B" unicode="&#x20b;" horiz-adv-x="574" 
d="M40 0l156 1034h338l-156 -1034h-338zM36 1159q38 91 100.5 151.5t140.5 90.5t161 30q86 0 156 -31t116 -92t61 -149h-191q-20 47 -58.5 80t-104.5 33q-43 0 -78 -15.5t-63 -41t-49 -56.5h-191z" />
    <glyph glyph-name="uni020C" unicode="&#x20c;" horiz-adv-x="1527" 
d="M683 -20q-207 0 -345 90.5t-195 256t-23 392.5q35 229 144 396.5t274 259t368 91.5q202 0 339 -91.5t195 -258.5t24 -396q-34 -227 -141 -393t-271.5 -256.5t-368.5 -90.5zM724 256q91 0 165.5 45.5t128 146.5t77.5 267q27 171 4 275.5t-84 152t-151 47.5
q-135 0 -236 -109.5t-141 -365.5q-24 -166 -0.5 -267t85.5 -146.5t152 -45.5zM575 1567l-277 291h304l208 -291h-235zM960 1567l-220 291h293l161 -291h-234z" />
    <glyph glyph-name="uni020D" unicode="&#x20d;" horiz-adv-x="1145" 
d="M491 -20q-152 0 -255.5 66.5t-147.5 186t-21 278.5q24 162 106 284.5t206 190.5t274 68q156 0 258.5 -68.5t146 -191t19.5 -283.5q-24 -155 -103 -274.5t-202 -188t-281 -68.5zM533 230q67 0 111 43.5t69.5 111t35.5 137.5q11 69 5 135t-37 108.5t-101 42.5
q-69 0 -114 -41.5t-69.5 -107t-34.5 -137.5q-10 -68 -5 -135.5t36.5 -112t103.5 -44.5zM333 1155l-277 291h304l208 -291h-235zM718 1155l-220 291h293l161 -291h-234z" />
    <glyph glyph-name="uni020E" unicode="&#x20e;" horiz-adv-x="1527" 
d="M683 -20q-207 0 -345 90.5t-195 256t-23 392.5q35 229 144 396.5t274 259t368 91.5q202 0 339 -91.5t195 -258.5t24 -396q-34 -227 -141 -393t-271.5 -256.5t-368.5 -90.5zM724 256q91 0 165.5 45.5t128 146.5t77.5 267q27 171 4 275.5t-84 152t-151 47.5
q-135 0 -236 -109.5t-141 -365.5q-24 -166 -0.5 -267t85.5 -146.5t152 -45.5zM552 1571q38 91 100.5 151.5t140.5 90.5t161 30q86 0 156 -31t116 -92t61 -149h-191q-20 47 -58.5 80t-104.5 33q-43 0 -78 -15.5t-63 -41t-49 -56.5h-191z" />
    <glyph glyph-name="uni020F" unicode="&#x20f;" horiz-adv-x="1145" 
d="M491 -20q-152 0 -255.5 66.5t-147.5 186t-21 278.5q24 162 106 284.5t206 190.5t274 68q156 0 258.5 -68.5t146 -191t19.5 -283.5q-24 -155 -103 -274.5t-202 -188t-281 -68.5zM533 230q67 0 111 43.5t69.5 111t35.5 137.5q11 69 5 135t-37 108.5t-101 42.5
q-69 0 -114 -41.5t-69.5 -107t-34.5 -137.5q-10 -68 -5 -135.5t36.5 -112t103.5 -44.5zM310 1159q38 91 100.5 151.5t140.5 90.5t161 30q86 0 156 -31t116 -92t61 -149h-191q-20 47 -58.5 80t-104.5 33q-43 0 -78 -15.5t-63 -41t-49 -56.5h-191z" />
    <glyph glyph-name="uni0210" unicode="&#x210;" horiz-adv-x="1393" 
d="M75 0l217 1446h623q178 0 280 -58.5t138 -160t16 -230.5q-17 -113 -60.5 -191.5t-105 -132t-133.5 -90.5l170 -583h-347l-140 528h-241l-79 -528h-338zM531 785h240q61 0 112 28t84 75t41 103q13 88 -37 144t-130 56h-249zM515 1567l-277 291h304l208 -291h-235z
M900 1567l-220 291h293l161 -291h-234z" />
    <glyph glyph-name="uni0211" unicode="&#x211;" horiz-adv-x="827" 
d="M40 0l146 1034h327l-37 -265q35 81 88.5 145.5t125.5 102t160 37.5q11 0 18.5 -0.5t10.5 -2.5l-46 -323q-5 2 -12 3t-14 1q-128 13 -201.5 -12.5t-107.5 -76t-43 -112.5l-75 -531h-340zM220 1155l-277 291h304l208 -291h-235zM605 1155l-220 291h293l161 -291h-234z" />
    <glyph glyph-name="uni0212" unicode="&#x212;" horiz-adv-x="1393" 
d="M75 0l217 1446h623q178 0 280 -58.5t138 -160t16 -230.5q-17 -113 -60.5 -191.5t-105 -132t-133.5 -90.5l170 -583h-347l-140 528h-241l-79 -528h-338zM531 785h240q61 0 112 28t84 75t41 103q13 88 -37 144t-130 56h-249zM349 1571q38 91 100.5 151.5t140.5 90.5t161 30
q86 0 156 -31t116 -92t61 -149h-191q-20 47 -58.5 80t-104.5 33q-43 0 -78 -15.5t-63 -41t-49 -56.5h-191z" />
    <glyph glyph-name="uni0213" unicode="&#x213;" horiz-adv-x="827" 
d="M40 0l146 1034h327l-37 -265q35 81 88.5 145.5t125.5 102t160 37.5q11 0 18.5 -0.5t10.5 -2.5l-46 -323q-5 2 -12 3t-14 1q-128 13 -201.5 -12.5t-107.5 -76t-43 -112.5l-75 -531h-340zM197 1159q38 91 100.5 151.5t140.5 90.5t161 30q86 0 156 -31t116 -92t61 -149h-191
q-20 47 -58.5 80t-104.5 33q-43 0 -78 -15.5t-63 -41t-49 -56.5h-191z" />
    <glyph glyph-name="uni0214" unicode="&#x214;" horiz-adv-x="1458" 
d="M659 -20q-219 0 -337.5 74t-155.5 208.5t-9 316.5l129 867h344l-133 -886q-16 -104 7.5 -168.5t75.5 -94.5t123 -30q104 0 187.5 68.5t106.5 224.5l132 886h341l-129 -871q-27 -180 -104.5 -313.5t-218.5 -207.5t-359 -74zM567 1567l-277 291h304l208 -291h-235z
M952 1567l-220 291h293l161 -291h-234z" />
    <glyph glyph-name="uni0215" unicode="&#x215;" horiz-adv-x="1196" 
d="M414 -20q-66 0 -131 22t-116.5 64.5t-78 104t-15.5 141.5l101 722h340l-95 -676q-8 -58 25.5 -96.5t106.5 -38.5q71 0 117.5 37.5t54.5 99.5l95 674h337l-145 -1034h-253l-11 209q-31 -97 -89.5 -146.5t-123.5 -66t-119 -16.5zM354 1155l-277 291h304l208 -291h-235z
M739 1155l-220 291h293l161 -291h-234z" />
    <glyph glyph-name="uni0216" unicode="&#x216;" horiz-adv-x="1458" 
d="M659 -20q-219 0 -337.5 74t-155.5 208.5t-9 316.5l129 867h344l-133 -886q-16 -104 7.5 -168.5t75.5 -94.5t123 -30q104 0 187.5 68.5t106.5 224.5l132 886h341l-129 -871q-27 -180 -104.5 -313.5t-218.5 -207.5t-359 -74zM544 1571q38 91 100.5 151.5t140.5 90.5t161 30
q86 0 156 -31t116 -92t61 -149h-191q-20 47 -58.5 80t-104.5 33q-43 0 -78 -15.5t-63 -41t-49 -56.5h-191z" />
    <glyph glyph-name="uni0217" unicode="&#x217;" horiz-adv-x="1196" 
d="M414 -20q-66 0 -131 22t-116.5 64.5t-78 104t-15.5 141.5l101 722h340l-95 -676q-8 -58 25.5 -96.5t106.5 -38.5q71 0 117.5 37.5t54.5 99.5l95 674h337l-145 -1034h-253l-11 209q-31 -97 -89.5 -146.5t-123.5 -66t-119 -16.5zM331 1159q38 91 100.5 151.5t140.5 90.5
t161 30q86 0 156 -31t116 -92t61 -149h-191q-20 47 -58.5 80t-104.5 33q-43 0 -78 -15.5t-63 -41t-49 -56.5h-191z" />
    <glyph glyph-name="uni0218" unicode="&#x218;" horiz-adv-x="1410" 
d="M638 -20q-109 0 -212 26t-183 81t-125 139t-38 201h352q4 -59 35 -99.5t84 -62t124 -21.5q70 0 131.5 16t103 50t50.5 91q7 49 -22 78.5t-81 47t-116 29.5l-227 45q-162 29 -245.5 132t-60.5 279q20 141 112.5 242.5t232 155.5t298.5 54q173 0 294 -63.5t183.5 -166
t56.5 -217.5h-344q3 66 -23 106t-77 57.5t-122 17.5q-76 0 -128.5 -20t-81 -53t-33.5 -72q-8 -56 23.5 -90.5t131.5 -56.5l225 -44q141 -26 217 -80t106 -121.5t32 -135.5t-6 -124q-17 -119 -108.5 -215t-236.5 -151t-322 -55zM415 -468l118 161l-86 12l29 203h274l-24 -168
l-196 -208h-115z" />
    <glyph glyph-name="uni0219" unicode="&#x219;" horiz-adv-x="1065" 
d="M469 -20q-107 0 -203.5 36t-158 115t-64.5 206h290q6 -53 35.5 -81t66.5 -38t64 -10q73 0 121 21t53 64q6 36 -20 56.5t-93 32.5l-160 31q-138 27 -214 99.5t-59 205.5q13 95 75.5 171t168.5 120.5t251 44.5q200 0 306 -88t84 -243h-279q-3 53 -44 80.5t-102 27.5
q-64 0 -109 -21.5t-51 -64.5q-5 -33 29.5 -53t114.5 -36l144 -31q89 -23 141.5 -61.5t77 -83.5t30 -89.5t0.5 -78.5q-15 -107 -83.5 -181t-175.5 -112.5t-236 -38.5zM252 -468l118 161l-86 12l29 203h274l-24 -168l-196 -208h-115z" />
    <glyph glyph-name="uni021A" unicode="&#x21a;" horiz-adv-x="1237" 
d="M366 0l170 1145h-414l46 301h1165l-45 -301h-413l-172 -1145h-337zM336 -467l118 161l-86 12l29 203h274l-24 -168l-196 -208h-115z" />
    <glyph glyph-name="uni021B" unicode="&#x21b;" horiz-adv-x="850" 
d="M500 -13q-148 0 -223 37.5t-96.5 103t-9.5 148.5l79 525h-165l36 233h175l100 317h273l-47 -315h224l-35 -235h-224l-74 -508q-7 -46 11.5 -59.5t53.5 -13.5h147l-30 -205q-22 -9 -66.5 -18.5t-128.5 -9.5zM198 -453l118 161l-86 12l29 203h274l-24 -168l-196 -208h-115z
" />
    <glyph glyph-name="uni0237" unicode="&#x237;" horiz-adv-x="603" 
d="M-17 -332q-77 0 -101 15t-24 17l33 227l70 9q59 10 84 33.5t30 63.5l151 1001h337l-149 -1002q-27 -181 -132 -272.5t-299 -91.5z" />
    <glyph glyph-name="uni0259" unicode="&#x259;" horiz-adv-x="1144" 
d="M484 -20q-161 0 -259.5 68.5t-135.5 188t-14 273.5l14 85h659q13 71 -2 119.5t-53 73.5t-92 25q-63 0 -114.5 -26.5t-84.5 -92.5h-301q33 113 116.5 193.5t193 123.5t219.5 43q155 0 262.5 -65t155 -183t23.5 -277q-22 -151 -101 -275.5t-202.5 -199t-283.5 -74.5z
M519 213q53 0 96 26.5t71.5 69t35.5 90.5h-350q-8 -51 5 -93t48.5 -67.5t93.5 -25.5z" />
    <glyph glyph-name="uni02BB" unicode="&#x2bb;" horiz-adv-x="545" 
d="M150 871l42 273q9 63 42 122.5t83.5 104.5t112 66t128.5 8l-15 -93l-25 -3q-45 -6 -92.5 -42.5t-55.5 -93.5l-4 -19l150 -16l-45 -307h-321z" />
    <glyph glyph-name="uni02BC" unicode="&#x2bc;" horiz-adv-x="625" 
d="M150 876l29 93l25 3q46 7 97.5 43t68.5 92l7 20l-146 15l92 308h316l-83 -273q-18 -63 -59.5 -123t-97.5 -104.5t-120.5 -66t-128.5 -7.5z" />
    <glyph glyph-name="circumflex" unicode="&#x2c6;" horiz-adv-x="800" 
d="M111 1155l271 275h232l256 -275h-253l-123 144l-144 -144h-239z" />
    <glyph glyph-name="caron" unicode="&#x2c7;" horiz-adv-x="819" 
d="M378 1155l-226 277h239l120 -157l148 157h252l-299 -277h-234z" />
    <glyph glyph-name="breve" unicode="&#x2d8;" horiz-adv-x="805" 
d="M490 1156q-84 0 -153.5 30t-115 90.5t-57.5 151.5h191q13 -31 33 -56.5t51 -41t74 -15.5q66 0 113.5 33t81.5 80h191q-40 -88 -103 -148.5t-142 -92t-164 -31.5z" />
    <glyph glyph-name="dotaccent" unicode="&#x2d9;" horiz-adv-x="339" 
d="M104 1182l40 264h315l-39 -264h-316z" />
    <glyph glyph-name="ring" unicode="&#x2da;" horiz-adv-x="530" 
d="M339 1108q-93 0 -146.5 66t-39.5 161q9 59 46 108t91.5 78t114.5 29q92 0 146 -64t40 -155q-9 -63 -46.5 -113.5t-91.5 -80t-114 -29.5zM355 1230q40 0 71.5 30t37.5 69q6 41 -17 68t-63 27q-39 0 -72 -27t-40 -68q-6 -39 19 -69t64 -30z" />
    <glyph glyph-name="ogonek" unicode="&#x2db;" horiz-adv-x="533" 
d="M141 -338q-103 0 -157.5 41.5t-42.5 125.5q8 52 50.5 98.5t160.5 86.5l234 -3q-112 -38 -153.5 -69t-47.5 -68q-4 -30 8.5 -45t44.5 -15q44 0 79 14t70 33l-21 -148q-32 -18 -93.5 -34.5t-131.5 -16.5z" />
    <glyph glyph-name="tilde" unicode="&#x2dc;" horiz-adv-x="886" 
d="M220 1184l-25 160q44 41 94 70t123 29q57 0 107.5 -16t96.5 -32t91 -16q54 0 102.5 25t83.5 51l11 -184q-37 -29 -96.5 -53t-127.5 -24q-56 0 -101 14.5t-89.5 29t-96.5 14.5q-50 0 -87 -15.5t-86 -52.5z" />
    <glyph glyph-name="hungarumlaut" unicode="&#x2dd;" horiz-adv-x="875" 
d="M484 1155l209 291h303l-277 -291h-235zM100 1155l161 291h293l-220 -291h-234z" />
    <glyph glyph-name="gravecomb" unicode="&#x300;" 
d="M488 1155l-334 291h345l233 -291h-244z" />
    <glyph glyph-name="acutecomb" unicode="&#x301;" 
d="M100 1155l244 291h346l-344 -291h-246z" />
    <glyph glyph-name="uni0302" unicode="&#x302;" 
d="M111 1155l271 275h232l256 -275h-253l-123 144l-144 -144h-239z" />
    <glyph glyph-name="tildecomb" unicode="&#x303;" 
d="M220 1184l-25 160q44 41 94 70t123 29q57 0 107.5 -16t96.5 -32t91 -16q54 0 102.5 25t83.5 51l11 -184q-37 -29 -96.5 -53t-127.5 -24q-56 0 -101 14.5t-89.5 29t-96.5 14.5q-50 0 -87 -15.5t-86 -52.5z" />
    <glyph glyph-name="uni0304" unicode="&#x304;" 
d="M141 1192l32 212h742l-32 -212h-742z" />
    <glyph glyph-name="uni0306" unicode="&#x306;" 
d="M490 1156q-84 0 -153.5 30t-115 90.5t-57.5 151.5h191q13 -31 33 -56.5t51 -41t74 -15.5q66 0 113.5 33t81.5 80h191q-40 -88 -103 -148.5t-142 -92t-164 -31.5z" />
    <glyph glyph-name="uni0307" unicode="&#x307;" 
d="M104 1182l40 264h315l-39 -264h-316z" />
    <glyph glyph-name="uni0308" unicode="&#x308;" 
d="M592 1182l39 264h316l-40 -264h-315zM103 1182l40 264h316l-40 -264h-316z" />
    <glyph glyph-name="hookabovecomb" unicode="&#x309;" 
d="M747 1137l-56 120q40 24 56.5 55.5t1.5 65.5q-12 29 -48.5 31.5t-73.5 -19.5l-57 116q103 61 192.5 45t124.5 -90q43 -89 9.5 -174.5t-149.5 -149.5z" />
    <glyph glyph-name="uni030A" unicode="&#x30a;" 
d="M339 1108q-93 0 -146.5 66t-39.5 161q9 59 46 108t91.5 78t114.5 29q92 0 146 -64t40 -155q-9 -63 -46.5 -113.5t-91.5 -80t-114 -29.5zM355 1230q40 0 71.5 30t37.5 69q6 41 -17 68t-63 27q-39 0 -72 -27t-40 -68q-6 -39 19 -69t64 -30z" />
    <glyph glyph-name="uni030B" unicode="&#x30b;" 
d="M484 1155l209 291h303l-277 -291h-235zM100 1155l161 291h293l-220 -291h-234z" />
    <glyph glyph-name="uni030C" unicode="&#x30c;" 
d="M378 1155l-226 277h239l120 -157l148 157h252l-299 -277h-234z" />
    <glyph glyph-name="uni030F" unicode="&#x30f;" 
d="M418 1155l-277 291h304l208 -291h-235zM803 1155l-220 291h293l161 -291h-234z" />
    <glyph glyph-name="uni0311" unicode="&#x311;" 
d="M115 1159q38 91 100.5 151.5t140.5 90.5t161 30q86 0 156 -31t116 -92t61 -149h-191q-20 47 -58.5 80t-104.5 33q-43 0 -78 -15.5t-63 -41t-49 -56.5h-191z" />
    <glyph glyph-name="uni0312" unicode="&#x312;" 
d="M553 1155l29 209l145 162h121l-148 -177h110l-27 -194h-230z" />
    <glyph glyph-name="uni031B" unicode="&#x31b;" 
d="M53 896l24 163q51 -1 87 1t62.5 20.5t46.5 63t39 128.5h212q-24 -153 -73.5 -241.5t-143.5 -121t-254 -13.5z" />
    <glyph glyph-name="dotbelowcomb" unicode="&#x323;" 
d="M-121 -415l39 264h316l-40 -264h-315z" />
    <glyph glyph-name="uni0326" unicode="&#x326;" 
d="M-131 -468l118 161l-86 12l29 203h274l-24 -168l-196 -208h-115z" />
    <glyph glyph-name="uni0327" unicode="&#x327;" 
d="M144 -432q-65 0 -126.5 12t-109.5 44l60 109q29 -19 68.5 -35t82.5 -16t70.5 15t32.5 42q5 38 -29.5 58t-130.5 21q-14 0 -18.5 3.5t4.5 17.5l98 171h141l-59 -116q77 0 119.5 -25t57.5 -61.5t10 -72.5q-8 -52 -48 -89t-99 -57.5t-124 -20.5z" />
    <glyph glyph-name="uni0328" unicode="&#x328;" 
d="M141 -338q-103 0 -157.5 41.5t-42.5 125.5q8 52 50.5 98.5t160.5 86.5l234 -3q-112 -38 -153.5 -69t-47.5 -68q-4 -30 8.5 -45t44.5 -15q44 0 79 14t70 33l-21 -148q-32 -18 -93.5 -34.5t-131.5 -16.5z" />
    <glyph glyph-name="pi" unicode="&#x3c0;" horiz-adv-x="1366" 
d="M53 0q32 84 63 185.5t59 208t48 206.5t28 181q3 20 -14 20h-151l30 233h1261l-31 -233h-172l-91 -801h-326l90 801h-265q-9 -86 -30.5 -194.5t-51 -220.5t-62.5 -213t-65 -173h-320z" />
    <glyph glyph-name="uni1E0C" unicode="&#x1e0c;" horiz-adv-x="1453" 
d="M76 0l209 1446h69h127q147 0 283 -10t251.5 -40.5t202.5 -93.5t134.5 -169.5t47.5 -267.5q0 -77 -14 -170t-48.5 -190t-96 -187t-155.5 -161.5t-226.5 -114t-310.5 -42.5h-473zM457 271h126q106 0 192.5 47t148 128.5t95 188.5t33.5 227q0 108 -38 177t-108.5 102.5
t-169.5 33.5h-145zM306 -415l39 264h316l-40 -264h-315z" />
    <glyph glyph-name="uni1E0D" unicode="&#x1e0d;" horiz-adv-x="1218" 
d="M430 -20q-209 0 -302.5 146t-58.5 397q33 245 158 388t317 143q46 0 88.5 -10t78.5 -28.5t63.5 -46t43.5 -64.5l81 581h340l-206 -1486h-243l-10 212q-22 -48 -54 -90.5t-75 -74t-97.5 -49.5t-123.5 -18zM541 221q87 0 144 68t80 236q14 99 1 162.5t-48.5 93.5t-93.5 30
q-78 0 -141 -64.5t-84 -221.5q-23 -162 19 -233t123 -71zM319 -415l39 264h316l-40 -264h-315z" />
    <glyph glyph-name="uni1E24" unicode="&#x1e24;" horiz-adv-x="1531" 
d="M75 0l204 1446h340l-80 -564h556l79 564h339l-203 -1446h-340l85 601h-555l-85 -601h-340zM470 -415l39 264h316l-40 -264h-315z" />
    <glyph glyph-name="uni1E25" unicode="&#x1e25;" horiz-adv-x="1195" 
d="M42 0l221 1486h339l-87 -584q42 49 109.5 92t188.5 43q96 0 170.5 -41.5t112.5 -116.5t23 -175l-105 -704h-339l98 660q9 55 -30.5 86t-95.5 31q-37 0 -74 -15t-63 -42.5t-31 -65.5l-98 -654h-339zM315 -415l39 264h316l-40 -264h-315z" />
    <glyph glyph-name="uni1E44" unicode="&#x1e44;" horiz-adv-x="1585" 
d="M75 0l219 1446h338l466 -882l131 882h339l-218 -1446h-304l-493 928l-138 -928h-340zM793 1594l40 264h315l-39 -264h-316z" />
    <glyph glyph-name="uni1E45" unicode="&#x1e45;" horiz-adv-x="1193" 
d="M40 0l156 1034h332l-18 -129q36 36 75.5 66.5t94 50t134.5 19.5q91 0 165.5 -44t114 -122.5t23.5 -180.5l-104 -694h-339l98 650q10 60 -29 93.5t-93 33.5q-37 0 -75 -14t-65 -40.5t-32 -64.5l-100 -658h-338zM547 1182l40 264h315l-39 -264h-316z" />
    <glyph glyph-name="uni1E5A" unicode="&#x1e5a;" horiz-adv-x="1393" 
d="M75 0l217 1446h623q178 0 280 -58.5t138 -160t16 -230.5q-17 -113 -60.5 -191.5t-105 -132t-133.5 -90.5l170 -583h-347l-140 528h-241l-79 -528h-338zM531 785h240q61 0 112 28t84 75t41 103q13 88 -37 144t-130 56h-249zM410 -415l39 264h316l-40 -264h-315z" />
    <glyph glyph-name="uni1E5B" unicode="&#x1e5b;" horiz-adv-x="827" 
d="M40 0l146 1034h327l-37 -265q35 81 88.5 145.5t125.5 102t160 37.5q11 0 18.5 -0.5t10.5 -2.5l-46 -323q-5 2 -12 3t-14 1q-128 13 -201.5 -12.5t-107.5 -76t-43 -112.5l-75 -531h-340zM-14 -415l39 264h316l-40 -264h-315z" />
    <glyph glyph-name="uni1E62" unicode="&#x1e62;" horiz-adv-x="1410" 
d="M638 -20q-109 0 -212 26t-183 81t-125 139t-38 201h352q4 -59 35 -99.5t84 -62t124 -21.5q70 0 131.5 16t103 50t50.5 91q7 49 -22 78.5t-81 47t-116 29.5l-227 45q-162 29 -245.5 132t-60.5 279q20 141 112.5 242.5t232 155.5t298.5 54q173 0 294 -63.5t183.5 -166
t56.5 -217.5h-344q3 66 -23 106t-77 57.5t-122 17.5q-76 0 -128.5 -20t-81 -53t-33.5 -72q-8 -56 23.5 -90.5t131.5 -56.5l225 -44q141 -26 217 -80t106 -121.5t32 -135.5t-6 -124q-17 -119 -108.5 -215t-236.5 -151t-322 -55zM413 -415l39 264h316l-40 -264h-315z" />
    <glyph glyph-name="uni1E63" unicode="&#x1e63;" horiz-adv-x="1065" 
d="M469 -20q-107 0 -203.5 36t-158 115t-64.5 206h290q6 -53 35.5 -81t66.5 -38t64 -10q73 0 121 21t53 64q6 36 -20 56.5t-93 32.5l-160 31q-138 27 -214 99.5t-59 205.5q13 95 75.5 171t168.5 120.5t251 44.5q200 0 306 -88t84 -243h-279q-3 53 -44 80.5t-102 27.5
q-64 0 -109 -21.5t-51 -64.5q-5 -33 29.5 -53t114.5 -36l144 -31q89 -23 141.5 -61.5t77 -83.5t30 -89.5t0.5 -78.5q-15 -107 -83.5 -181t-175.5 -112.5t-236 -38.5zM250 -415l39 264h316l-40 -264h-315z" />
    <glyph glyph-name="uni1E6C" unicode="&#x1e6c;" horiz-adv-x="1237" 
d="M366 0l170 1145h-414l46 301h1165l-45 -301h-413l-172 -1145h-337zM334 -414l39 264h316l-40 -264h-315z" />
    <glyph glyph-name="uni1E6D" unicode="&#x1e6d;" horiz-adv-x="850" 
d="M500 -13q-148 0 -223 37.5t-96.5 103t-9.5 148.5l79 525h-165l36 233h175l100 317h273l-47 -315h224l-35 -235h-224l-74 -508q-7 -46 11.5 -59.5t53.5 -13.5h147l-30 -205q-22 -9 -66.5 -18.5t-128.5 -9.5zM196 -400l39 264h316l-40 -264h-315z" />
    <glyph glyph-name="Wgrave" unicode="&#x1e80;" horiz-adv-x="1919" 
d="M373 0l-208 1446h329l111 -865l365 865h239l114 -865l365 865h328l-640 -1446h-259l-115 866l-375 -866h-254zM974 1567l-334 291h345l233 -291h-244z" />
    <glyph glyph-name="wgrave" unicode="&#x1e81;" horiz-adv-x="1559" 
d="M274 0l-182 1034h296l90 -572h3l253 572h237l80 -573h3l259 573h301l-503 -1034h-251l-85 564l-259 -564h-242zM744 1155l-334 291h345l233 -291h-244z" />
    <glyph glyph-name="Wacute" unicode="&#x1e82;" horiz-adv-x="1919" 
d="M373 0l-208 1446h329l111 -865l365 865h239l114 -865l365 865h328l-640 -1446h-259l-115 866l-375 -866h-254zM980 1567l244 291h346l-344 -291h-246z" />
    <glyph glyph-name="wacute" unicode="&#x1e83;" horiz-adv-x="1559" 
d="M274 0l-182 1034h296l90 -572h3l253 572h237l80 -573h3l259 573h301l-503 -1034h-251l-85 564l-259 -564h-242zM750 1155l244 291h346l-344 -291h-246z" />
    <glyph glyph-name="Wdieresis" unicode="&#x1e84;" horiz-adv-x="1919" 
d="M373 0l-208 1446h329l111 -865l365 865h239l114 -865l365 865h328l-640 -1446h-259l-115 866l-375 -866h-254zM1194 1594l39 264h316l-40 -264h-315zM705 1594l40 264h316l-40 -264h-316z" />
    <glyph glyph-name="wdieresis" unicode="&#x1e85;" horiz-adv-x="1559" 
d="M274 0l-182 1034h296l90 -572h3l253 572h237l80 -573h3l259 573h301l-503 -1034h-251l-85 564l-259 -564h-242zM964 1182l39 264h316l-40 -264h-315zM475 1182l40 264h316l-40 -264h-316z" />
    <glyph glyph-name="uni1E92" unicode="&#x1e92;" horiz-adv-x="1365" 
d="M26 0l24 160l844 1004h-639l45 282h1121l-23 -153l-857 -1007h696l-43 -286h-1168zM405 -415l39 264h316l-40 -264h-315z" />
    <glyph glyph-name="uni1E93" unicode="&#x1e93;" horiz-adv-x="1002" 
d="M-14 0l23 184l556 615h-437l33 235h853l-22 -184l-557 -615h469l-33 -235h-885zM188 -415l39 264h316l-40 -264h-315z" />
    <glyph glyph-name="uni1EA0" unicode="&#x1ea0;" horiz-adv-x="1447" 
d="M-30 0l724 1446h348l289 -1446h-334l-58 308h-478l-153 -308h-338zM578 601h326l-84 518zM434 -415l39 264h316l-40 -264h-315z" />
    <glyph glyph-name="uni1EA1" unicode="&#x1ea1;" horiz-adv-x="1149" 
d="M345 -20q-97 0 -170.5 37.5t-109 109.5t-20.5 176q25 169 167.5 260t415.5 92l102 1l8 53q9 62 -22.5 92t-97.5 29q-51 -1 -107 -25t-88 -86h-276q23 115 97 189t184 110t239 36q166 0 257.5 -41t123 -114t16.5 -169l-110 -730h-280l-4 170q-66 -109 -143.5 -149.5
t-181.5 -40.5zM494 199q33 0 64.5 12t58 33.5t44 47.5t23.5 56l21 141l-81 -1q-50 0 -106 -14t-98 -46.5t-51 -89.5q-9 -65 28 -102t97 -37zM263 -415l39 264h316l-40 -264h-315z" />
    <glyph glyph-name="uni1EA2" unicode="&#x1ea2;" horiz-adv-x="1447" 
d="M-30 0l724 1446h348l289 -1446h-334l-58 308h-478l-153 -308h-338zM578 601h326l-84 518zM959 1545l-56 120q40 24 56.5 55.5t1.5 65.5q-12 29 -48.5 31.5t-73.5 -19.5l-57 116q103 61 192.5 45t124.5 -90q43 -89 9.5 -174.5t-149.5 -149.5z" />
    <glyph glyph-name="uni1EA3" unicode="&#x1ea3;" horiz-adv-x="1149" 
d="M345 -20q-97 0 -170.5 37.5t-109 109.5t-20.5 176q25 169 167.5 260t415.5 92l102 1l8 53q9 62 -22.5 92t-97.5 29q-51 -1 -107 -25t-88 -86h-276q23 115 97 189t184 110t239 36q166 0 257.5 -41t123 -114t16.5 -169l-110 -730h-280l-4 170q-66 -109 -143.5 -149.5
t-181.5 -40.5zM494 199q33 0 64.5 12t58 33.5t44 47.5t23.5 56l21 141l-81 -1q-50 0 -106 -14t-98 -46.5t-51 -89.5q-9 -65 28 -102t97 -37zM739 1133l-56 120q40 24 56.5 55.5t1.5 65.5q-12 29 -48.5 31.5t-73.5 -19.5l-57 116q103 61 192.5 45t124.5 -90
q43 -89 9.5 -174.5t-149.5 -149.5z" />
    <glyph glyph-name="uni1EA4" unicode="&#x1ea4;" horiz-adv-x="1447" 
d="M-30 0l724 1446h348l289 -1446h-334l-58 308h-478l-153 -308h-338zM578 601h326l-84 518zM505 1567l271 275h232l256 -275h-253l-123 144l-144 -144h-239zM1152 1837l133 249h255l-216 -249h-172z" />
    <glyph glyph-name="uni1EA5" unicode="&#x1ea5;" horiz-adv-x="1138" 
d="M345 -20q-97 0 -170.5 37.5t-109 109.5t-20.5 176q25 169 167.5 260t415.5 92l102 1l8 53q9 62 -22.5 92t-97.5 29q-51 -1 -107 -25t-88 -86h-276q23 115 97 189t184 110t239 36q166 0 257.5 -41t123 -114t16.5 -169l-110 -730h-280l-4 170q-66 -109 -143.5 -149.5
t-181.5 -40.5zM494 199q33 0 64.5 12t58 33.5t44 47.5t23.5 56l21 141l-81 -1q-50 0 -106 -14t-98 -46.5t-51 -89.5q-9 -65 28 -102t97 -37zM302 1155l271 275h232l256 -275h-253l-123 144l-144 -144h-239zM949 1425l133 249h255l-216 -249h-172z" />
    <glyph glyph-name="uni1EA6" unicode="&#x1ea6;" horiz-adv-x="1447" 
d="M-30 0l724 1446h348l289 -1446h-334l-58 308h-478l-153 -308h-338zM578 601h326l-84 518zM504 1567l271 275h232l256 -275h-253l-123 144l-144 -144h-239zM1225 1831l-158 250h244l79 -250h-165z" />
    <glyph glyph-name="uni1EA7" unicode="&#x1ea7;" horiz-adv-x="1119" 
d="M345 -20q-97 0 -170.5 37.5t-109 109.5t-20.5 176q25 169 167.5 260t415.5 92l102 1l8 53q9 62 -22.5 92t-97.5 29q-51 -1 -107 -25t-88 -86h-276q23 115 97 189t184 110t239 36q166 0 257.5 -41t123 -114t16.5 -169l-110 -730h-280l-4 170q-66 -109 -143.5 -149.5
t-181.5 -40.5zM494 199q33 0 64.5 12t58 33.5t44 47.5t23.5 56l21 141l-81 -1q-50 0 -106 -14t-98 -46.5t-51 -89.5q-9 -65 28 -102t97 -37zM284 1155l271 275h232l256 -275h-253l-123 144l-144 -144h-239zM1005 1419l-158 250h244l79 -250h-165z" />
    <glyph glyph-name="uni1EA8" unicode="&#x1ea8;" horiz-adv-x="1447" 
d="M-30 0l724 1446h348l289 -1446h-334l-58 308h-478l-153 -308h-338zM578 601h326l-84 518zM501 1567l271 275h232l256 -275h-253l-123 144l-144 -144h-239zM1196 1750l-57 119q40 24 56.5 56t2.5 66q-13 28 -49.5 31t-73.5 -20l-56 116q102 61 191.5 45.5t125.5 -90.5
q42 -89 8.5 -174.5t-148.5 -148.5z" />
    <glyph glyph-name="uni1EA9" unicode="&#x1ea9;" horiz-adv-x="1143" 
d="M345 -20q-97 0 -170.5 37.5t-109 109.5t-20.5 176q25 169 167.5 260t415.5 92l102 1l8 53q9 62 -22.5 92t-97.5 29q-51 -1 -107 -25t-88 -86h-276q23 115 97 189t184 110t239 36q166 0 257.5 -41t123 -114t16.5 -169l-110 -730h-280l-4 170q-66 -109 -143.5 -149.5
t-181.5 -40.5zM494 199q33 0 64.5 12t58 33.5t44 47.5t23.5 56l21 141l-81 -1q-50 0 -106 -14t-98 -46.5t-51 -89.5q-9 -65 28 -102t97 -37zM298 1155l271 275h232l256 -275h-253l-123 144l-144 -144h-239zM993 1338l-57 119q40 24 56.5 56t2.5 66q-13 28 -49.5 31
t-73.5 -20l-56 116q102 61 191.5 45.5t125.5 -90.5q42 -89 8.5 -174.5t-148.5 -148.5z" />
    <glyph glyph-name="uni1EAA" unicode="&#x1eaa;" horiz-adv-x="1447" 
d="M-30 0l724 1446h348l289 -1446h-334l-58 308h-478l-153 -308h-338zM578 601h326l-84 518zM531 1567l272 275h231l256 -275h-252l-123 144l-145 -144h-239zM603 1932l-26 159q45 41 95 70t122 29q58 0 108.5 -16t96.5 -31.5t91 -15.5q53 0 102 25t84 50l11 -184
q-37 -28 -96.5 -52t-127.5 -24q-56 0 -101.5 14.5t-89.5 29t-96 14.5q-51 0 -88 -16t-85 -52z" />
    <glyph glyph-name="uni1EAB" unicode="&#x1eab;" horiz-adv-x="1149" 
d="M345 -20q-97 0 -170.5 37.5t-109 109.5t-20.5 176q25 169 167.5 260t415.5 92l102 1l8 53q9 62 -22.5 92t-97.5 29q-51 -1 -107 -25t-88 -86h-276q23 115 97 189t184 110t239 36q166 0 257.5 -41t123 -114t16.5 -169l-110 -730h-280l-4 170q-66 -109 -143.5 -149.5
t-181.5 -40.5zM494 199q33 0 64.5 12t58 33.5t44 47.5t23.5 56l21 141l-81 -1q-50 0 -106 -14t-98 -46.5t-51 -89.5q-9 -65 28 -102t97 -37zM310 1155l272 275h231l256 -275h-252l-123 144l-145 -144h-239zM382 1520l-26 159q45 41 95 70t122 29q58 0 108.5 -16t96.5 -31.5
t91 -15.5q53 0 102 25t84 50l11 -184q-37 -28 -96.5 -52t-127.5 -24q-56 0 -101.5 14.5t-89.5 29t-96 14.5q-51 0 -88 -16t-85 -52z" />
    <glyph glyph-name="uni1EAC" unicode="&#x1eac;" horiz-adv-x="1447" 
d="M-30 0l724 1446h348l289 -1446h-334l-58 308h-478l-153 -308h-338zM578 601h326l-84 518zM434 -415l39 264h316l-40 -264h-315zM506 1567l271 275h232l256 -275h-253l-123 144l-144 -144h-239z" />
    <glyph glyph-name="uni1EAD" unicode="&#x1ead;" horiz-adv-x="1149" 
d="M345 -20q-97 0 -170.5 37.5t-109 109.5t-20.5 176q25 169 167.5 260t415.5 92l102 1l8 53q9 62 -22.5 92t-97.5 29q-51 -1 -107 -25t-88 -86h-276q23 115 97 189t184 110t239 36q166 0 257.5 -41t123 -114t16.5 -169l-110 -730h-280l-4 170q-66 -109 -143.5 -149.5
t-181.5 -40.5zM494 199q33 0 64.5 12t58 33.5t44 47.5t23.5 56l21 141l-81 -1q-50 0 -106 -14t-98 -46.5t-51 -89.5q-9 -65 28 -102t97 -37zM263 -415l39 264h316l-40 -264h-315zM287 1155l271 275h232l256 -275h-253l-123 144l-144 -144h-239z" />
    <glyph glyph-name="uni1EAE" unicode="&#x1eae;" horiz-adv-x="1447" 
d="M-30 0l724 1446h348l289 -1446h-334l-58 308h-478l-153 -308h-338zM578 601h326l-84 518zM947 1568q-84 0 -153.5 30t-115 90.5t-57.5 151.5h191q13 -31 33 -56.5t51 -41t74 -15.5q66 0 113.5 33t81.5 80h191q-40 -88 -103 -148.5t-142 -92t-164 -31.5zM904 1940l133 250
h255l-217 -250h-171z" />
    <glyph glyph-name="uni1EAF" unicode="&#x1eaf;" horiz-adv-x="1149" 
d="M345 -20q-97 0 -170.5 37.5t-109 109.5t-20.5 176q25 169 167.5 260t415.5 92l102 1l8 53q9 62 -22.5 92t-97.5 29q-51 -1 -107 -25t-88 -86h-276q23 115 97 189t184 110t239 36q166 0 257.5 -41t123 -114t16.5 -169l-110 -730h-280l-4 170q-66 -109 -143.5 -149.5
t-181.5 -40.5zM494 199q33 0 64.5 12t58 33.5t44 47.5t23.5 56l21 141l-81 -1q-50 0 -106 -14t-98 -46.5t-51 -89.5q-9 -65 28 -102t97 -37zM728 1156q-84 0 -153.5 30t-115 90.5t-57.5 151.5h191q13 -31 33 -56.5t51 -41t74 -15.5q66 0 113.5 33t81.5 80h191
q-40 -88 -103 -148.5t-142 -92t-164 -31.5zM685 1528l133 250h255l-217 -250h-171z" />
    <glyph glyph-name="uni1EB0" unicode="&#x1eb0;" horiz-adv-x="1447" 
d="M-30 0l724 1446h348l289 -1446h-334l-58 308h-478l-153 -308h-338zM578 601h326l-84 518zM946 1568q-84 0 -153.5 30t-115 90.5t-57.5 151.5h191q13 -31 33 -56.5t51 -41t74 -15.5q66 0 113.5 33t81.5 80h191q-40 -88 -103 -148.5t-142 -92t-164 -31.5zM899 1939
l-158 250h243l80 -250h-165z" />
    <glyph glyph-name="uni1EB1" unicode="&#x1eb1;" horiz-adv-x="1149" 
d="M345 -20q-97 0 -170.5 37.5t-109 109.5t-20.5 176q25 169 167.5 260t415.5 92l102 1l8 53q9 62 -22.5 92t-97.5 29q-51 -1 -107 -25t-88 -86h-276q23 115 97 189t184 110t239 36q166 0 257.5 -41t123 -114t16.5 -169l-110 -730h-280l-4 170q-66 -109 -143.5 -149.5
t-181.5 -40.5zM494 199q33 0 64.5 12t58 33.5t44 47.5t23.5 56l21 141l-81 -1q-50 0 -106 -14t-98 -46.5t-51 -89.5q-9 -65 28 -102t97 -37zM727 1156q-84 0 -153.5 30t-115 90.5t-57.5 151.5h191q13 -31 33 -56.5t51 -41t74 -15.5q66 0 113.5 33t81.5 80h191
q-40 -88 -103 -148.5t-142 -92t-164 -31.5zM680 1527l-158 250h243l80 -250h-165z" />
    <glyph glyph-name="uni1EB2" unicode="&#x1eb2;" horiz-adv-x="1447" 
d="M-30 0l724 1446h348l289 -1446h-334l-58 308h-478l-153 -308h-338zM578 601h326l-84 518zM907 1568q-84 0 -153.5 30t-115 90.5t-57.5 151.5h191q13 -31 33 -56.5t51 -41t74 -15.5q66 0 113.5 33t81.5 80h191q-40 -88 -103 -148.5t-142 -92t-164 -31.5zM974 1799l-56 119
q40 24 56.5 56t1.5 66q-12 28 -48.5 31t-73.5 -20l-57 116q81 48 157 48q116 0 160 -93q43 -89 9 -174.5t-149 -148.5z" />
    <glyph glyph-name="uni1EB3" unicode="&#x1eb3;" horiz-adv-x="1149" 
d="M345 -20q-97 0 -170.5 37.5t-109 109.5t-20.5 176q25 169 167.5 260t415.5 92l102 1l8 53q9 62 -22.5 92t-97.5 29q-51 -1 -107 -25t-88 -86h-276q23 115 97 189t184 110t239 36q166 0 257.5 -41t123 -114t16.5 -169l-110 -730h-280l-4 170q-66 -109 -143.5 -149.5
t-181.5 -40.5zM494 199q33 0 64.5 12t58 33.5t44 47.5t23.5 56l21 141l-81 -1q-50 0 -106 -14t-98 -46.5t-51 -89.5q-9 -65 28 -102t97 -37zM722 1156q-84 0 -153.5 30t-115 90.5t-57.5 151.5h191q13 -31 33 -56.5t51 -41t74 -15.5q66 0 113.5 33t81.5 80h191
q-40 -88 -103 -148.5t-142 -92t-164 -31.5zM789 1387l-56 119q40 24 56.5 56t1.5 66q-12 28 -48.5 31t-73.5 -20l-57 116q81 48 157 48q116 0 160 -93q43 -89 9 -174.5t-149 -148.5z" />
    <glyph glyph-name="uni1EB4" unicode="&#x1eb4;" horiz-adv-x="1447" 
d="M-30 0l724 1446h348l289 -1446h-334l-58 308h-478l-153 -308h-338zM578 601h326l-84 518zM945 1568q-84 0 -153.5 30t-115 90.5t-57.5 151.5h191q13 -31 33.5 -56.5t51 -41t74.5 -15.5q65 0 112.5 33t81.5 80h191q-39 -88 -102.5 -148.5t-142 -92t-164.5 -31.5zM633 1933
l-25 159q44 42 94 70.5t123 28.5q57 0 107.5 -15.5t96.5 -31.5t91 -16q54 0 103 25t83 51l12 -185q-38 -28 -97.5 -52t-127.5 -24q-56 0 -101 14.5t-89.5 29t-96.5 14.5q-50 0 -87 -15.5t-86 -52.5z" />
    <glyph glyph-name="uni1EB5" unicode="&#x1eb5;" horiz-adv-x="1149" 
d="M345 -20q-97 0 -170.5 37.5t-109 109.5t-20.5 176q25 169 167.5 260t415.5 92l102 1l8 53q9 62 -22.5 92t-97.5 29q-51 -1 -107 -25t-88 -86h-276q23 115 97 189t184 110t239 36q166 0 257.5 -41t123 -114t16.5 -169l-110 -730h-280l-4 170q-66 -109 -143.5 -149.5
t-181.5 -40.5zM494 199q33 0 64.5 12t58 33.5t44 47.5t23.5 56l21 141l-81 -1q-50 0 -106 -14t-98 -46.5t-51 -89.5q-9 -65 28 -102t97 -37zM724 1156q-84 0 -153.5 30t-115 90.5t-57.5 151.5h191q13 -31 33.5 -56.5t51 -41t74.5 -15.5q65 0 112.5 33t81.5 80h191
q-39 -88 -102.5 -148.5t-142 -92t-164.5 -31.5zM412 1521l-25 159q44 42 94 70.5t123 28.5q57 0 107.5 -15.5t96.5 -31.5t91 -16q54 0 103 25t83 51l12 -185q-38 -28 -97.5 -52t-127.5 -24q-56 0 -101 14.5t-89.5 29t-96.5 14.5q-50 0 -87 -15.5t-86 -52.5z" />
    <glyph glyph-name="uni1EB6" unicode="&#x1eb6;" horiz-adv-x="1447" 
d="M-30 0l724 1446h348l289 -1446h-334l-58 308h-478l-153 -308h-338zM578 601h326l-84 518zM434 -415l39 264h316l-40 -264h-315zM887 1568q-84 0 -153.5 30t-115 90.5t-57.5 151.5h191q13 -31 33 -56.5t51 -41t74 -15.5q66 0 113.5 33t81.5 80h191q-40 -88 -103 -148.5
t-142 -92t-164 -31.5z" />
    <glyph glyph-name="uni1EB7" unicode="&#x1eb7;" horiz-adv-x="1136" 
d="M345 -20q-97 0 -170.5 37.5t-109 109.5t-20.5 176q25 169 167.5 260t415.5 92l102 1l8 53q9 62 -22.5 92t-97.5 29q-51 -1 -107 -25t-88 -86h-276q23 115 97 189t184 110t239 36q166 0 257.5 -41t123 -114t16.5 -169l-110 -730h-280l-4 170q-66 -109 -143.5 -149.5
t-181.5 -40.5zM494 199q33 0 64.5 12t58 33.5t44 47.5t23.5 56l21 141l-81 -1q-50 0 -106 -14t-98 -46.5t-51 -89.5q-9 -65 28 -102t97 -37zM263 -415l39 264h316l-40 -264h-315zM667 1155q-84 0 -153.5 30t-115 90.5t-57.5 151.5h191q13 -31 33 -56.5t51 -41t74 -15.5
q66 0 113.5 33t81.5 80h191q-40 -88 -103 -148.5t-142 -92t-164 -31.5z" />
    <glyph glyph-name="uni1EB8" unicode="&#x1eb8;" horiz-adv-x="1278" 
d="M75 0l219 1446h1013l-44 -284h-673l-44 -295h573l-42 -278h-574l-46 -302l683 -1l-44 -286h-1021zM369 -415l39 264h316l-40 -264h-315z" />
    <glyph glyph-name="uni1EB9" unicode="&#x1eb9;" horiz-adv-x="1144" 
d="M514 -20q-155 0 -262.5 65t-155 183t-23.5 277q22 151 100.5 275.5t203 199t283.5 74.5q162 0 260 -68.5t135 -188t14 -273.5l-14 -85h-660q-11 -71 3.5 -119.5t52 -73.5t92.5 -25q62 0 114 26.5t85 92.5h300q-33 -113 -116 -193.5t-192 -123.5t-220 -43zM422 635h350
q8 51 -5 93.5t-48.5 67.5t-94.5 25q-51 0 -94.5 -26.5t-71.5 -69t-36 -90.5zM293 -415l39 264h316l-40 -264h-315z" />
    <glyph glyph-name="uni1EBA" unicode="&#x1eba;" horiz-adv-x="1278" 
d="M75 0l219 1446h1013l-44 -284h-673l-44 -295h573l-42 -278h-574l-46 -302l683 -1l-44 -286h-1021zM869 1545l-56 120q40 24 56.5 55.5t1.5 65.5q-12 29 -48.5 31.5t-73.5 -19.5l-57 116q103 61 192.5 45t124.5 -90q43 -89 9.5 -174.5t-149.5 -149.5z" />
    <glyph glyph-name="uni1EBB" unicode="&#x1ebb;" horiz-adv-x="1144" 
d="M514 -20q-155 0 -262.5 65t-155 183t-23.5 277q22 151 100.5 275.5t203 199t283.5 74.5q162 0 260 -68.5t135 -188t14 -273.5l-14 -85h-660q-11 -71 3.5 -119.5t52 -73.5t92.5 -25q62 0 114 26.5t85 92.5h300q-33 -113 -116 -193.5t-192 -123.5t-220 -43zM422 635h350
q8 51 -5 93.5t-48.5 67.5t-94.5 25q-51 0 -94.5 -26.5t-71.5 -69t-36 -90.5zM748 1133l-56 120q40 24 56.5 55.5t1.5 65.5q-12 29 -48.5 31.5t-73.5 -19.5l-57 116q103 61 192.5 45t124.5 -90q43 -89 9.5 -174.5t-149.5 -149.5z" />
    <glyph glyph-name="uni1EBC" unicode="&#x1ebc;" horiz-adv-x="1278" 
d="M75 0l219 1446h1013l-44 -284h-673l-44 -295h573l-42 -278h-574l-46 -302l683 -1l-44 -286h-1021zM496 1596l-25 160q44 41 94 70t123 29q57 0 107.5 -16t96.5 -32t91 -16q54 0 102.5 25t83.5 51l11 -184q-37 -29 -96.5 -53t-127.5 -24q-56 0 -101 14.5t-89.5 29
t-96.5 14.5q-50 0 -87 -15.5t-86 -52.5z" />
    <glyph glyph-name="uni1EBD" unicode="&#x1ebd;" horiz-adv-x="1144" 
d="M514 -20q-155 0 -262.5 65t-155 183t-23.5 277q22 151 100.5 275.5t203 199t283.5 74.5q162 0 260 -68.5t135 -188t14 -273.5l-14 -85h-660q-11 -71 3.5 -119.5t52 -73.5t92.5 -25q62 0 114 26.5t85 92.5h300q-33 -113 -116 -193.5t-192 -123.5t-220 -43zM422 635h350
q8 51 -5 93.5t-48.5 67.5t-94.5 25q-51 0 -94.5 -26.5t-71.5 -69t-36 -90.5zM375 1184l-25 160q44 41 94 70t123 29q57 0 107.5 -16t96.5 -32t91 -16q54 0 102.5 25t83.5 51l11 -184q-37 -29 -96.5 -53t-127.5 -24q-56 0 -101 14.5t-89.5 29t-96.5 14.5q-50 0 -87 -15.5
t-86 -52.5z" />
    <glyph glyph-name="uni1EBE" unicode="&#x1ebe;" horiz-adv-x="1278" 
d="M75 0l219 1446h1013l-44 -284h-673l-44 -295h573l-42 -278h-574l-46 -302l683 -1l-44 -286h-1021zM415 1567l271 275h232l256 -275h-253l-123 144l-144 -144h-239zM1062 1837l133 249h255l-216 -249h-172z" />
    <glyph glyph-name="uni1EBF" unicode="&#x1ebf;" horiz-adv-x="1144" 
d="M514 -20q-155 0 -262.5 65t-155 183t-23.5 277q22 151 100.5 275.5t203 199t283.5 74.5q162 0 260 -68.5t135 -188t14 -273.5l-14 -85h-660q-11 -71 3.5 -119.5t52 -73.5t92.5 -25q62 0 114 26.5t85 92.5h300q-33 -113 -116 -193.5t-192 -123.5t-220 -43zM422 635h350
q8 51 -5 93.5t-48.5 67.5t-94.5 25q-51 0 -94.5 -26.5t-71.5 -69t-36 -90.5zM294 1155l271 275h232l256 -275h-253l-123 144l-144 -144h-239zM941 1425l133 249h255l-216 -249h-172z" />
    <glyph glyph-name="uni1EC0" unicode="&#x1ec0;" horiz-adv-x="1278" 
d="M75 0l219 1446h1013l-44 -284h-673l-44 -295h573l-42 -278h-574l-46 -302l683 -1l-44 -286h-1021zM414 1567l271 275h232l256 -275h-253l-123 144l-144 -144h-239zM1135 1831l-158 250h244l79 -250h-165z" />
    <glyph glyph-name="uni1EC1" unicode="&#x1ec1;" horiz-adv-x="1107" 
d="M514 -20q-155 0 -262.5 65t-155 183t-23.5 277q22 151 100.5 275.5t203 199t283.5 74.5q162 0 260 -68.5t135 -188t14 -273.5l-14 -85h-660q-11 -71 3.5 -119.5t52 -73.5t92.5 -25q62 0 114 26.5t85 92.5h300q-33 -113 -116 -193.5t-192 -123.5t-220 -43zM422 635h350
q8 51 -5 93.5t-48.5 67.5t-94.5 25q-51 0 -94.5 -26.5t-71.5 -69t-36 -90.5zM271 1155l271 275h232l256 -275h-253l-123 144l-144 -144h-239zM992 1419l-158 250h244l79 -250h-165z" />
    <glyph glyph-name="uni1EC2" unicode="&#x1ec2;" horiz-adv-x="1278" 
d="M75 0l219 1446h1013l-44 -284h-673l-44 -295h573l-42 -278h-574l-46 -302l683 -1l-44 -286h-1021zM411 1567l271 275h232l256 -275h-253l-123 144l-144 -144h-239zM1106 1750l-57 119q40 24 56.5 56t2.5 66q-13 28 -49.5 31t-73.5 -20l-56 116q102 61 191.5 45.5
t125.5 -90.5q42 -89 8.5 -174.5t-148.5 -148.5z" />
    <glyph glyph-name="uni1EC3" unicode="&#x1ec3;" horiz-adv-x="1144" 
d="M514 -20q-155 0 -262.5 65t-155 183t-23.5 277q22 151 100.5 275.5t203 199t283.5 74.5q162 0 260 -68.5t135 -188t14 -273.5l-14 -85h-660q-11 -71 3.5 -119.5t52 -73.5t92.5 -25q62 0 114 26.5t85 92.5h300q-33 -113 -116 -193.5t-192 -123.5t-220 -43zM422 635h350
q8 51 -5 93.5t-48.5 67.5t-94.5 25q-51 0 -94.5 -26.5t-71.5 -69t-36 -90.5zM290 1155l271 275h232l256 -275h-253l-123 144l-144 -144h-239zM985 1338l-57 119q40 24 56.5 56t2.5 66q-13 28 -49.5 31t-73.5 -20l-56 116q102 61 191.5 45.5t125.5 -90.5q42 -89 8.5 -174.5
t-148.5 -148.5z" />
    <glyph glyph-name="uni1EC4" unicode="&#x1ec4;" horiz-adv-x="1278" 
d="M75 0l219 1446h1013l-44 -284h-673l-44 -295h573l-42 -278h-574l-46 -302l683 -1l-44 -286h-1021zM441 1567l272 275h231l256 -275h-252l-123 144l-145 -144h-239zM513 1932l-26 159q45 41 95 70t122 29q58 0 108.5 -16t96.5 -31.5t91 -15.5q53 0 102 25t84 50l11 -184
q-37 -28 -96.5 -52t-127.5 -24q-56 0 -101.5 14.5t-89.5 29t-96 14.5q-51 0 -88 -16t-85 -52z" />
    <glyph glyph-name="uni1EC5" unicode="&#x1ec5;" horiz-adv-x="1144" 
d="M514 -20q-155 0 -262.5 65t-155 183t-23.5 277q22 151 100.5 275.5t203 199t283.5 74.5q162 0 260 -68.5t135 -188t14 -273.5l-14 -85h-660q-11 -71 3.5 -119.5t52 -73.5t92.5 -25q62 0 114 26.5t85 92.5h300q-33 -113 -116 -193.5t-192 -123.5t-220 -43zM422 635h350
q8 51 -5 93.5t-48.5 67.5t-94.5 25q-51 0 -94.5 -26.5t-71.5 -69t-36 -90.5zM320 1155l272 275h231l256 -275h-252l-123 144l-145 -144h-239zM392 1520l-26 159q45 41 95 70t122 29q58 0 108.5 -16t96.5 -31.5t91 -15.5q53 0 102 25t84 50l11 -184q-37 -28 -96.5 -52
t-127.5 -24q-56 0 -101.5 14.5t-89.5 29t-96 14.5q-51 0 -88 -16t-85 -52z" />
    <glyph glyph-name="uni1EC6" unicode="&#x1ec6;" horiz-adv-x="1278" 
d="M75 0l219 1446h1013l-44 -284h-673l-44 -295h573l-42 -278h-574l-46 -302l683 -1l-44 -286h-1021zM369 -415l39 264h316l-40 -264h-315zM416 1567l271 275h232l256 -275h-253l-123 144l-144 -144h-239z" />
    <glyph glyph-name="uni1EC7" unicode="&#x1ec7;" horiz-adv-x="1144" 
d="M514 -20q-155 0 -262.5 65t-155 183t-23.5 277q22 151 100.5 275.5t203 199t283.5 74.5q162 0 260 -68.5t135 -188t14 -273.5l-14 -85h-660q-11 -71 3.5 -119.5t52 -73.5t92.5 -25q62 0 114 26.5t85 92.5h300q-33 -113 -116 -193.5t-192 -123.5t-220 -43zM422 635h350
q8 51 -5 93.5t-48.5 67.5t-94.5 25q-51 0 -94.5 -26.5t-71.5 -69t-36 -90.5zM293 -415l39 264h316l-40 -264h-315zM295 1155l271 275h232l256 -275h-253l-123 144l-144 -144h-239z" />
    <glyph glyph-name="uni1EC8" unicode="&#x1ec8;" horiz-adv-x="648" 
d="M76 0l216 1446h339l-216 -1446h-339zM554 1545l-56 120q40 24 56.5 55.5t1.5 65.5q-12 29 -48.5 31.5t-73.5 -19.5l-57 116q103 61 192.5 45t124.5 -90q43 -89 9.5 -174.5t-149.5 -149.5z" />
    <glyph glyph-name="uni1EC9" unicode="&#x1ec9;" horiz-adv-x="562" 
d="M40 0l156 1034h338l-156 -1034h-338zM465 1133l-56 120q40 24 56.5 55.5t1.5 65.5q-12 29 -48.5 31.5t-73.5 -19.5l-57 116q103 61 192.5 45t124.5 -90q43 -89 9.5 -174.5t-149.5 -149.5z" />
    <glyph glyph-name="uni1ECA" unicode="&#x1eca;" horiz-adv-x="648" 
d="M76 0l216 1446h339l-216 -1446h-339zM45 -415l39 264h316l-40 -264h-315z" />
    <glyph glyph-name="uni1ECB" unicode="&#x1ecb;" horiz-adv-x="552" 
d="M41 0l146 1034h323l-145 -1034h-324zM202 1151l42 295h325l-41 -295h-326zM-15 -415l39 264h316l-40 -264h-315z" />
    <glyph glyph-name="uni1ECC" unicode="&#x1ecc;" horiz-adv-x="1527" 
d="M683 -20q-207 0 -345 90.5t-195 256t-23 392.5q35 229 144 396.5t274 259t368 91.5q202 0 339 -91.5t195 -258.5t24 -396q-34 -227 -141 -393t-271.5 -256.5t-368.5 -90.5zM724 256q91 0 165.5 45.5t128 146.5t77.5 267q27 171 4 275.5t-84 152t-151 47.5
q-135 0 -236 -109.5t-141 -365.5q-24 -166 -0.5 -267t85.5 -146.5t152 -45.5zM470 -415l39 264h316l-40 -264h-315z" />
    <glyph glyph-name="uni1ECD" unicode="&#x1ecd;" horiz-adv-x="1145" 
d="M491 -20q-152 0 -255.5 66.5t-147.5 186t-21 278.5q24 162 106 284.5t206 190.5t274 68q156 0 258.5 -68.5t146 -191t19.5 -283.5q-24 -155 -103 -274.5t-202 -188t-281 -68.5zM533 230q67 0 111 43.5t69.5 111t35.5 137.5q11 69 5 135t-37 108.5t-101 42.5
q-69 0 -114 -41.5t-69.5 -107t-34.5 -137.5q-10 -68 -5 -135.5t36.5 -112t103.5 -44.5zM269 -415l39 264h316l-40 -264h-315z" />
    <glyph glyph-name="uni1ECE" unicode="&#x1ece;" horiz-adv-x="1527" 
d="M683 -20q-207 0 -345 90.5t-195 256t-23 392.5q35 229 144 396.5t274 259t368 91.5q202 0 339 -91.5t195 -258.5t24 -396q-34 -227 -141 -393t-271.5 -256.5t-368.5 -90.5zM724 256q91 0 165.5 45.5t128 146.5t77.5 267q27 171 4 275.5t-84 152t-151 47.5
q-135 0 -236 -109.5t-141 -365.5q-24 -166 -0.5 -267t85.5 -146.5t152 -45.5zM976 1545l-56 120q40 24 56.5 55.5t1.5 65.5q-12 29 -48.5 31.5t-73.5 -19.5l-57 116q103 61 192.5 45t124.5 -90q43 -89 9.5 -174.5t-149.5 -149.5z" />
    <glyph glyph-name="uni1ECF" unicode="&#x1ecf;" horiz-adv-x="1145" 
d="M491 -20q-152 0 -255.5 66.5t-147.5 186t-21 278.5q24 162 106 284.5t206 190.5t274 68q156 0 258.5 -68.5t146 -191t19.5 -283.5q-24 -155 -103 -274.5t-202 -188t-281 -68.5zM533 230q67 0 111 43.5t69.5 111t35.5 137.5q11 69 5 135t-37 108.5t-101 42.5
q-69 0 -114 -41.5t-69.5 -107t-34.5 -137.5q-10 -68 -5 -135.5t36.5 -112t103.5 -44.5zM735 1133l-56 120q40 24 56.5 55.5t1.5 65.5q-12 29 -48.5 31.5t-73.5 -19.5l-57 116q103 61 192.5 45t124.5 -90q43 -89 9.5 -174.5t-149.5 -149.5z" />
    <glyph glyph-name="uni1ED0" unicode="&#x1ed0;" horiz-adv-x="1527" 
d="M683 -20q-207 0 -345 90.5t-195 256t-23 392.5q35 229 144 396.5t274 259t368 91.5q202 0 339 -91.5t195 -258.5t24 -396q-34 -227 -141 -393t-271.5 -256.5t-368.5 -90.5zM724 256q91 0 165.5 45.5t128 146.5t77.5 267q27 171 4 275.5t-84 152t-151 47.5
q-135 0 -236 -109.5t-141 -365.5q-24 -166 -0.5 -267t85.5 -146.5t152 -45.5zM522 1567l271 275h232l256 -275h-253l-123 144l-144 -144h-239zM1169 1837l133 249h255l-216 -249h-172z" />
    <glyph glyph-name="uni1ED1" unicode="&#x1ed1;" horiz-adv-x="1067" 
d="M491 -20q-152 0 -255.5 66.5t-147.5 186t-21 278.5q24 162 106 284.5t206 190.5t274 68q156 0 258.5 -68.5t146 -191t19.5 -283.5q-24 -155 -103 -274.5t-202 -188t-281 -68.5zM533 230q67 0 111 43.5t69.5 111t35.5 137.5q11 69 5 135t-37 108.5t-101 42.5
q-69 0 -114 -41.5t-69.5 -107t-34.5 -137.5q-10 -68 -5 -135.5t36.5 -112t103.5 -44.5zM263 1155l271 275h232l256 -275h-253l-123 144l-144 -144h-239zM910 1425l133 249h255l-216 -249h-172z" />
    <glyph glyph-name="uni1ED2" unicode="&#x1ed2;" horiz-adv-x="1527" 
d="M683 -20q-207 0 -345 90.5t-195 256t-23 392.5q35 229 144 396.5t274 259t368 91.5q202 0 339 -91.5t195 -258.5t24 -396q-34 -227 -141 -393t-271.5 -256.5t-368.5 -90.5zM724 256q91 0 165.5 45.5t128 146.5t77.5 267q27 171 4 275.5t-84 152t-151 47.5
q-135 0 -236 -109.5t-141 -365.5q-24 -166 -0.5 -267t85.5 -146.5t152 -45.5zM521 1567l271 275h232l256 -275h-253l-123 144l-144 -144h-239zM1242 1831l-158 250h244l79 -250h-165z" />
    <glyph glyph-name="uni1ED3" unicode="&#x1ed3;" horiz-adv-x="1145" 
d="M491 -20q-152 0 -255.5 66.5t-147.5 186t-21 278.5q24 162 106 284.5t206 190.5t274 68q156 0 258.5 -68.5t146 -191t19.5 -283.5q-24 -155 -103 -274.5t-202 -188t-281 -68.5zM533 230q67 0 111 43.5t69.5 111t35.5 137.5q11 69 5 135t-37 108.5t-101 42.5
q-69 0 -114 -41.5t-69.5 -107t-34.5 -137.5q-10 -68 -5 -135.5t36.5 -112t103.5 -44.5zM279 1155l271 275h232l256 -275h-253l-123 144l-144 -144h-239zM1000 1419l-158 250h244l79 -250h-165z" />
    <glyph glyph-name="uni1ED4" unicode="&#x1ed4;" horiz-adv-x="1527" 
d="M683 -20q-207 0 -345 90.5t-195 256t-23 392.5q35 229 144 396.5t274 259t368 91.5q202 0 339 -91.5t195 -258.5t24 -396q-34 -227 -141 -393t-271.5 -256.5t-368.5 -90.5zM724 256q91 0 165.5 45.5t128 146.5t77.5 267q27 171 4 275.5t-84 152t-151 47.5
q-135 0 -236 -109.5t-141 -365.5q-24 -166 -0.5 -267t85.5 -146.5t152 -45.5zM518 1567l271 275h232l256 -275h-253l-123 144l-144 -144h-239zM1213 1750l-57 119q40 24 56.5 56t2.5 66q-13 28 -49.5 31t-73.5 -20l-56 116q102 61 191.5 45.5t125.5 -90.5q42 -89 8.5 -174.5
t-148.5 -148.5z" />
    <glyph glyph-name="uni1ED5" unicode="&#x1ed5;" horiz-adv-x="1145" 
d="M491 -20q-152 0 -255.5 66.5t-147.5 186t-21 278.5q24 162 106 284.5t206 190.5t274 68q156 0 258.5 -68.5t146 -191t19.5 -283.5q-24 -155 -103 -274.5t-202 -188t-281 -68.5zM533 230q67 0 111 43.5t69.5 111t35.5 137.5q11 69 5 135t-37 108.5t-101 42.5
q-69 0 -114 -41.5t-69.5 -107t-34.5 -137.5q-10 -68 -5 -135.5t36.5 -112t103.5 -44.5zM276 1155l271 275h232l256 -275h-253l-123 144l-144 -144h-239zM971 1338l-57 119q40 24 56.5 56t2.5 66q-13 28 -49.5 31t-73.5 -20l-56 116q102 61 191.5 45.5t125.5 -90.5
q42 -89 8.5 -174.5t-148.5 -148.5z" />
    <glyph glyph-name="uni1ED6" unicode="&#x1ed6;" horiz-adv-x="1527" 
d="M683 -20q-207 0 -345 90.5t-195 256t-23 392.5q35 229 144 396.5t274 259t368 91.5q202 0 339 -91.5t195 -258.5t24 -396q-34 -227 -141 -393t-271.5 -256.5t-368.5 -90.5zM724 256q91 0 165.5 45.5t128 146.5t77.5 267q27 171 4 275.5t-84 152t-151 47.5
q-135 0 -236 -109.5t-141 -365.5q-24 -166 -0.5 -267t85.5 -146.5t152 -45.5zM548 1567l272 275h231l256 -275h-252l-123 144l-145 -144h-239zM620 1932l-26 159q45 41 95 70t122 29q58 0 108.5 -16t96.5 -31.5t91 -15.5q53 0 102 25t84 50l11 -184q-37 -28 -96.5 -52
t-127.5 -24q-56 0 -101.5 14.5t-89.5 29t-96 14.5q-51 0 -88 -16t-85 -52z" />
    <glyph glyph-name="uni1ED7" unicode="&#x1ed7;" horiz-adv-x="1145" 
d="M491 -20q-152 0 -255.5 66.5t-147.5 186t-21 278.5q24 162 106 284.5t206 190.5t274 68q156 0 258.5 -68.5t146 -191t19.5 -283.5q-24 -155 -103 -274.5t-202 -188t-281 -68.5zM533 230q67 0 111 43.5t69.5 111t35.5 137.5q11 69 5 135t-37 108.5t-101 42.5
q-69 0 -114 -41.5t-69.5 -107t-34.5 -137.5q-10 -68 -5 -135.5t36.5 -112t103.5 -44.5zM307 1155l272 275h231l256 -275h-252l-123 144l-145 -144h-239zM379 1520l-26 159q45 41 95 70t122 29q58 0 108.5 -16t96.5 -31.5t91 -15.5q53 0 102 25t84 50l11 -184
q-37 -28 -96.5 -52t-127.5 -24q-56 0 -101.5 14.5t-89.5 29t-96 14.5q-51 0 -88 -16t-85 -52z" />
    <glyph glyph-name="uni1ED8" unicode="&#x1ed8;" horiz-adv-x="1527" 
d="M683 -20q-207 0 -345 90.5t-195 256t-23 392.5q35 229 144 396.5t274 259t368 91.5q202 0 339 -91.5t195 -258.5t24 -396q-34 -227 -141 -393t-271.5 -256.5t-368.5 -90.5zM724 256q91 0 165.5 45.5t128 146.5t77.5 267q27 171 4 275.5t-84 152t-151 47.5
q-135 0 -236 -109.5t-141 -365.5q-24 -166 -0.5 -267t85.5 -146.5t152 -45.5zM470 -415l39 264h316l-40 -264h-315zM523 1567l271 275h232l256 -275h-253l-123 144l-144 -144h-239z" />
    <glyph glyph-name="uni1ED9" unicode="&#x1ed9;" horiz-adv-x="1145" 
d="M491 -20q-152 0 -255.5 66.5t-147.5 186t-21 278.5q24 162 106 284.5t206 190.5t274 68q156 0 258.5 -68.5t146 -191t19.5 -283.5q-24 -155 -103 -274.5t-202 -188t-281 -68.5zM533 230q67 0 111 43.5t69.5 111t35.5 137.5q11 69 5 135t-37 108.5t-101 42.5
q-69 0 -114 -41.5t-69.5 -107t-34.5 -137.5q-10 -68 -5 -135.5t36.5 -112t103.5 -44.5zM269 -415l39 264h316l-40 -264h-315zM282 1155l271 275h232l256 -275h-253l-123 144l-144 -144h-239z" />
    <glyph glyph-name="uni1EDA" unicode="&#x1eda;" horiz-adv-x="1683" 
d="M683 -20q-207 0 -345 90.5t-195 256t-23 392.5q35 229 144 396.5t274 259t368 91.5q148 0 262 -50t187 -143q57 -1 94.5 10t64 56.5t49.5 149.5h211q-21 -127 -58 -210.5t-102 -125t-171 -47.5q26 -81 32 -177.5t-11 -208.5q-34 -227 -141 -393t-271.5 -256.5
t-368.5 -90.5zM724 256q91 0 165.5 45.5t128 146.5t77.5 267q27 171 4 275.5t-84 152t-151 47.5q-135 0 -236 -109.5t-141 -365.5q-24 -166 -0.5 -267t85.5 -146.5t152 -45.5zM776 1567l244 291h346l-344 -291h-246z" />
    <glyph glyph-name="uni1EDB" unicode="&#x1edb;" horiz-adv-x="1309" 
d="M528 1155l244 291h346l-344 -291h-246zM491 -20q-152 0 -255.5 66.5t-147.5 186t-21 278.5q24 162 106 284.5t206 190.5t274 68q118 0 205.5 -40.5t142.5 -112.5q48 9 78.5 52.5t56.5 158.5h211q-28 -173 -88 -264.5t-186 -111.5q10 -49 11.5 -105.5t-7.5 -119.5
q-24 -155 -103 -274.5t-202 -188t-281 -68.5zM533 230q67 0 111 43.5t69.5 111t35.5 137.5q11 69 5 135t-37 108.5t-101 42.5q-69 0 -114 -41.5t-69.5 -107t-34.5 -137.5q-10 -68 -5 -135.5t36.5 -112t103.5 -44.5z" />
    <glyph glyph-name="uni1EDC" unicode="&#x1edc;" horiz-adv-x="1683" 
d="M683 -20q-207 0 -345 90.5t-195 256t-23 392.5q35 229 144 396.5t274 259t368 91.5q148 0 262 -50t187 -143q57 -1 94.5 10t64 56.5t49.5 149.5h211q-21 -127 -58 -210.5t-102 -125t-171 -47.5q26 -81 32 -177.5t-11 -208.5q-34 -227 -141 -393t-271.5 -256.5
t-368.5 -90.5zM724 256q91 0 165.5 45.5t128 146.5t77.5 267q27 171 4 275.5t-84 152t-151 47.5q-135 0 -236 -109.5t-141 -365.5q-24 -166 -0.5 -267t85.5 -146.5t152 -45.5zM770 1567l-334 291h345l233 -291h-244z" />
    <glyph glyph-name="uni1EDD" unicode="&#x1edd;" horiz-adv-x="1347" 
d="M555 1155l-334 291h345l233 -291h-244zM529 -20q-152 0 -255.5 66.5t-147.5 186t-21 278.5q24 162 106 284.5t206 190.5t274 68q118 0 205.5 -40.5t142.5 -112.5q48 9 78.5 52.5t56.5 158.5h211q-28 -173 -88 -264.5t-186 -111.5q10 -49 11.5 -105.5t-7.5 -119.5
q-24 -155 -103 -274.5t-202 -188t-281 -68.5zM571 230q67 0 111 43.5t69.5 111t35.5 137.5q11 69 5 135t-37 108.5t-101 42.5q-69 0 -114 -41.5t-69.5 -107t-34.5 -137.5q-10 -68 -5 -135.5t36.5 -112t103.5 -44.5z" />
    <glyph glyph-name="uni1EDE" unicode="&#x1ede;" horiz-adv-x="1683" 
d="M683 -20q-207 0 -345 90.5t-195 256t-23 392.5q35 229 144 396.5t274 259t368 91.5q148 0 262 -50t187 -143q57 -1 94.5 10t64 56.5t49.5 149.5h211q-21 -127 -58 -210.5t-102 -125t-171 -47.5q26 -81 32 -177.5t-11 -208.5q-34 -227 -141 -393t-271.5 -256.5
t-368.5 -90.5zM724 256q91 0 165.5 45.5t128 146.5t77.5 267q27 171 4 275.5t-84 152t-151 47.5q-135 0 -236 -109.5t-141 -365.5q-24 -166 -0.5 -267t85.5 -146.5t152 -45.5zM976 1545l-56 120q40 24 56.5 55.5t1.5 65.5q-12 29 -48.5 31.5t-73.5 -19.5l-57 116
q103 61 192.5 45t124.5 -90q43 -89 9.5 -174.5t-149.5 -149.5z" />
    <glyph glyph-name="uni1EDF" unicode="&#x1edf;" horiz-adv-x="1309" 
d="M724 1133l-56 120q40 24 56.5 55.5t1.5 65.5q-12 29 -48.5 31.5t-73.5 -19.5l-57 116q103 61 192.5 45t124.5 -90q43 -89 9.5 -174.5t-149.5 -149.5zM491 -20q-152 0 -255.5 66.5t-147.5 186t-21 278.5q24 162 106 284.5t206 190.5t274 68q118 0 205.5 -40.5
t142.5 -112.5q48 9 78.5 52.5t56.5 158.5h211q-28 -173 -88 -264.5t-186 -111.5q10 -49 11.5 -105.5t-7.5 -119.5q-24 -155 -103 -274.5t-202 -188t-281 -68.5zM533 230q67 0 111 43.5t69.5 111t35.5 137.5q11 69 5 135t-37 108.5t-101 42.5q-69 0 -114 -41.5t-69.5 -107
t-34.5 -137.5q-10 -68 -5 -135.5t36.5 -112t103.5 -44.5z" />
    <glyph glyph-name="uni1EE0" unicode="&#x1ee0;" horiz-adv-x="1683" 
d="M683 -20q-207 0 -345 90.5t-195 256t-23 392.5q35 229 144 396.5t274 259t368 91.5q148 0 262 -50t187 -143q57 -1 94.5 10t64 56.5t49.5 149.5h211q-21 -127 -58 -210.5t-102 -125t-171 -47.5q26 -81 32 -177.5t-11 -208.5q-34 -227 -141 -393t-271.5 -256.5
t-368.5 -90.5zM724 256q91 0 165.5 45.5t128 146.5t77.5 267q27 171 4 275.5t-84 152t-151 47.5q-135 0 -236 -109.5t-141 -365.5q-24 -166 -0.5 -267t85.5 -146.5t152 -45.5zM603 1596l-25 160q44 41 94 70t123 29q57 0 107.5 -16t96.5 -32t91 -16q54 0 102.5 25t83.5 51
l11 -184q-37 -29 -96.5 -53t-127.5 -24q-56 0 -101 14.5t-89.5 29t-96.5 14.5q-50 0 -87 -15.5t-86 -52.5z" />
    <glyph glyph-name="uni1EE1" unicode="&#x1ee1;" horiz-adv-x="1309" 
d="M352 1184l-25 160q44 41 94 70t123 29q57 0 107.5 -16t96.5 -32t91 -16q54 0 102.5 25t83.5 51l11 -184q-37 -29 -96.5 -53t-127.5 -24q-56 0 -101 14.5t-89.5 29t-96.5 14.5q-50 0 -87 -15.5t-86 -52.5zM491 -20q-152 0 -255.5 66.5t-147.5 186t-21 278.5
q24 162 106 284.5t206 190.5t274 68q118 0 205.5 -40.5t142.5 -112.5q48 9 78.5 52.5t56.5 158.5h211q-28 -173 -88 -264.5t-186 -111.5q10 -49 11.5 -105.5t-7.5 -119.5q-24 -155 -103 -274.5t-202 -188t-281 -68.5zM533 230q67 0 111 43.5t69.5 111t35.5 137.5
q11 69 5 135t-37 108.5t-101 42.5q-69 0 -114 -41.5t-69.5 -107t-34.5 -137.5q-10 -68 -5 -135.5t36.5 -112t103.5 -44.5z" />
    <glyph glyph-name="uni1EE2" unicode="&#x1ee2;" horiz-adv-x="1683" 
d="M683 -20q-207 0 -345 90.5t-195 256t-23 392.5q35 229 144 396.5t274 259t368 91.5q148 0 262 -50t187 -143q57 -1 94.5 10t64 56.5t49.5 149.5h211q-21 -127 -58 -210.5t-102 -125t-171 -47.5q26 -81 32 -177.5t-11 -208.5q-34 -227 -141 -393t-271.5 -256.5
t-368.5 -90.5zM724 256q91 0 165.5 45.5t128 146.5t77.5 267q27 171 4 275.5t-84 152t-151 47.5q-135 0 -236 -109.5t-141 -365.5q-24 -166 -0.5 -267t85.5 -146.5t152 -45.5zM470 -415l39 264h316l-40 -264h-315z" />
    <glyph glyph-name="uni1EE3" unicode="&#x1ee3;" horiz-adv-x="1309" 
d="M244 -415l39 264h316l-40 -264h-315zM491 -20q-152 0 -255.5 66.5t-147.5 186t-21 278.5q24 162 106 284.5t206 190.5t274 68q118 0 205.5 -40.5t142.5 -112.5q48 9 78.5 52.5t56.5 158.5h211q-28 -173 -88 -264.5t-186 -111.5q10 -49 11.5 -105.5t-7.5 -119.5
q-24 -155 -103 -274.5t-202 -188t-281 -68.5zM533 230q67 0 111 43.5t69.5 111t35.5 137.5q11 69 5 135t-37 108.5t-101 42.5q-69 0 -114 -41.5t-69.5 -107t-34.5 -137.5q-10 -68 -5 -135.5t36.5 -112t103.5 -44.5z" />
    <glyph glyph-name="uni1EE4" unicode="&#x1ee4;" horiz-adv-x="1458" 
d="M659 -20q-219 0 -337.5 74t-155.5 208.5t-9 316.5l129 867h344l-133 -886q-16 -104 7.5 -168.5t75.5 -94.5t123 -30q104 0 187.5 68.5t106.5 224.5l132 886h341l-129 -871q-27 -180 -104.5 -313.5t-218.5 -207.5t-359 -74zM443 -414l39 264h316l-40 -264h-315z" />
    <glyph glyph-name="uni1EE5" unicode="&#x1ee5;" horiz-adv-x="1196" 
d="M414 -20q-66 0 -131 22t-116.5 64.5t-78 104t-15.5 141.5l101 722h340l-95 -676q-8 -58 25.5 -96.5t106.5 -38.5q71 0 117.5 37.5t54.5 99.5l95 674h337l-145 -1034h-253l-11 209q-31 -97 -89.5 -146.5t-123.5 -66t-119 -16.5zM294 -415l39 264h316l-40 -264h-315z" />
    <glyph glyph-name="uni1EE6" unicode="&#x1ee6;" horiz-adv-x="1458" 
d="M659 -20q-219 0 -337.5 74t-155.5 208.5t-9 316.5l129 867h344l-133 -886q-16 -104 7.5 -168.5t75.5 -94.5t123 -30q104 0 187.5 68.5t106.5 224.5l132 886h341l-129 -871q-27 -180 -104.5 -313.5t-218.5 -207.5t-359 -74zM968 1545l-56 120q40 24 56.5 55.5t1.5 65.5
q-12 29 -48.5 31.5t-73.5 -19.5l-57 116q103 61 192.5 45t124.5 -90q43 -89 9.5 -174.5t-149.5 -149.5z" />
    <glyph glyph-name="uni1EE7" unicode="&#x1ee7;" horiz-adv-x="1196" 
d="M414 -20q-66 0 -131 22t-116.5 64.5t-78 104t-15.5 141.5l101 722h340l-95 -676q-8 -58 25.5 -96.5t106.5 -38.5q71 0 117.5 37.5t54.5 99.5l95 674h337l-145 -1034h-253l-11 209q-31 -97 -89.5 -146.5t-123.5 -66t-119 -16.5zM755 1133l-56 120q40 24 56.5 55.5
t1.5 65.5q-12 29 -48.5 31.5t-73.5 -19.5l-57 116q103 61 192.5 45t124.5 -90q43 -89 9.5 -174.5t-149.5 -149.5z" />
    <glyph glyph-name="uni1EE8" unicode="&#x1ee8;" horiz-adv-x="1746" 
d="M1353 1112l24 162q50 -1 87 1.5t63 21t46.5 63.5t39.5 128h211q-25 -152 -74 -240.5t-143 -121t-254 -14.5zM659 -20q-219 0 -337.5 74t-155.5 208.5t-9 316.5l129 867h344l-133 -886q-16 -104 7.5 -168.5t75.5 -94.5t123 -30q104 0 187.5 68.5t106.5 224.5l132 886h341
l-129 -871q-27 -180 -104.5 -313.5t-218.5 -207.5t-359 -74zM766 1567l245 291h345l-344 -291h-246z" />
    <glyph glyph-name="uni1EE9" unicode="&#x1ee9;" horiz-adv-x="1454" 
d="M1048 736l24 162q50 -1 86.5 1.5t63 21t47 63.5t39.5 128h211q-25 -152 -74 -241t-143 -121t-254 -14zM414 -20q-66 0 -131 22t-116.5 64.5t-78 104t-15.5 141.5l101 722h341l-96 -676q-8 -58 25.5 -96.5t107.5 -38.5q70 0 116.5 37.5t54.5 99.5l95 674h337l-145 -1034
h-253l-10 209q-32 -97 -90 -146.5t-123 -66t-120 -16.5zM558 1155l244 291h346l-344 -291h-246z" />
    <glyph glyph-name="uni1EEA" unicode="&#x1eea;" horiz-adv-x="1746" 
d="M1353 1112l24 162q50 -1 87 1.5t63 21t46.5 63.5t39.5 128h211q-25 -152 -74 -240.5t-143 -121t-254 -14.5zM659 -20q-219 0 -337.5 74t-155.5 208.5t-9 316.5l129 867h344l-133 -886q-16 -104 7.5 -168.5t75.5 -94.5t123 -30q104 0 187.5 68.5t106.5 224.5l132 886h341
l-129 -871q-27 -180 -104.5 -313.5t-218.5 -207.5t-359 -74zM756 1567l-333 291h344l233 -291h-244z" />
    <glyph glyph-name="uni1EEB" unicode="&#x1eeb;" horiz-adv-x="1480" 
d="M582 1155l-334 291h345l233 -291h-244zM438 -20q-66 0 -131 22t-116.5 64.5t-78 104t-15.5 141.5l101 722h341l-96 -676q-8 -58 25.5 -96.5t107.5 -38.5q70 0 116.5 37.5t54.5 99.5l95 674h337l-19 -137q46 1 77 16.5t53.5 61t43.5 137.5h211q-23 -141 -66.5 -228
t-125 -124t-216.5 -29l-103 -731h-253l-10 209q-32 -97 -90 -146.5t-123 -66t-120 -16.5z" />
    <glyph glyph-name="uni1EEC" unicode="&#x1eec;" horiz-adv-x="1746" 
d="M1353 1112l24 162q50 -1 87 1.5t63 21t46.5 63.5t39.5 128h211q-25 -152 -74 -240.5t-143 -121t-254 -14.5zM659 -20q-219 0 -337.5 74t-155.5 208.5t-9 316.5l129 867h344l-133 -886q-16 -104 7.5 -168.5t75.5 -94.5t123 -30q104 0 187.5 68.5t106.5 224.5l132 886h341
l-129 -871q-27 -180 -104.5 -313.5t-218.5 -207.5t-359 -74zM961 1546l-56 119q40 24 56.5 55.5t1.5 65.5q-12 29 -48.5 32t-73.5 -20l-57 116q103 61 192.5 45t124.5 -90q43 -89 9 -174.5t-149 -148.5z" />
    <glyph glyph-name="uni1EED" unicode="&#x1eed;" horiz-adv-x="1456" 
d="M767 1133l-56 120q40 24 56.5 55.5t1.5 65.5q-12 29 -48.5 31.5t-73.5 -19.5l-57 116q103 61 192.5 45t124.5 -90q43 -89 9.5 -174.5t-149.5 -149.5zM414 -20q-66 0 -131 22t-116.5 64.5t-78 104t-15.5 141.5l101 722h341l-96 -676q-8 -58 25.5 -96.5t107.5 -38.5
q70 0 116.5 37.5t54.5 99.5l95 674h337l-19 -137q46 1 77 16.5t53.5 61t43.5 137.5h211q-23 -141 -66.5 -228t-125 -124t-216.5 -29l-103 -731h-253l-10 209q-32 -97 -90 -146.5t-123 -66t-120 -16.5z" />
    <glyph glyph-name="uni1EEE" unicode="&#x1eee;" horiz-adv-x="1736" 
d="M1353 1112l24 162q50 -1 87 1.5t63 21t46.5 63.5t39.5 128h211q-25 -152 -74 -240.5t-143 -121t-254 -14.5zM659 -20q-219 0 -337.5 74t-155.5 208.5t-9 316.5l129 867h344l-133 -886q-16 -104 7.5 -168.5t75.5 -94.5t123 -30q104 0 187.5 68.5t106.5 224.5l132 886h341
l-129 -871q-27 -180 -104.5 -313.5t-218.5 -207.5t-359 -74zM591 1596l-26 160q45 41 95 70t122 29q58 0 108.5 -16t96.5 -32t91 -16q53 0 102 25t84 51l11 -184q-37 -29 -96.5 -53t-127.5 -24q-57 0 -102 14.5t-89 29t-97 14.5q-50 0 -87 -15.5t-85 -52.5z" />
    <glyph glyph-name="uni1EEF" unicode="&#x1eef;" horiz-adv-x="1456" 
d="M392 1184l-25 160q44 41 94 70t123 29q57 0 107.5 -16t96.5 -32t91 -16q54 0 102.5 25t83.5 51l11 -184q-37 -29 -96.5 -53t-127.5 -24q-56 0 -101 14.5t-89.5 29t-96.5 14.5q-50 0 -87 -15.5t-86 -52.5zM414 -20q-66 0 -131 22t-116.5 64.5t-78 104t-15.5 141.5l101 722
h341l-96 -676q-8 -58 25.5 -96.5t107.5 -38.5q70 0 116.5 37.5t54.5 99.5l95 674h337l-19 -137q46 1 77 16.5t53.5 61t43.5 137.5h211q-23 -141 -66.5 -228t-125 -124t-216.5 -29l-103 -731h-253l-10 209q-32 -97 -90 -146.5t-123 -66t-120 -16.5z" />
    <glyph glyph-name="uni1EF0" unicode="&#x1ef0;" horiz-adv-x="1746" 
d="M1353 1112l24 162q50 -1 87 1.5t63 21t46.5 63.5t39.5 128h211q-25 -152 -74 -240.5t-143 -121t-254 -14.5zM659 -20q-219 0 -337.5 74t-155.5 208.5t-9 316.5l129 867h344l-133 -886q-16 -104 7.5 -168.5t75.5 -94.5t123 -30q104 0 187.5 68.5t106.5 224.5l132 886h341
l-129 -871q-27 -180 -104.5 -313.5t-218.5 -207.5t-359 -74zM423 -415l39 265h316l-39 -265h-316z" />
    <glyph glyph-name="uni1EF1" unicode="&#x1ef1;" horiz-adv-x="1456" 
d="M292 -415l39 264h316l-40 -264h-315zM414 -20q-66 0 -131 22t-116.5 64.5t-78 104t-15.5 141.5l101 722h341l-96 -676q-8 -58 25.5 -96.5t107.5 -38.5q70 0 116.5 37.5t54.5 99.5l95 674h337l-19 -137q46 1 77 16.5t53.5 61t43.5 137.5h211q-23 -141 -66.5 -228
t-125 -124t-216.5 -29l-103 -731h-253l-10 209q-32 -97 -90 -146.5t-123 -66t-120 -16.5z" />
    <glyph glyph-name="Ygrave" unicode="&#x1ef2;" horiz-adv-x="1370" 
d="M429 0l89 605l-370 841h365l220 -550l381 550h370l-628 -841l-91 -605h-336zM683 1568l-334 291h345l233 -291h-244z" />
    <glyph glyph-name="ygrave" unicode="&#x1ef3;" horiz-adv-x="1134" 
d="M166 -330q-111 0 -155.5 20l-44.5 20l31 216l99 -5q94 -7 140 12t63 44t22 36l18 39l-249 982h333l123 -618l314 618h330l-552 -1007q-83 -147 -159 -224.5t-152.5 -105t-160.5 -27.5zM514 1155l-334 291h345l233 -291h-244z" />
    <glyph glyph-name="uni1EF4" unicode="&#x1ef4;" horiz-adv-x="1370" 
d="M429 0l89 605l-370 841h365l220 -550l381 550h370l-628 -841l-91 -605h-336zM380 -415l39 264h316l-40 -264h-315z" />
    <glyph glyph-name="uni1EF5" unicode="&#x1ef5;" horiz-adv-x="1134" 
d="M166 -330q-111 0 -155.5 20l-44.5 20l31 216l99 -5q94 -7 140 12t63 44t22 36l18 39l-249 982h333l123 -618l314 618h330l-552 -1007q-83 -147 -159 -224.5t-152.5 -105t-160.5 -27.5zM606 -363l39 264h316l-40 -264h-315z" />
    <glyph glyph-name="uni1EF6" unicode="&#x1ef6;" horiz-adv-x="1370" 
d="M429 0l89 605l-370 841h365l220 -550l381 550h370l-628 -841l-91 -605h-336zM889 1546l-56 120q40 24 56.5 55.5t1.5 65.5q-12 29 -48.5 31.5t-73.5 -19.5l-57 116q103 61 192.5 45t124.5 -90q43 -89 9.5 -174.5t-149.5 -149.5z" />
    <glyph glyph-name="uni1EF7" unicode="&#x1ef7;" horiz-adv-x="1134" 
d="M166 -330q-111 0 -155.5 20l-44.5 20l31 216l99 -5q94 -7 140 12t63 44t22 36l18 39l-249 982h333l123 -618l314 618h330l-552 -1007q-83 -147 -159 -224.5t-152.5 -105t-160.5 -27.5zM721 1133l-56 120q40 24 56.5 55.5t1.5 65.5q-12 29 -48.5 31.5t-73.5 -19.5l-57 116
q103 61 192.5 45t124.5 -90q43 -89 9.5 -174.5t-149.5 -149.5z" />
    <glyph glyph-name="uni1EF8" unicode="&#x1ef8;" horiz-adv-x="1370" 
d="M429 0l89 605l-370 841h365l220 -550l381 550h370l-628 -841l-91 -605h-336zM516 1597l-25 160q44 41 94 70t123 29q57 0 107.5 -16t96.5 -32t91 -16q54 0 102.5 25t83.5 51l11 -184q-37 -29 -96.5 -53t-127.5 -24q-56 0 -101 14.5t-89.5 29t-96.5 14.5q-50 0 -87 -15.5
t-86 -52.5z" />
    <glyph glyph-name="uni1EF9" unicode="&#x1ef9;" horiz-adv-x="1134" 
d="M166 -330q-111 0 -155.5 20l-44.5 20l31 216l99 -5q94 -7 140 12t63 44t22 36l18 39l-249 982h333l123 -618l314 618h330l-552 -1007q-83 -147 -159 -224.5t-152.5 -105t-160.5 -27.5zM347 1184l-25 160q44 41 94 70t123 29q57 0 107.5 -16t96.5 -32t91 -16
q54 0 102.5 25t83.5 51l11 -184q-37 -29 -96.5 -53t-127.5 -24q-56 0 -101 14.5t-89.5 29t-96.5 14.5q-50 0 -87 -15.5t-86 -52.5z" />
    <glyph glyph-name="endash" unicode="&#x2013;" horiz-adv-x="1205" 
d="M98 373l37 244h966l-37 -243z" />
    <glyph glyph-name="emdash" unicode="&#x2014;" horiz-adv-x="2326" 
d="M335 373l35 244h1615l-35 -243z" />
    <glyph glyph-name="quoteleft" unicode="&#x2018;" horiz-adv-x="550" 
d="M109 843l42 275l263 333h118l-160 -285l107 -12l-47 -311h-323z" />
    <glyph glyph-name="quoteright" unicode="&#x2019;" horiz-adv-x="555" 
d="M146 843l159 283l-107 12l48 308h323l-42 -273l-263 -330h-118z" />
    <glyph glyph-name="quotesinglbase" unicode="&#x201a;" horiz-adv-x="614" 
d="M-16 -289l166 282l-113 12l47 310h347l-42 -274l-280 -330h-125z" />
    <glyph glyph-name="quotedblleft" unicode="&#x201c;" horiz-adv-x="1014" 
d="M577 868l41 276l264 333h118l-160 -286l107 -12l-47 -311h-323zM112 868l42 276l263 333h118l-159 -286l107 -12l-48 -311h-323z" />
    <glyph glyph-name="quotedblright" unicode="&#x201d;" horiz-adv-x="1017" 
d="M609 843l159 283l-107 12l48 308h323l-42 -273l-263 -330h-118zM146 843l159 283l-107 12l48 308h323l-42 -273l-263 -330h-118z" />
    <glyph glyph-name="quotedblbase" unicode="&#x201e;" horiz-adv-x="1092" 
d="M462 -289l166 282l-113 12l47 310h347l-42 -274l-280 -330h-125zM-16 -289l166 282l-113 12l47 310h347l-42 -274l-280 -330h-125z" />
    <glyph glyph-name="dagger" unicode="&#x2020;" horiz-adv-x="1087" 
d="M248 -322l224 1084l-368 -49l44 291l343 -44l18 486h323l-128 -486l359 44l-45 -291l-355 49l-98 -1084h-317z" />
    <glyph glyph-name="daggerdbl" unicode="&#x2021;" horiz-adv-x="1092" 
d="M251 -322l123 454l-359 -46l45 292l349 -48l60 397l-364 -48l42 290l345 -44l24 521h320l-131 -521l357 44l-43 -290l-351 48l-59 -397l366 48l-45 -292l-346 46l-11 -454h-322z" />
    <glyph glyph-name="bullet" unicode="&#x2022;" horiz-adv-x="745" 
d="M391 459q-77 0 -139.5 37.5t-99.5 100.5t-37 139q0 75 37 137.5t99.5 100t139.5 37.5q76 0 138.5 -37.5t100 -99.5t37.5 -138t-37.5 -139t-100 -100.5t-138.5 -37.5z" />
    <glyph glyph-name="ellipsis" unicode="&#x2026;" horiz-adv-x="1904" 
d="M1347 0l54 355h360l-54 -355h-360zM22 0l54 355h360l-54 -355h-360zM685 0l54 355h360l-54 -355h-360z" />
    <glyph glyph-name="perthousand" unicode="&#x2030;" horiz-adv-x="2545" 
d="M401 -8l-188 3l1179 1467h186zM453 650q-89 0 -156 45.5t-103.5 122t-36.5 170.5q0 58 24.5 139t74.5 159t128 130t183 52q87 0 152.5 -46.5t102 -125t36.5 -174.5q0 -76 -28 -158.5t-81 -154t-128 -115.5t-168 -44zM474 819q50 0 81 38.5t48 95t23.5 113t6.5 93.5
q0 68 -21 104.5t-70 36.5q-48 0 -79 -39t-49 -96.5t-25 -115t-7 -93.5q0 -65 21.5 -101t70.5 -36zM1249 -20q-88 0 -154.5 45.5t-103.5 122t-37 170.5q0 77 29.5 161t83.5 156.5t129 118.5t167 46q88 0 153.5 -47t102.5 -125t37 -173q0 -77 -28 -159.5t-81.5 -154.5
t-128.5 -116.5t-169 -44.5zM1270 151q50 0 81 38t48 94.5t23.5 112.5t6.5 93q0 68 -21 105t-70 37q-47 0 -77.5 -39.5t-48.5 -97.5t-25 -115t-7 -92q0 -65 21 -100.5t69 -35.5zM2022 -20q-89 0 -155.5 45.5t-103 122t-36.5 170.5q0 76 29 160t83 157t129.5 119t167.5 46
q88 0 153.5 -47t101.5 -125t36 -173q0 -76 -28 -159t-81 -155t-128 -116.5t-168 -44.5zM2043 151q50 0 81 38.5t47 95t22.5 114t6.5 93.5q0 67 -20.5 103t-68.5 36t-78.5 -39t-48 -96t-24.5 -114t-7 -93q0 -66 20.5 -102t69.5 -36z" />
    <glyph glyph-name="guilsinglleft" unicode="&#x2039;" horiz-adv-x="643" 
d="M272 123l-163 379l279 395h176l-201 -395l86 -379h-177z" />
    <glyph glyph-name="guilsinglright" unicode="&#x203a;" horiz-adv-x="643" 
d="M78 123l198 379l-82 395h176l160 -395l-278 -379h-174z" />
    <glyph glyph-name="fraction" unicode="&#x2044;" horiz-adv-x="472" 
d="M-228 -8l-188 3l1179 1467h187z" />
    <glyph glyph-name="uni2070" unicode="&#x2070;" horiz-adv-x="814" 
d="M414 752q-171 0 -248.5 121.5t-45.5 345.5t145 346.5t281 122.5t245.5 -122t45.5 -347q-32 -223 -143 -345t-280 -122zM437 925q74 0 114.5 66.5t62.5 226.5q23 164 1 234t-94 70t-114.5 -70.5t-65.5 -233.5q-22 -159 0.5 -226t95.5 -67z" />
    <glyph glyph-name="uni2074" unicode="&#x2074;" horiz-adv-x="824" 
d="M449 760l30 188h-407l25 171l485 551h207l-81 -545h132l-26 -177h-134l-28 -188h-203zM293 1125h213l44 292z" />
    <glyph glyph-name="uni2075" unicode="&#x2075;" horiz-adv-x="853" 
d="M448 746q-137 0 -234 58t-131 147l177 105q30 -59 71 -99t118 -40q73 0 122.5 37.5t57.5 94.5q8 55 -29 94t-110 39q-34 0 -66 -9.5t-79 -36.5q-11 -4 -15.5 -4t-15.5 6l-137 75l105 457h597l-33 -174h-423l-41 -185q56 21 98.5 32t92.5 11q94 0 161.5 -35t100 -101
t18.5 -161q-20 -145 -129 -228t-276 -83z" />
    <glyph glyph-name="uni2076" unicode="&#x2076;" horiz-adv-x="835" 
d="M440 756q-182 0 -266 124t-56 326q32 227 155 356.5t304 129.5q89 0 160 -32.5t109 -93.5t28 -147h-194q-8 53 -38.5 79.5t-83.5 26.5q-86 0 -138.5 -72.5t-52.5 -179.5q38 34 91.5 51t109.5 17q139 0 213.5 -75.5t57.5 -198.5q-12 -88 -68 -158.5t-141.5 -111.5
t-189.5 -41zM454 917q55 0 102.5 39.5t55.5 100.5q9 68 -28.5 98t-91.5 30q-33 0 -66.5 -15t-56.5 -36t-26 -40q-12 -85 19.5 -131t91.5 -46z" />
    <glyph glyph-name="uni2077" unicode="&#x2077;" horiz-adv-x="750" 
d="M201 760q14 69 62 189t135 263.5t218 283.5h-467l25 174h688l-27 -174q-59 -60 -124 -151.5t-124.5 -195.5t-102 -206t-54.5 -183h-229z" />
    <glyph glyph-name="uni2078" unicode="&#x2078;" horiz-adv-x="860" 
d="M437 755q-167 0 -259 72.5t-75 195.5q7 53 38.5 98.5t74.5 77t84 40.5q-49 26 -80 74.5t-22 117.5q18 125 123 192t247 67q143 0 229 -67t68 -192q-9 -69 -53.5 -117.5t-100.5 -74.5q39 -9 72.5 -40.5t52 -77t11.5 -98.5q-17 -123 -129.5 -195.5t-280.5 -72.5zM459 914
q70 0 112.5 31.5t49.5 84.5q8 53 -26 86.5t-102 33.5t-111.5 -33.5t-51.5 -86.5q-7 -53 27 -84.5t102 -31.5zM517 1320q51 0 90.5 30.5t46.5 83.5q7 54 -23 85t-83 31q-50 0 -89.5 -31.5t-46.5 -84.5q-8 -53 23 -83.5t82 -30.5z" />
    <glyph glyph-name="uni2079" unicode="&#x2079;" horiz-adv-x="783" 
d="M399 756q-89 0 -160.5 34.5t-110.5 97t-30 145.5h202q3 -49 32 -79.5t81 -30.5q86 0 150 60t73 203q-34 -41 -88 -64t-124 -23q-139 0 -218.5 77.5t-61.5 207.5q13 89 67 158.5t139 109.5t189 40q180 0 265 -122t55 -324q-35 -251 -157.5 -370.5t-302.5 -119.5zM486 1267
q34 0 67.5 14.5t56.5 35.5t26 40q12 86 -19 131t-92 45q-55 0 -98 -38t-52 -101q-8 -61 25 -94t86 -33z" />
    <glyph glyph-name="colonmonetary" unicode="&#x20a1;" horiz-adv-x="1449" 
d="M673 -20q-182 0 -308.5 79t-191 221t-59.5 333q3 165 54.5 318t149.5 273.5t242 191t334 70.5q163 0 280.5 -62.5t180.5 -178t62 -274.5h-352q-2 72 -27.5 125.5t-74.5 83.5t-123 30q-97 0 -164 -53t-109 -140.5t-62.5 -191.5t-23.5 -208q-7 -180 53 -260.5t170 -80.5
q74 0 132.5 36t100 96.5t63.5 131.5h354q-30 -107 -80.5 -204.5t-129.5 -173.5t-194 -119t-277 -43zM421 -122l320 1682h141l-320 -1682h-141zM659 -122l320 1682h141l-320 -1682h-141z" />
    <glyph glyph-name="franc" unicode="&#x20a3;" horiz-adv-x="1254" 
d="M44 0l218 1446h1053l-44 -280h-669l-48 -317h464l-41 -274h-463l-85 -575h-385zM-90 225l27 178l831 1l-27 -179h-831z" />
    <glyph glyph-name="lira" unicode="&#x20a4;" horiz-adv-x="1312" 
d="M-28 0l43 280h64q59 0 105.5 30.5t69.5 97.5q5 13 8.5 28t6.5 32q2 15 -16 15h-202l27 177h196l2 116h-181l26 178h157l6 88q8 145 85 239t194.5 139.5t246.5 45.5q92 0 183 -32.5t160.5 -101t97.5 -175.5l-307 -87q-12 52 -37.5 91t-84.5 39q-56 0 -96 -38t-51 -107
q-1 -14 -1.5 -34.5t-2.5 -43.5q0 -23 20 -23l241 1l-26 -179h-235l-4 -116l223 1l-28 -177h-231q-14 -38 -36.5 -75t-52 -69t-66.5 -58h235q84 0 138 36t93 122l274 -59q-72 -185 -209 -283t-313 -98h-722z" />
    <glyph glyph-name="uni20A6" unicode="&#x20a6;" horiz-adv-x="1846" 
d="M74 0l431 1446h335l325 -882l260 882h336l-432 -1446h-301l-344 928l-274 -928h-336zM8 441l23 160h1804l-24 -160h-1803zM74 885l25 160h1803l-25 -160h-1803z" />
    <glyph glyph-name="uni20A9" unicode="&#x20a9;" horiz-adv-x="2301" 
d="M436 0l12 1446h326l-20 -865l485 865h237l-18 -865l486 865h324l-846 -1446h-255l16 866l-496 -866h-251zM60 786l27 177h2230l-25 -177h-2232zM109 1082l27 177h2233l-28 -177h-2232z" />
    <glyph glyph-name="dong" unicode="&#x20ab;" horiz-adv-x="1087" 
d="M356 249q-94 0 -160.5 49t-93.5 146t-5 241q20 136 82 236.5t148 155.5t178 55q59 0 104 -19t83 -64q12 -10 20.5 -8t11.5 19l58 386h280l-177 -1181h-277l16 101q-37 -33 -76 -59.5t-85.5 -42t-106.5 -15.5zM52 0l23 157h795l-24 -157h-794zM495 423q38 0 70 17t53 45
t26 62l50 336q-23 34 -50 52t-69 18q-66 0 -118 -59.5t-74 -205.5q-14 -97 -4.5 -155t40 -84t76.5 -26zM541 1199l22 142h602l-22 -142h-602z" />
    <glyph glyph-name="Euro" unicode="&#x20ac;" horiz-adv-x="1338" 
d="M699 -20q-181 0 -305.5 97t-178 268t-20.5 393q34 223 137.5 386t256 252.5t333.5 89.5q150 0 263.5 -60t174.5 -163l-256 -170q-34 48 -76.5 87.5t-114.5 39.5q-117 0 -203.5 -107t-124.5 -360q-26 -168 -5 -271.5t76 -151t130 -47.5q48 0 98.5 21t94 53t72.5 66
l151 -191q-91 -98 -224 -165t-279 -67zM4 470l27 179h860l-26 -179h-861zM55 799l25 177h862l-27 -177h-860z" />
    <glyph glyph-name="uni20B9" unicode="&#x20b9;" horiz-adv-x="1326" 
d="M610 0l-120 616h-426l37 242h432q119 0 178.5 50.5t75.5 156.5q16 109 -34.5 159t-156.5 50h-433l25 172h492q265 0 398 -103.5t104 -289.5q-13 -94 -58 -168t-111.5 -126.5t-144.5 -80.5q-17 -6 -9 -33l168 -645h-417zM122 989l23 160l1213 1l-25 -161h-1211zM166 1286
l23 160h1213l-24 -160h-1212z" />
    <glyph glyph-name="uni20BA" unicode="&#x20ba;" horiz-adv-x="1369" 
d="M201 0l216 1446h386l-174 -1164h55q102 4 196.5 82.5t168.5 221.5l285 -62q-53 -104 -126 -198t-173.5 -168t-233.5 -116t-304 -42h-296zM100 373l-34 170l905 317l35 -170zM114 686l-36 170l908 317l37 -169z" />
    <glyph glyph-name="uni2113" unicode="&#x2113;" horiz-adv-x="1192" 
d="M572 -19q-189 0 -282.5 83t-106.5 241l-104 -73l-52 182l180 125l61 426q37 257 175 379t334 122q134 0 206.5 -50t96 -133t9.5 -182q-15 -107 -64 -195.5t-122.5 -166.5t-165 -151.5t-191.5 -148.5q-20 -117 1.5 -163t114.5 -46q77 0 154 44.5t161 130.5l99 -129
q-21 -39 -60.5 -89t-100 -97t-146 -78t-197.5 -31zM577 727q58 50 108.5 100t90.5 103t66 109.5t34 116.5q8 53 -8 83t-64 30q-63 0 -113.5 -65t-75.5 -240z" />
    <glyph glyph-name="uni2116" unicode="&#x2116;" horiz-adv-x="2337" 
d="M75 0l219 1446h338l466 -882l131 882h339l-218 -1446h-304l-493 928l-138 -928h-340zM1998 796q-137 0 -208 93.5t-51 238.5q15 101 65.5 177t126 118.5t164.5 42.5q138 0 209.5 -95.5t50.5 -242.5q-13 -97 -63.5 -172t-126 -117.5t-167.5 -42.5zM2019 937q54 0 87 48
t47 147t-5.5 147t-72.5 48q-54 0 -86.5 -48t-46.5 -147t5.5 -147t71.5 -48z" />
    <glyph glyph-name="uni2117" unicode="&#x2117;" horiz-adv-x="1648" 
d="M733 -20q-151 0 -274.5 57.5t-208.5 159.5t-122 237t-14 290q23 153 100 287.5t192.5 236.5t256.5 160t292 58t275 -58t209 -160t122 -236.5t14 -287.5q-24 -155 -101.5 -290t-193 -237t-256.5 -159.5t-291 -57.5zM760 161q119 0 222.5 39t186 113t136.5 178t73 233
q20 128 -3 231.5t-83 178.5t-152 115t-211 40q-120 0 -224 -40t-186 -115t-135.5 -178.5t-72.5 -231.5q-27 -172 21 -298.5t158 -195.5t270 -69zM499 338l116 770h354q83 0 147.5 -27t97 -83.5t19.5 -145.5q-19 -124 -106 -189t-212 -65h-168l-39 -260h-209zM769 747h140
q44 0 73.5 27.5t37.5 78.5q9 56 -17.5 79t-68.5 23h-133z" />
    <glyph glyph-name="uni2120" unicode="&#x2120;" horiz-adv-x="2050" 
d="M936 0l135 904h311l82 -598l262 598h309l-134 -904h-212l99 673l-291 -673h-158l-91 671l-101 -671h-211zM394 -12q-92 0 -174 29t-131.5 91t-43.5 159h220q3 -55 44 -85t108 -30q65 0 117.5 22.5t59.5 75.5q7 47 -35.5 66.5t-100.5 30.5l-142 28q-102 19 -154 83.5
t-38 173.5q13 89 71 152t145 97t187 34q107 0 183 -40t115 -104t35 -136h-215q2 42 -14.5 67t-48 36t-75.5 11q-48 0 -81 -13t-50.5 -33t-20.5 -45q-6 -36 13.5 -57t82.5 -34l141 -28q88 -17 135.5 -50.5t66.5 -75.5t20 -85t-4 -77q-10 -75 -68 -134.5t-148 -94t-200 -34.5z
" />
    <glyph glyph-name="trademark" unicode="&#x2122;" horiz-adv-x="1933" 
d="M819 0l135 904h311l82 -598l262 598h309l-134 -904h-212l99 673l-291 -673h-158l-91 671l-100 -671h-212zM223 0l107 716h-259l29 188h728l-28 -188h-259l-107 -716h-211z" />
    <glyph glyph-name="uni2126" unicode="&#x2126;" horiz-adv-x="1514" 
d="M22 0l44 290h253q-30 29 -62 67.5t-60.5 87.5t-48.5 109t-27 129.5t4 149.5q20 125 83 244.5t165 215.5t237.5 153.5t298.5 57.5q168 0 284 -60.5t185 -159.5t93 -217t7 -232q-13 -82 -41 -154.5t-73 -138t-107 -128t-144 -124.5h262l-44 -290h-604l39 250q46 31 95.5 79
t95 114t80.5 153t52 197t7.5 192.5t-40 136.5t-79 81.5t-111.5 27.5q-60 0 -117.5 -26t-107.5 -80t-86.5 -138.5t-53.5 -202.5q-19 -125 -2 -226.5t60 -178.5t106 -129l-37 -250h-606z" />
    <glyph glyph-name="uni2153" unicode="&#x2153;" horiz-adv-x="1868" 
d="M193 552l99 662h-154l17 116q114 0 173.5 36t77.5 96h137l-137 -910h-213zM344 -8l-188 3l1179 1467h187zM1348 -20q-173 0 -252.5 80.5t-60.5 223.5h203q3 -74 41 -103.5t94 -29.5q76 0 122 31.5t53 80.5q7 48 -29.5 77.5t-101.5 32.5l-88 4l24 167l78 5q44 3 76.5 16.5
t53 37.5t25.5 55q5 46 -33 70.5t-98 24.5q-39 0 -73.5 -12.5t-59 -42t-36.5 -81.5h-202q14 102 71 168.5t143 98.5t186 32q104 0 182.5 -26t118.5 -80.5t28 -142.5q-10 -67 -54 -116.5t-135 -79.5q44 -12 81.5 -39.5t58 -70.5t11.5 -106q-13 -92 -75 -153t-155 -91.5
t-197 -30.5z" />
    <glyph glyph-name="uni2154" unicode="&#x2154;" horiz-adv-x="2190" 
d="M62 558l13 99l9 52q11 80 52 135.5t100.5 94.5t123 68t120.5 55.5t95.5 58.5t44.5 75q6 48 -22 79t-85 31q-58 0 -107 -35.5t-72 -112.5h-203q20 135 123 228.5t289 93.5q159 0 239 -78t62 -204q-11 -79 -51.5 -133t-97 -90t-118.5 -62.5t-116.5 -49.5t-91.5 -51.5
t-43 -71.5l-1 -4h451l-26 -178h-688zM666 -8l-188 3l1179 1467h187zM1670 -20q-173 0 -252.5 80.5t-60.5 223.5h203q3 -74 41 -103.5t94 -29.5q76 0 122 31.5t53 80.5q7 48 -29.5 77.5t-101.5 32.5l-88 4l24 167l78 5q44 3 76.5 16.5t53 37.5t25.5 55q5 46 -33 70.5
t-98 24.5q-39 0 -73.5 -12.5t-59 -42t-36.5 -81.5h-202q14 102 71 168.5t143 98.5t186 32q104 0 182.5 -26t118.5 -80.5t28 -142.5q-10 -67 -54 -116.5t-135 -79.5q44 -12 81.5 -39.5t58 -70.5t11.5 -106q-13 -92 -75 -153t-155 -91.5t-197 -30.5z" />
    <glyph glyph-name="oneeighth" unicode="&#x215b;" horiz-adv-x="1868" 
d="M193 552l99 662h-154l17 116q114 0 173.5 36t77.5 96h137l-137 -910h-213zM344 -8l-188 3l1179 1467h187zM1363 -21q-166 0 -258.5 72.5t-75.5 195.5q7 53 38.5 98.5t74.5 77.5t84 40q-49 26 -80 74.5t-21 117.5q17 125 122 192t247 67q143 0 229 -67t68 -192
q-9 -69 -53.5 -117.5t-100.5 -74.5q39 -8 72.5 -40t52 -77.5t11.5 -98.5q-17 -123 -129.5 -195.5t-280.5 -72.5zM1385 138q70 0 112.5 31.5t49.5 84.5q8 53 -26 86.5t-102 33.5t-111.5 -33.5t-51.5 -86.5q-7 -53 27 -84.5t102 -31.5zM1443 544q51 0 90.5 30.5t46.5 83.5
q8 54 -22.5 85t-82.5 31q-51 0 -90.5 -31.5t-46.5 -84.5q-8 -53 23 -83.5t82 -30.5z" />
    <glyph glyph-name="threeeighths" unicode="&#x215c;" horiz-adv-x="2121" 
d="M421 544q-173 0 -252.5 80.5t-60.5 223.5h203q3 -74 41 -103.5t94 -29.5q76 0 122 31.5t53 80.5q7 48 -29.5 77.5t-101.5 32.5l-88 4l24 167l78 5q44 3 76.5 16.5t53 37.5t25.5 55q5 46 -33 70.5t-98 24.5q-39 0 -73.5 -12.5t-59 -42t-36.5 -81.5h-202q14 102 71 168.5
t143 98.5t186 32q104 0 182.5 -26t118.5 -80.5t28 -142.5q-10 -67 -54 -116.5t-135 -79.5q44 -13 81.5 -40t58 -70t11.5 -106q-13 -92 -75 -153t-155 -91.5t-197 -30.5zM597 -8l-188 3l1179 1467h187zM1616 -21q-166 0 -258.5 72.5t-75.5 195.5q7 53 38.5 98.5t74.5 77.5
t84 40q-49 26 -80 74.5t-21 117.5q17 125 122 192t247 67q143 0 229 -67t68 -192q-9 -69 -53.5 -117.5t-100.5 -74.5q39 -8 72.5 -40t52 -77.5t11.5 -98.5q-17 -123 -129.5 -195.5t-280.5 -72.5zM1638 138q70 0 112.5 31.5t49.5 84.5q8 53 -26 86.5t-102 33.5t-111.5 -33.5
t-51.5 -86.5q-7 -53 27 -84.5t102 -31.5zM1696 544q51 0 90.5 30.5t46.5 83.5q8 54 -22.5 85t-82.5 31q-51 0 -90.5 -31.5t-46.5 -84.5q-8 -53 23 -83.5t82 -30.5z" />
    <glyph glyph-name="fiveeighths" unicode="&#x215d;" horiz-adv-x="2111" 
d="M448 538q-137 0 -234 58t-131 147l177 105q30 -59 71 -99t118 -40q73 0 122.5 37.5t57.5 94.5q8 55 -29 94t-110 39q-34 0 -66 -9.5t-79 -36.5q-11 -4 -15.5 -4t-15.5 6l-137 75l105 457h597l-33 -174h-423l-41 -185q56 21 98.5 32t92.5 11q94 0 161.5 -35t100 -101
t18.5 -161q-20 -145 -129 -228t-276 -83zM587 -8l-188 3l1179 1467h187zM1606 -21q-166 0 -258.5 72.5t-75.5 195.5q7 53 38.5 98.5t74.5 77.5t84 40q-49 26 -80 74.5t-21 117.5q17 125 122 192t247 67q143 0 229 -67t68 -192q-9 -69 -53.5 -117.5t-100.5 -74.5
q39 -8 72.5 -40t52 -77.5t11.5 -98.5q-17 -123 -129.5 -195.5t-280.5 -72.5zM1628 138q70 0 112.5 31.5t49.5 84.5q8 53 -26 86.5t-102 33.5t-111.5 -33.5t-51.5 -86.5q-7 -53 27 -84.5t102 -31.5zM1686 544q51 0 90.5 30.5t46.5 83.5q8 54 -22.5 85t-82.5 31
q-51 0 -90.5 -31.5t-46.5 -84.5q-8 -53 23 -83.5t82 -30.5z" />
    <glyph glyph-name="seveneighths" unicode="&#x215e;" horiz-adv-x="1948" 
d="M201 550q14 69 62 189t135 263.5t218 283.5h-467l25 174h688l-27 -174q-59 -60 -124 -151.5t-124.5 -195.5t-102 -206t-54.5 -183h-229zM425 -8l-188 3l1179 1467h187zM1443 -21q-166 0 -258.5 72.5t-75.5 195.5q7 53 38.5 98.5t74.5 77.5t84 40q-49 26 -80 74.5
t-21 117.5q17 125 122 192t247 67q143 0 229 -67t68 -192q-9 -69 -53.5 -117.5t-100.5 -74.5q39 -8 72.5 -40t52 -77.5t11.5 -98.5q-17 -123 -129.5 -195.5t-280.5 -72.5zM1465 138q70 0 112.5 31.5t49.5 84.5q8 53 -26 86.5t-102 33.5t-111.5 -33.5t-51.5 -86.5
q-7 -53 27 -84.5t102 -31.5zM1523 544q51 0 90.5 30.5t46.5 83.5q8 54 -22.5 85t-82.5 31q-51 0 -90.5 -31.5t-46.5 -84.5q-8 -53 23 -83.5t82 -30.5z" />
    <glyph glyph-name="partialdiff" unicode="&#x2202;" horiz-adv-x="1208" 
d="M488 -20q-157 0 -257.5 63.5t-141.5 172t-21 243.5q20 134 90.5 242.5t182.5 171.5t254 63q100 0 150.5 -28t91.5 -63q20 -18 26.5 -9.5t8.5 22.5q8 58 -2 121t-43.5 117.5t-96.5 89t-160 34.5q-96 0 -161 -29t-115 -58l-60 198q31 25 93.5 56.5t148 55t187.5 23.5
q175 0 298 -81.5t175.5 -248.5t14.5 -424q-33 -220 -118.5 -384.5t-222 -256t-322.5 -91.5zM518 218h2q63 0 116.5 40t93.5 110.5t63 163.5q7 30 7 42.5t-8 27.5q-18 43 -63 77.5t-108 34.5q-59 0 -109 -35.5t-84.5 -96.5t-46.5 -137q-10 -74 5 -124.5t49.5 -76.5t82.5 -26z
" />
    <glyph glyph-name="emptyset" unicode="&#x2205;" horiz-adv-x="1202" 
d="M135 226l-89 113l1054 869l87 -111zM553 261q-126 0 -220.5 63t-140.5 169t-27 235q14 96 62.5 180.5t121.5 148.5t161.5 100t182.5 36q127 0 222 -63t141 -168.5t27 -233.5q-20 -129 -98 -235t-192 -169t-240 -63zM576 410q86 0 163 43t130 115t67 160q13 86 -18.5 158
t-96 115t-150.5 43t-163 -43t-129.5 -115t-65.5 -158q-13 -88 18 -160t95 -115t150 -43z" />
    <glyph glyph-name="uni2206" unicode="&#x2206;" horiz-adv-x="1579" 
d="M-41 0l991 1446l525 -1446h-1516zM489 281h554l-184 559z" />
    <glyph glyph-name="product" unicode="&#x220f;" horiz-adv-x="1415" 
d="M122 0l176 1169h-168l42 277h1319l-42 -277h-170l-175 -1169h-345l175 1169h-291l-174 -1169h-347z" />
    <glyph glyph-name="summation" unicode="&#x2211;" horiz-adv-x="1170" 
d="M-14 0l30 203l478 513l-305 503l34 227h979l-41 -270h-521l279 -421l-451 -469h596l-44 -286h-1034z" />
    <glyph glyph-name="minus" unicode="&#x2212;" horiz-adv-x="1195" 
d="M125 605l37 245h967l-37 -244z" />
    <glyph glyph-name="uni2215" unicode="&#x2215;" horiz-adv-x="1222" 
d="M203 -8l-192 3l1070 1467h190z" />
    <glyph glyph-name="uni2219" unicode="&#x2219;" horiz-adv-x="735" 
d="M359 564q-67 0 -108.5 49.5t-30.5 119.5q10 69 66 118.5t125 49.5q68 0 109 -49.5t30 -118.5q-9 -70 -65.5 -119.5t-125.5 -49.5z" />
    <glyph glyph-name="radical" unicode="&#x221a;" horiz-adv-x="1406" 
d="M413 -322l-165 796l-167 -60l-39 187l430 147l152 -761l655 1665h280l-806 -1974h-340z" />
    <glyph glyph-name="infinity" unicode="&#x221e;" horiz-adv-x="1619" 
d="M383 168q-92 0 -163 45t-106.5 128t-18.5 195q17 111 77.5 194.5t150 129.5t196.5 46q80 0 132.5 -25t91 -67.5t77.5 -94.5q14 -18 23 -17.5t27 17.5q42 41 93.5 84.5t117 73t148.5 29.5q96 0 166.5 -44t103 -124t16.5 -189l-2 -3q-18 -120 -79.5 -204.5t-149.5 -129
t-183 -44.5q-79 0 -132 27.5t-92.5 73.5t-77.5 101q-10 14 -17 15.5t-21 -15.5q-17 -14 -50 -47t-81.5 -68.5t-110.5 -61t-136 -25.5zM434 372h4q40 0 79.5 20t73 49.5t57.5 56.5q19 22 19.5 33.5t-11.5 37.5q-33 65 -74 102t-100 37q-67 0 -116 -46.5t-60 -119.5
q-11 -75 26 -122.5t102 -47.5zM1138 372q46 0 81 25.5t56.5 64t27.5 78.5q10 66 -21.5 117t-99.5 51h-2q-60 0 -114.5 -43t-100.5 -89q-19 -20 -18 -37.5t8 -31.5q33 -59 67.5 -88t64.5 -38t51 -9z" />
    <glyph glyph-name="integral" unicode="&#x222b;" horiz-adv-x="967" 
d="M122 -344q-75 0 -126 14.5t-83 35.5l109 277q23 -14 52.5 -25t72.5 -11q53 0 87 43t52 163t32 255t25.5 268.5t23 253.5t24.5 210q40 265 154.5 398.5t320.5 133.5q77 0 130 -15.5t82 -36.5l-106 -276q-25 14 -55.5 25.5t-74.5 11.5q-54 0 -88 -43.5t-52 -157.5
q-18 -125 -32 -259t-25 -264.5t-22.5 -247.5t-25.5 -207q-27 -183 -87.5 -304t-156.5 -181.5t-231 -60.5z" />
    <glyph glyph-name="approxequal" unicode="&#x2248;" horiz-adv-x="1240" 
d="M237 693l-71 165q92 86 177.5 142.5t184.5 56.5q62 0 106.5 -20t81 -45.5t73.5 -45t83 -19.5q69 0 131 45.5t107 108.5l74 -163q-72 -101 -162.5 -151.5t-174.5 -50.5q-59 0 -104.5 20t-83.5 46t-77.5 46t-88.5 20q-75 0 -136 -48.5t-120 -106.5zM173 261l-73 166
q94 86 178.5 142t185.5 56q61 0 105.5 -19.5t81.5 -45t73.5 -45.5t82.5 -20q69 0 130.5 45.5t107.5 109.5l73 -163q-70 -101 -160.5 -151.5t-176.5 -50.5q-59 0 -104 20t-83 46t-77.5 46t-89.5 20q-75 0 -136.5 -49t-117.5 -107z" />
    <glyph glyph-name="notequal" unicode="&#x2260;" horiz-adv-x="1201" 
d="M242 45l598 1270h169l-590 -1270h-177zM158 795l37 244h966l-37 -244h-966zM87 331l37 244l967 1l-37 -245h-967z" />
    <glyph glyph-name="lessequal" unicode="&#x2264;" horiz-adv-x="1196" 
d="M1044 378l-887 372l43 276l998 370l-44 -286l-614 -225l546 -219zM46 39l37 243h967l-38 -243h-966z" />
    <glyph glyph-name="greaterequal" unicode="&#x2265;" horiz-adv-x="1200" 
d="M117 378l42 288l613 219l-546 225l43 286l887 -370l-40 -276zM46 39l37 243h967l-37 -243h-967z" />
    <glyph glyph-name="lozenge" unicode="&#x25ca;" horiz-adv-x="1158" 
d="M409 0l-251 724l476 722h214l253 -718l-479 -728h-213zM557 236l295 488l-150 480l-292 -475z" />
    <glyph glyph-name="i.loclTRK" horiz-adv-x="574" 
d="M40 0l156 1034h338l-156 -1034h-338zM233 1182l40 264h315l-39 -264h-316z" />
    <glyph glyph-name="g.ss01" horiz-adv-x="1138" 
d="M414 -336q-108 0 -183.5 35t-121 89t-65 111t-14.5 99h287q-1 -30 34 -59t94 -30q73 0 125.5 31t83 81t37.5 106l8 55q-50 -76 -128 -102t-172 -26q-96 0 -176.5 63.5t-122 174.5t-21.5 256q12 88 49 177t96 163.5t138.5 119t176.5 44.5q59 0 109 -22.5t84.5 -56.5
t48.5 -69l18 128h309l-116 -827q-23 -165 -104.5 -286.5t-204 -188t-269.5 -66.5zM532 294q60 0 100.5 31.5t64 84.5t31.5 116l7 54q9 58 -4.5 112.5t-45.5 90t-80 35.5q-58 0 -101 -38.5t-70.5 -99.5t-37.5 -132q-10 -69 3 -126.5t47 -92.5t86 -35z" />
    </font>
</defs>
</svg>
