<?xml version="1.0" standalone="no"?>
<!DOCTYPE svg PUBLIC "-//W3C//DTD SVG 1.1//EN" "http://www.w3.org/Graphics/SVG/1.1/DTD/svg11.dtd" >
<svg xmlns="http://www.w3.org/2000/svg" xmlns:xlink="http://www.w3.org/1999/xlink" version="1.1">
<metadata>
Created by FontForge 20170731 at Sat Apr 30 02:32:16 2022
 By Aleksey,,,
Copyright 2015 The Public Sans Project Authors (https://github.com/uswds/public-sans)
</metadata>
<defs>
<font id="PublicSans-Light" horiz-adv-x="0" >
  <font-face 
    font-family="Public Sans Light"
    font-weight="300"
    font-stretch="normal"
    units-per-em="2000"
    panose-1="0 0 0 0 0 0 0 0 0 0"
    ascent="1600"
    descent="-400"
    x-height="1034"
    cap-height="1446"
    bbox="-308 -480 2468 2105"
    underline-thickness="140"
    underline-position="-580"
    unicode-range="U+000D-FB02"
  />
<missing-glyph horiz-adv-x="1388" 
d="M237 1652h918q34 0 34 -42v-1876q0 -56 -64 -56h-872q-31 0 -42.5 12t-11.5 36v1880q0 46 38 46zM1089 -113v1633q0 34 -30 34h-688zM301 1433v-1617q0 -19 9.5 -29.5t34.5 -10.5h669z" />
    <glyph glyph-name="fi" unicode="fi" horiz-adv-x="1276" 
d="M304 0v917h-226v117h226v164q0 122 59.5 185t183.5 63h183v-114h-159q-66 0 -89.5 -35.5t-23.5 -106.5v-156h262v-117h-260v-917h-156zM959 0v1034h152v-1034h-152zM952 1273v172h164v-172h-164z" />
    <glyph glyph-name="fl" unicode="fl" horiz-adv-x="1384" 
d="M304 0v917h-226v117h226v164q0 122 59.5 185t183.5 63h183v-114h-159q-66 0 -89.5 -35.5t-23.5 -106.5v-156h262v-117h-260v-917h-156zM1194 -11q-74 0 -121.5 21.5t-74 59.5t-36.5 87t-10 103v1226h154v-1213q0 -85 32 -124.5t84 -42.5l58 -1v-102q-22 -7 -45 -10.5
t-41 -3.5z" />
    <glyph glyph-name=".notdef" horiz-adv-x="1388" 
d="M237 1652h918q34 0 34 -42v-1876q0 -56 -64 -56h-872q-31 0 -42.5 12t-11.5 36v1880q0 46 38 46zM1089 -113v1633q0 34 -30 34h-688zM301 1433v-1617q0 -19 9.5 -29.5t34.5 -10.5h669z" />
    <glyph glyph-name="uni0000" horiz-adv-x="54" 
 />
    <glyph glyph-name="uni0000" horiz-adv-x="54" 
 />
    <glyph glyph-name="nonmarkingreturn" horiz-adv-x="666" 
 />
    <glyph glyph-name="CR" unicode="&#xd;" horiz-adv-x="465" 
 />
    <glyph glyph-name="space" unicode=" " horiz-adv-x="495" 
 />
    <glyph glyph-name="exclam" unicode="!" horiz-adv-x="485" 
d="M186 346l-41 1100h189l-40 -1100h-108zM143 0v212h192v-212h-192z" />
    <glyph glyph-name="quotedbl" unicode="&#x22;" horiz-adv-x="821" 
d="M528 1005l-53 441h204l-56 -441h-95zM196 1005l-53 441h204l-56 -441h-95z" />
    <glyph glyph-name="numbersign" unicode="#" horiz-adv-x="1199" 
d="M752 -3l-103 15l219 1437l102 -12zM78 474v103h975v-103h-975zM345 -3l-102 15l219 1437l102 -12zM142 884v103h975v-103h-975z" />
    <glyph glyph-name="dollar" unicode="$" horiz-adv-x="1305" 
d="M670 -20q-221 0 -368 97t-177 284l164 13q34 -129 134.5 -192.5t245.5 -63.5q87 0 165.5 30.5t128 86t49.5 130.5q0 100 -58.5 161.5t-184.5 97.5l-253 69q-160 43 -252.5 128t-93.5 228q0 122 64 215.5t178.5 146.5t266.5 53q144 0 248 -56t162 -147.5t64 -198.5
l-159 -12q-24 138 -102.5 208t-213.5 70q-63 0 -123.5 -16.5t-109 -49.5t-77.5 -83t-29 -117q0 -82 57.5 -130t208.5 -95l242 -71q180 -52 256.5 -157.5t76.5 -240.5q0 -113 -64.5 -200.5t-179.5 -137.5t-266 -50zM592 -214v258h149v-258h-149zM605 1407v258h149v-258h-149z
" />
    <glyph glyph-name="percent" unicode="%" horiz-adv-x="1789" 
d="M338 -8l977 1470h108l-972 -1470h-113zM447 642q-97 0 -173 51t-120 143.5t-44 217.5q0 127 44 219.5t120 143.5t173 51t172 -51t118 -143.5t43 -219.5q0 -125 -42.5 -217.5t-118 -143.5t-172.5 -51zM445 733q102 0 158.5 82t56.5 239q0 158 -57 241t-158 83t-158 -83.5
t-57 -240.5q0 -155 57 -238t158 -83zM1341 -20q-98 0 -174 49.5t-119.5 142.5t-43.5 223q0 127 43.5 220t120 143.5t173.5 50.5q96 0 171.5 -50.5t118.5 -143.5t43 -220q0 -130 -42.5 -223t-118 -142.5t-172.5 -49.5zM1339 72q101 0 158 82t57 239q0 158 -57 240.5
t-158 82.5t-158 -83t-57 -240q0 -155 56.5 -238t158.5 -83z" />
    <glyph glyph-name="ampersand" unicode="&#x26;" horiz-adv-x="1376" 
d="M513 -10q-137 0 -232.5 47.5t-145.5 131.5t-50 195q0 93 37 169.5t112 141.5t189 126q-58 60 -98.5 117t-62 115.5t-21.5 122.5q0 87 45.5 158t126 112.5t186.5 41.5q102 0 189 -37.5t140.5 -106t53.5 -162.5q0 -36 -14 -80t-50.5 -95t-105 -106t-178.5 -113l342 -399
q20 26 50 81.5t55 135.5t30 181h151q-11 -107 -41.5 -193.5t-73 -160t-91.5 -140.5l232 -273h-183l-145 166q-108 -92 -221 -134t-226 -42zM544 118q91 0 180 40.5t157 105.5l-377 439q-111 -61 -181.5 -146t-66.5 -192q3 -75 42.5 -130.5t104 -86t141.5 -30.5zM562 860
q113 64 172.5 115t81 95.5t21.5 89.5q0 72 -34.5 115t-88 62t-110.5 18q-101 -1 -153.5 -58t-52.5 -133q0 -54 23.5 -106.5t54 -94.5t52.5 -66z" />
    <glyph glyph-name="quotesingle" unicode="'" horiz-adv-x="489" 
d="M196 1005l-53 441h204l-56 -441h-95z" />
    <glyph glyph-name="parenleft" unicode="(" horiz-adv-x="589" 
d="M413 -236q-82 140 -142 277t-93 284t-33 317q0 247 80 476t206 414h105q-101 -194 -168 -424.5t-67 -467.5q0 -225 55.5 -439t161.5 -437h-105z" />
    <glyph glyph-name="parenright" unicode=")" horiz-adv-x="604" 
d="M61 -236q106 223 161.5 437t55.5 439q0 237 -66.5 467.5t-168.5 424.5h106q126 -185 205.5 -414t79.5 -476q0 -170 -32.5 -317t-93 -284t-142.5 -277h-105z" />
    <glyph glyph-name="asterisk" unicode="*" horiz-adv-x="745" 
d="M220 796l-97 67l184 231l-254 73l36 102l244 -96l-17 273h121l-16 -273l247 105l32 -102l-249 -81l179 -221l-98 -71l-153 247z" />
    <glyph glyph-name="plus" unicode="+" horiz-adv-x="1091" 
d="M485 307l-1 841h124l2 -841h-125zM125 664v124l841 2v-125z" />
    <glyph glyph-name="comma" unicode="," horiz-adv-x="464" 
d="M85 -243l111 240l-83 4v204h213v-177l-161 -271h-80z" />
    <glyph glyph-name="hyphen" unicode="-" horiz-adv-x="747" 
d="M125 453v127l497 1v-127z" />
    <glyph glyph-name="period" unicode="." horiz-adv-x="426" 
d="M113 0v214h193v-214h-193z" />
    <glyph glyph-name="slash" unicode="/" horiz-adv-x="685" 
d="M28 -88l499 1534h128l-500 -1534h-127z" />
    <glyph glyph-name="zero" unicode="0" horiz-adv-x="1206" 
d="M602 -22q-231 0 -367 185t-136 554q0 249 63 415.5t176 250t266 83.5q228 0 365.5 -187t137.5 -559q0 -370 -137 -556t-368 -186zM605 117q161 0 246 142t85 461q0 323 -86 466.5t-247 143.5q-160 0 -248 -144.5t-88 -465.5q0 -318 88 -460.5t250 -142.5z" />
    <glyph glyph-name="one" unicode="1" horiz-adv-x="802" 
d="M380 0v1169h-285v110q131 0 202 17.5t99.5 55t30.5 94.5h115v-1446h-162z" />
    <glyph glyph-name="two" unicode="2" horiz-adv-x="1171" 
d="M128 0v105v55q0 111 41.5 192.5t110 142t150.5 109t163.5 94.5t150 96.5t110 115t41.5 152.5q0 118 -82.5 190.5t-221.5 72.5q-151 0 -240 -84.5t-98 -220.5h-158q3 122 61 223t169 162t273 61q140 0 244 -50.5t161 -141.5t57 -212q0 -112 -41.5 -192.5t-109 -140
t-148 -106.5t-162 -91t-149 -93t-108.5 -112.5t-41 -151.5v-33h769v-142h-942z" />
    <glyph glyph-name="three" unicode="3" horiz-adv-x="1242" 
d="M598 -22q-143 2 -253.5 55t-175.5 148.5t-70 225.5h159q20 -137 113 -214t235 -77q111 0 193.5 35.5t128.5 98.5t46 146q0 94 -52 158t-140 97t-196 34l-128 2v137l123 2q101 1 180.5 38.5t126 97.5t46.5 131q0 62 -38 116.5t-111 88.5t-179 34q-80 0 -154.5 -32.5
t-123 -99t-50.5 -169.5h-157q0 136 66 233.5t176.5 149.5t242.5 52q147 0 258.5 -44t175 -126.5t63.5 -198.5q0 -107 -70 -195t-210 -137q99 -27 171 -78.5t110.5 -124.5t38.5 -166q0 -96 -40 -174t-113 -133t-173 -83.5t-219 -27.5z" />
    <glyph glyph-name="four" unicode="4" horiz-adv-x="1242" 
d="M780 0v383h-685v149l678 914h161v-922h244v-141h-244v-383h-154zM247 524h528v709z" />
    <glyph glyph-name="five" unicode="5" horiz-adv-x="1262" 
d="M648 -22q-131 0 -243 48t-191.5 133.5t-114.5 198.5l141 49q34 -87 90.5 -153t134 -103.5t175.5 -37.5q161 0 258.5 94.5t97.5 261.5q0 103 -47 179t-124 117.5t-170 41.5q-62 0 -117 -11t-107 -44t-108 -99q-5 -2 -7 -2t-8 3l-140 35l65 757h845l-4 -138h-704l-39 -499
q70 72 159 103t193 31q127 0 236.5 -53t176.5 -157.5t67 -258.5q0 -150 -63.5 -261.5t-179.5 -173t-272 -61.5z" />
    <glyph glyph-name="six" unicode="6" horiz-adv-x="1225" 
d="M636 -22q-163 0 -284 86.5t-187 248.5t-66 389q0 231 63 403t186.5 266.5t304.5 94.5q116 0 214 -43.5t163.5 -125t83.5 -196.5h-149q-29 105 -109.5 168.5t-200.5 63.5q-134 0 -224 -76t-131.5 -225t-30.5 -368q26 80 82.5 141t134 95t167.5 34q142 0 248 -55.5
t165.5 -159t59.5 -247.5q0 -146 -59 -257t-169 -174t-262 -63zM636 112q94 0 166.5 44t113.5 124t41 185q0 104 -36.5 179.5t-108.5 116.5t-178 41q-85 0 -161 -39.5t-124 -106t-48 -147.5q-1 -115 40.5 -204.5t117.5 -141t177 -51.5z" />
    <glyph glyph-name="seven" unicode="7" horiz-adv-x="1187" 
d="M355 0q19 102 62.5 251t113.5 325.5t166.5 364t219.5 367.5h-822v138h997v-138q-79 -111 -156 -249t-146 -286.5t-124.5 -292t-92 -268t-48.5 -212.5h-170z" />
    <glyph glyph-name="eight" unicode="8" horiz-adv-x="1283" 
d="M640 -22q-163 0 -285 51t-189 143.5t-67 216.5q0 84 43 162t110.5 133t142.5 69q-102 42 -167.5 122.5t-65.5 199.5q0 125 63 212.5t171.5 133t243.5 45.5q137 0 245 -45.5t170.5 -133t62.5 -212.5q0 -119 -63.5 -199.5t-167.5 -122.5q75 -14 143 -69t111 -133t43 -162
q0 -124 -67 -216.5t-189.5 -143.5t-287.5 -51zM640 108q171 0 273 76.5t102 203.5q0 84 -46.5 149.5t-130 103t-198.5 37.5q-112 0 -195.5 -37.5t-130 -103t-46.5 -149.5q0 -127 102 -203.5t270 -76.5zM640 822q142 0 229 67.5t87 190.5q0 122 -87.5 193t-228.5 71
q-139 0 -227 -71.5t-88 -192.5q0 -123 88 -190.5t227 -67.5z" />
    <glyph glyph-name="nine" unicode="9" horiz-adv-x="1230" 
d="M571 -22q-116 0 -216 44t-168 125t-86 195h153q27 -103 110.5 -166.5t201.5 -63.5q135 0 230 71.5t141.5 220.5t35.5 381q-23 -83 -79 -145.5t-134.5 -98t-173.5 -35.5q-142 0 -249.5 55.5t-167.5 160t-60 250.5t58.5 257.5t167.5 174t261 62.5q163 0 283.5 -86t186 -248
t65.5 -390q0 -238 -64.5 -409.5t-189.5 -263t-306 -91.5zM598 642q85 0 161 39.5t124 106.5t48 148q1 115 -40.5 204.5t-117.5 141.5t-178 52q-93 0 -164.5 -44.5t-111.5 -124.5t-40 -185q0 -154 80 -246t239 -92z" />
    <glyph glyph-name="colon" unicode=":" horiz-adv-x="427" 
d="M113 775v213h194v-213h-194zM113 6v212h194v-212h-194z" />
    <glyph glyph-name="semicolon" unicode=";" horiz-adv-x="460" 
d="M113 -279l110 279h-77v212h194v-187l-157 -304h-70zM138 772v215h194v-215h-194z" />
    <glyph glyph-name="less" unicode="&#x3c;" horiz-adv-x="1074" 
d="M948 297l-823 322v148l824 328v-153l-631 -249l630 -247v-149z" />
    <glyph glyph-name="equal" unicode="=" horiz-adv-x="1091" 
d="M125 858v124l841 2v-125zM125 418v124l841 2v-125z" />
    <glyph glyph-name="greater" unicode="&#x3e;" horiz-adv-x="1073" 
d="M127 297v149l630 247l-632 249v153l823 -328v-148z" />
    <glyph glyph-name="question" unicode="?" horiz-adv-x="1034" 
d="M414 350q0 115 38.5 200t94.5 152.5t112 129t94.5 128.5t38.5 152q0 106 -75.5 167.5t-198.5 61.5q-68 0 -134 -26.5t-116.5 -72t-72.5 -100.5l-142 46q63 130 187 204t279 74q132 0 230 -44.5t151.5 -123t53.5 -181.5t-40.5 -179t-100.5 -140l-120 -128t-100.5 -140.5
t-40.5 -179.5h-138zM387 0v212h193v-212h-193z" />
    <glyph glyph-name="at" unicode="@" horiz-adv-x="1665" 
d="M851 -220q-177 0 -316.5 57t-237.5 157t-148.5 232t-50.5 283q0 158 55.5 298.5t159.5 248.5t248 170t320 62q126 0 248 -36.5t221 -112t158 -193.5t59 -283q0 -149 -49 -263t-134.5 -178t-192.5 -64q-76 0 -117.5 26t-56.5 79q-5 13 -9.5 13.5t-13.5 -10.5
q-43 -58 -109.5 -97t-162.5 -39q-73 0 -135.5 42.5t-100.5 120t-37 182.5q0 124 47.5 226.5t132.5 163.5t195 61q81 0 137 -34.5t89 -90.5q3 -4 7.5 -3t5.5 9l19 69h113l-75 -448q-14 -88 7 -122t72 -34q66 0 120.5 45.5t88 130.5t33.5 203q0 143 -49 243.5t-131 163
t-181.5 91.5t-200.5 29q-157 0 -279 -53.5t-205.5 -146t-127.5 -214t-44 -257.5q0 -129 42.5 -241t125 -197t205 -132t282.5 -47q90 0 152.5 17t112.5 46t101 64l66 -86q-90 -69 -207 -110t-252 -41zM747 249q65 0 121 38.5t93.5 101.5t47.5 138q13 93 -10.5 155.5t-68.5 94
t-98 31.5q-73 0 -128.5 -44t-86.5 -117.5t-31 -163.5q0 -107 42 -170.5t119 -63.5z" />
    <glyph glyph-name="A" unicode="A" horiz-adv-x="1412" 
d="M90 0l525 1446h183l524 -1446h-161l-149 412h-612l-150 -412h-160zM444 560h523l-262 732z" />
    <glyph glyph-name="B" unicode="B" horiz-adv-x="1333" 
d="M199 0v1446h449q258 0 393.5 -96.5t135.5 -279.5q0 -117 -61.5 -200t-211.5 -133q84 -17 143 -50t95.5 -78t53 -101t16.5 -120q0 -195 -140 -291.5t-412 -96.5h-461zM355 135h301q195 0 297 61.5t102 194.5q0 98 -50.5 158t-135.5 87t-189 27h-325v-528zM355 800h325
q60 0 120.5 11.5t111.5 39.5t82 76.5t31 122.5q0 136 -103.5 199.5t-269.5 63.5h-297v-513z" />
    <glyph glyph-name="C" unicode="C" horiz-adv-x="1361" 
d="M715 -20q-193 0 -327.5 87.5t-205.5 254t-71 404.5t70.5 403t205.5 251t328 86q150 0 266 -63t186 -167t83 -226h-168q-17 87 -63.5 159t-123.5 115t-183 43q-140 0 -235.5 -65t-144 -198.5t-48.5 -339.5q0 -310 108.5 -457t319.5 -147q106 0 183 44.5t123.5 118
t63.5 160.5h168q-11 -89 -49.5 -172.5t-105 -149t-162 -103.5t-218.5 -38z" />
    <glyph glyph-name="D" unicode="D" horiz-adv-x="1373" 
d="M199 0v1446q5 0 36.5 -0.5t78 0t98 0t97.5 -1.5q266 -3 432 -84t243 -238t77 -389q0 -244 -83.5 -407t-255 -244.5t-435.5 -81.5h-288zM361 138h125q194 0 330.5 57.5t208.5 187t72 345.5q0 220 -71 346.5t-206 180t-325 53.5h-134v-1170z" />
    <glyph glyph-name="E" unicode="E" horiz-adv-x="1234" 
d="M199 0v1446h889v-140h-733v-506h666v-140h-666v-516l755 -1v-143h-911z" />
    <glyph glyph-name="F" unicode="F" horiz-adv-x="1177" 
d="M199 0v1446h878v-139h-716v-509h649v-139h-649v-659h-162z" />
    <glyph glyph-name="G" unicode="G" horiz-adv-x="1452" 
d="M715 -20q-188 0 -323.5 86.5t-208 251.5t-72.5 402t74 404t211 254.5t325 87.5q104 0 197 -37t166 -101.5t117.5 -146.5t50.5 -171h-168q-14 83 -64.5 154.5t-128 115.5t-172.5 44q-132 0 -231.5 -64.5t-154 -198t-54.5 -338.5q0 -158 33 -272t92 -186.5t140.5 -107
t178.5 -34.5t169 34.5t120 89.5t73 118.5t27 121.5l4 139h-366v118l527 -1v-743h-122v229q-38 -66 -97.5 -122.5t-144 -91.5t-198.5 -35z" />
    <glyph glyph-name="H" unicode="H" horiz-adv-x="1530" 
d="M199 0v1446h156v-626h820v626h156v-1446h-156v679h-820v-679h-156z" />
    <glyph glyph-name="I" unicode="I" horiz-adv-x="553" 
d="M199 0v1446h156v-1446h-156z" />
    <glyph glyph-name="J" unicode="J" horiz-adv-x="770" 
d="M321 -20q-79 0 -145 20t-86 29l15 152q32 -12 73 -30.5t106 -18.5q97 0 134 54.5t37 184.5v1075h156v-1121q0 -109 -25 -186.5t-88 -118t-177 -40.5z" />
    <glyph glyph-name="K" unicode="K" horiz-adv-x="1346" 
d="M199 0v1446h162v-771l681 771h190l-496 -571l534 -875h-179l-469 762l-261 -295v-467h-162z" />
    <glyph glyph-name="L" unicode="L" horiz-adv-x="1155" 
d="M199 0l1 1446h161v-1301h698v-145h-860z" />
    <glyph glyph-name="M" unicode="M" horiz-adv-x="1753" 
d="M199 0v1446h210l465 -1239l472 1239h208v-1446h-162v1186l-439 -1186h-157l-435 1174v-1174h-162z" />
    <glyph glyph-name="N" unicode="N" horiz-adv-x="1493" 
d="M199 0v1446h146l793 -1169v1169h156v-1446h-139l-800 1180v-1180h-156z" />
    <glyph glyph-name="O" unicode="O" horiz-adv-x="1453" 
d="M729 -20q-190 0 -328.5 86.5t-214 251.5t-75.5 402q0 239 75.5 405.5t214.5 253.5t328 87t326.5 -87t212 -253t74.5 -406q0 -237 -74 -402t-211.5 -251.5t-327.5 -86.5zM729 120q142 0 240.5 64t149.5 197t51 338q0 208 -52 342.5t-150.5 200t-238.5 65.5t-239.5 -66
t-152.5 -201t-53 -341t53 -338.5t152.5 -196.5t239.5 -64z" />
    <glyph glyph-name="P" unicode="P" horiz-adv-x="1264" 
d="M199 0v1446h477q154 0 274.5 -51.5t189 -152t68.5 -248.5q0 -145 -65 -246.5t-179.5 -154.5t-265.5 -53h-337v-540h-162zM360 677h335q159 0 258.5 87t99.5 239q0 154 -102 231t-267 77h-324v-634z" />
    <glyph glyph-name="Q" unicode="Q" horiz-adv-x="1481" 
d="M1329 -241q-64 0 -141.5 18t-152.5 69.5t-135 152.5q-49 -9 -90 -14t-82 -5q-188 0 -326.5 84.5t-214.5 249.5t-76 406q0 240 75.5 406.5t213.5 253t328 86.5t328 -86.5t212 -253t74 -406.5q0 -230 -68.5 -394t-224.5 -259q40 -87 115 -127.5t165 -44.5v-136zM728 120
q212 0 328 145t116 454q0 305 -114.5 456.5t-329.5 151.5t-329.5 -152t-114.5 -459t116 -451.5t328 -144.5z" />
    <glyph glyph-name="R" unicode="R" horiz-adv-x="1342" 
d="M199 0v1446h546q152 0 255.5 -45.5t156 -131.5t52.5 -208q0 -118 -43.5 -196.5t-109.5 -125t-136 -69.5l289 -670h-167l-272 641h-415v-641h-156zM355 775h328q176 0 270.5 67.5t94.5 207.5q0 135 -83 199.5t-232 64.5h-378v-539z" />
    <glyph glyph-name="S" unicode="S" horiz-adv-x="1328" 
d="M674 -20q-104 0 -197.5 25.5t-169 75.5t-124 123.5t-63.5 171.5h165q20 -87 76 -145.5t139 -88t180 -29.5q99 0 181 32t131 91t49 142q0 89 -57 146t-181 91l-304 81q-98 26 -173.5 70t-118.5 117t-43 182q0 119 66 209t179.5 140t256.5 50q168 0 281.5 -59t172 -154
t58.5 -201h-162q-10 105 -61.5 166t-128.5 88t-165 27q-162 0 -247 -75t-85 -180q0 -96 60.5 -149.5t173.5 -83.5l302 -80q125 -31 198.5 -87.5t105.5 -130t32 -157.5q0 -117 -65 -209.5t-183 -145.5t-279 -53z" />
    <glyph glyph-name="T" unicode="T" horiz-adv-x="1174" 
d="M523 0v1301h-474v145h1077v-145h-446v-1301h-157z" />
    <glyph glyph-name="U" unicode="U" horiz-adv-x="1388" 
d="M713 -20q-181 0 -294.5 59.5t-166.5 177.5t-53 291v938h163v-967q0 -180 89.5 -270t261.5 -90q116 0 196 39.5t121.5 119.5t41.5 201v967h157v-960q0 -164 -54.5 -277t-168.5 -171t-293 -58z" />
    <glyph glyph-name="V" unicode="V" horiz-adv-x="1328" 
d="M567 0l-518 1446h156l459 -1271l458 1271h157l-518 -1446h-194z" />
    <glyph glyph-name="W" unicode="W" horiz-adv-x="1899" 
d="M462 0l-413 1446h159l334 -1205l342 1205h127l339 -1205l342 1205h158l-420 -1446h-154l-330 1169l-335 -1169h-149z" />
    <glyph glyph-name="X" unicode="X" horiz-adv-x="1361" 
d="M90 0l493 739l-474 707h192l379 -574l376 574h174l-465 -693l506 -753h-193l-409 617l-404 -617h-175z" />
    <glyph glyph-name="Y" unicode="Y" horiz-adv-x="1182" 
d="M516 0v619l-491 827h171l398 -686l392 686h171l-486 -829v-617h-155z" />
    <glyph glyph-name="Z" unicode="Z" horiz-adv-x="1256" 
d="M133 0v91l808 1217h-779v138h994v-87l-813 -1219h810v-140h-1020z" />
    <glyph glyph-name="bracketleft" unicode="[" horiz-adv-x="588" 
d="M189 -322l-1 1768h350v-106h-208l-2 -1556h208v-106h-347z" />
    <glyph glyph-name="backslash" unicode="\" horiz-adv-x="685" 
d="M526 -88l-498 1534h127l500 -1534h-129z" />
    <glyph glyph-name="bracketright" unicode="]" horiz-adv-x="588" 
d="M52 -322v106h208l-2 1556h-208v106h350l-1 -1768h-347z" />
    <glyph glyph-name="asciicircum" unicode="^" horiz-adv-x="940" 
d="M705 260l-240 604l-241 -601h-129l294 719q18 45 46.5 61.5t57.5 2t49 -62.5l296 -723h-133z" />
    <glyph glyph-name="underscore" unicode="_" horiz-adv-x="1016" 
d="M125 -226v126l763 2v-127z" />
    <glyph glyph-name="grave" unicode="`" horiz-adv-x="412" 
d="M278 1155l-268 291h186l206 -291h-124z" />
    <glyph glyph-name="a" unicode="a" horiz-adv-x="1099" 
d="M446 -20q-101 0 -177.5 35.5t-119 101.5t-42.5 159q0 172 118 255t381 90l199 6v86q0 101 -61 161.5t-189 59.5q-96 0 -166.5 -44.5t-89.5 -142.5h-142q6 97 54.5 165.5t137.5 105t213 36.5q129 0 216.5 -37.5t132.5 -112t45 -184.5v-720h-134l-11 199
q-62 -123 -157.5 -171t-207.5 -48zM490 97q55 0 111 20t102 55t74 78t28 88v184l-166 -3q-131 -2 -215 -26t-124 -73.5t-40 -129.5q0 -91 64 -142t166 -51z" />
    <glyph glyph-name="b" unicode="b" horiz-adv-x="1187" 
d="M654 -20q-95 0 -159.5 25.5t-104.5 63.5t-61 77t-30 66l-16 -212h-123v1486h158v-622q11 23 37 55t68 63t102 51.5t139 20.5q194 0 310 -134t116 -399q0 -163 -48.5 -284.5t-145 -189t-242.5 -67.5zM629 104q135 0 218.5 103t83.5 324q0 186 -77 292t-229 106
q-111 0 -178 -47.5t-97.5 -136.5t-31.5 -214q0 -226 71 -326.5t240 -100.5z" />
    <glyph glyph-name="c" unicode="c" horiz-adv-x="1085" 
d="M567 -20q-138 0 -244 60t-165.5 179t-59.5 295q0 161 53.5 282.5t158.5 189.5t257 68q106 0 193 -40t144.5 -114.5t72.5 -179.5h-142q-10 58 -45 104.5t-91.5 73.5t-130.5 27q-141 0 -230 -100.5t-89 -309.5q0 -187 80.5 -299.5t240.5 -112.5q73 0 129.5 27.5t91.5 74
t45 102.5h140q-15 -102 -72.5 -175.5t-144.5 -112.5t-192 -39z" />
    <glyph glyph-name="d" unicode="d" horiz-adv-x="1187" 
d="M533 -20q-199 0 -317 136.5t-118 404.5q0 161 47 280.5t141.5 186t236.5 66.5q79 0 139 -20.5t102.5 -51.5t68 -63t37.5 -55v622h157v-1486h-123l-16 212q-9 -27 -30 -66t-61 -77t-104.5 -63.5t-159.5 -25.5zM558 104q169 0 240.5 100.5t71.5 326.5q-2 125 -32.5 214
t-97 136.5t-178.5 47.5q-136 0 -221 -96t-85 -302q0 -200 76 -313.5t226 -113.5z" />
    <glyph glyph-name="e" unicode="e" horiz-adv-x="1128" 
d="M588 -20q-142 0 -250.5 62.5t-169.5 180.5t-61 284q0 165 55 288.5t160 191t253 67.5q143 0 242 -61.5t151 -175.5t52 -272v-64h-753q-1 -104 33.5 -189t105.5 -136t179 -51q106 0 182 49.5t95 140.5h150q-19 -104 -83 -174t-153.5 -105.5t-187.5 -35.5zM268 592h600
q0 96 -32 173t-97.5 122t-165.5 45q-105 0 -173 -50.5t-100.5 -128.5t-31.5 -161z" />
    <glyph glyph-name="f" unicode="f" horiz-adv-x="792" 
d="M304 0v917h-226v117h226v164q0 122 59.5 185t183.5 63h183v-114h-159q-66 0 -89.5 -35.5t-23.5 -106.5v-156h262v-117h-260v-917h-156z" />
    <glyph glyph-name="g" unicode="g" horiz-adv-x="1242" 
d="M587 -342q-235 0 -369 70.5t-134 206.5q0 57 25.5 97.5t61.5 67.5t66.5 43.5t40.5 24.5q-18 11 -41.5 25.5t-41.5 38t-18 60.5q0 47 44.5 86.5t130.5 59.5q-88 46 -138.5 120.5t-50.5 163.5q0 100 51.5 174t150 114t237.5 40q100 0 168.5 -23.5t128.5 -68.5q14 7 48 21
t75 30.5t76 31.5t54 23l-1 -156l-182 -36q17 -34 27.5 -73.5t10.5 -75.5q0 -92 -46.5 -165.5t-140 -115.5t-234.5 -42h-25.5t-25.5 1q-120 -3 -164 -26.5t-44 -49.5q0 -30 45 -42.5t157 -20.5q40 -2 97.5 -5t129.5 -8q155 -9 241.5 -80t86.5 -196q0 -139 -122.5 -227
t-374.5 -88zM615 -235q149 0 232 46.5t83 141.5q0 66 -48.5 108.5t-148.5 49.5l-305 19q-37 2 -81 -20.5t-75.5 -63.5t-31.5 -93q0 -88 92 -138t283 -50zM590 506q120 0 193.5 54t73.5 162q0 111 -73.5 168t-193.5 57q-122 0 -196.5 -57.5t-74.5 -167.5q0 -103 71 -159.5
t200 -56.5z" />
    <glyph glyph-name="h" unicode="h" horiz-adv-x="1145" 
d="M160 0v1486h151v-604q27 44 72.5 82t110 61.5t147.5 23.5q102 0 183.5 -37t129.5 -105t48 -160v-747h-156v712q0 98 -67 152.5t-177 54.5q-75 0 -140.5 -24.5t-105.5 -73t-40 -123.5v-698h-156z" />
    <glyph glyph-name="i" unicode="i" horiz-adv-x="484" 
d="M167 0v1034h152v-1034h-152zM160 1273v172h164v-172h-164z" />
    <glyph glyph-name="j" unicode="j" horiz-adv-x="511" 
d="M79 -332q-86 0 -107 11l-21 11l-1 104l108 4q72 5 101.5 38t29.5 111v1087h156v-1095q0 -138 -57.5 -204.5t-208.5 -66.5zM182 1273v172h169v-172h-169z" />
    <glyph glyph-name="k" unicode="k" horiz-adv-x="1113" 
d="M160 0v1486h155v-993l515 541h184l-372 -389l401 -645h-169l-336 539l-223 -229v-310h-155z" />
    <glyph glyph-name="l" unicode="l" horiz-adv-x="592" 
d="M402 -11q-74 0 -121.5 21.5t-74 59.5t-36.5 87t-10 103v1226h154v-1213q0 -85 32 -124.5t84 -42.5l58 -1v-102q-22 -7 -45 -10.5t-41 -3.5z" />
    <glyph glyph-name="m" unicode="m" horiz-adv-x="1713" 
d="M160 0v1034h150v-151q41 69 114.5 120t193.5 51q58 0 117 -19t108 -57t75 -94q48 78 130 124t186 46q54 0 112.5 -16t109.5 -56.5t82.5 -115t31.5 -191.5v-675h-156v661q0 103 -32 158.5t-83 77.5t-109 22q-52 0 -109.5 -19.5t-98 -67.5t-40.5 -133v-699h-156v723
q0 65 -34.5 108.5t-85.5 65.5t-102 22q-56 0 -113.5 -22t-96 -71t-38.5 -127v-699h-156z" />
    <glyph glyph-name="n" unicode="n" horiz-adv-x="1145" 
d="M160 0v1034h150v-151q26 45 71.5 83t111 61t147.5 23q100 0 182.5 -39.5t131.5 -122.5t49 -213v-675h-156v661q0 132 -67 195t-177 63q-75 0 -141 -24t-106 -73t-40 -123v-699h-156z" />
    <glyph glyph-name="o" unicode="o" horiz-adv-x="1125" 
d="M565 -20q-141 0 -246 60.5t-163 179.5t-58 293q0 162 53 284t157.5 189.5t256.5 67.5q140 0 244 -61.5t161.5 -182t57.5 -297.5q0 -158 -52.5 -278t-155 -187.5t-255.5 -67.5zM565 106q97 0 166 48t105 140t36 223q0 118 -31.5 211t-99.5 146.5t-176 53.5
q-98 0 -168 -47.5t-106.5 -139.5t-36.5 -224q0 -118 32 -210.5t101 -146.5t178 -54z" />
    <glyph glyph-name="p" unicode="p" horiz-adv-x="1185" 
d="M160 -322v1356h155l3 -189q15 31 42.5 67t69.5 68.5t99.5 53t132.5 20.5q126 0 222 -56t149.5 -172t53.5 -294q0 -174 -50.5 -297.5t-147.5 -189t-237 -65.5q-75 0 -131 21t-96 55t-66 70.5t-42 69.5v-518h-157zM626 105q137 0 222.5 103t85.5 318q0 184 -77.5 293.5
t-230.5 109.5q-152 0 -231.5 -111t-79.5 -292q0 -118 35.5 -213.5t104.5 -151.5t171 -56z" />
    <glyph glyph-name="q" unicode="q" horiz-adv-x="1185" 
d="M868 -322v518q-16 -33 -42 -69.5t-66 -70.5t-96 -55t-131 -21q-126 0 -224.5 58.5t-154.5 180.5t-56 313q0 163 48 280t143 179.5t234 62.5q75 0 132.5 -20.5t99.5 -53t69.5 -68.5t42.5 -67l3 189h155v-1356h-157zM559 105q102 0 171 56t104.5 151.5t35.5 213.5
q0 181 -79 292t-232 111q-136 0 -222 -99.5t-86 -303.5q0 -194 78 -307.5t230 -113.5z" />
    <glyph glyph-name="r" unicode="r" horiz-adv-x="770" 
d="M160 0v1034h148v-187q26 73 73.5 118.5t107 67t120.5 21.5q25 0 49 -3.5t38 -11.5v-152q-16 8 -42.5 11t-44.5 3q-55 3 -107 -8t-94.5 -39t-67 -75t-24.5 -115v-664h-156z" />
    <glyph glyph-name="s" unicode="s" horiz-adv-x="1001" 
d="M521 -20q-108 0 -198.5 33.5t-149.5 103t-73 177.5h145q13 -62 50.5 -105t95 -65.5t129.5 -22.5q110 0 177.5 42.5t67.5 130.5q0 61 -34.5 98t-105.5 54l-222 57q-122 31 -194.5 93.5t-72.5 174.5q0 89 42.5 157t127.5 107t213 39q162 0 262.5 -73t105.5 -218h-141
q-10 79 -68.5 125.5t-159.5 46.5q-105 0 -171 -43t-66 -133q0 -60 45.5 -93.5t131.5 -55.5l218 -57q68 -18 112.5 -47.5t71 -66t37.5 -77.5t11 -79q0 -93 -44.5 -161t-131 -105t-211.5 -37z" />
    <glyph glyph-name="t" unicode="t" horiz-adv-x="764" 
d="M521 -4q-99 0 -153.5 28t-76.5 83t-22 138v672h-168v117h172l37 298h116v-297h234v-118h-234v-667q0 -60 11.5 -87.5t41 -35t82.5 -7.5h106v-108q-19 -7 -56.5 -11.5t-89.5 -4.5z" />
    <glyph glyph-name="u" unicode="u" horiz-adv-x="1153" 
d="M540 -20q-83 1 -155 23.5t-126.5 67t-85 111t-30.5 154.5v698h156v-684q0 -109 66 -176.5t203 -67.5q122 0 196 63.5t74 192.5v672h155v-1034h-126l-16 196q-18 -74 -62.5 -122t-108 -71.5t-140.5 -22.5z" />
    <glyph glyph-name="v" unicode="v" horiz-adv-x="1000" 
d="M423 0l-370 1034h150l287 -841h20l291 841h147l-368 -1034h-157z" />
    <glyph glyph-name="w" unicode="w" horiz-adv-x="1555" 
d="M374 0l-315 1034h147l248 -836h18l244 836h121l256 -834h19l236 834h149l-307 -1034h-168l-247 801l-233 -801h-168z" />
    <glyph glyph-name="x" unicode="x" horiz-adv-x="1116" 
d="M70 0l399 537l-367 497h173l283 -383l284 383h174l-369 -497l399 -537h-173l-315 424l-314 -424h-174z" />
    <glyph glyph-name="y" unicode="y" horiz-adv-x="1055" 
d="M248 -330q-87 0 -118.5 11.5l-31.5 11.5v102l107 -1q55 -2 92 8t60.5 27.5t37 39t21.5 42.5l41 109l-404 1014h159l321 -832l317 832h152l-440 -1131q-36 -90 -83 -140.5t-105 -71.5t-126 -21z" />
    <glyph glyph-name="z" unicode="z" horiz-adv-x="953" 
d="M80 0v103l604 814h-579v117h762v-102l-602 -814h608v-118h-793z" />
    <glyph glyph-name="braceleft" unicode="{" horiz-adv-x="625" 
d="M489 -322q-78 0 -133.5 25t-85 70.5t-29.5 106.5v439q0 47 -24.5 92t-74.5 74t-127 29v102q116 2 171 59.5t55 145.5v429q0 60 31 104t86 68t128 24h89v-106h-68q-49 0 -76 -11.5t-37.5 -34.5t-10.5 -56v-433q-1 -76 -28 -126t-71.5 -75.5t-93.5 -30.5q-12 -1 -12.5 -6.5
t12.5 -7.5q48 -4 92.5 -27.5t72 -73t28.5 -130.5v-437q0 -55 26.5 -81t99.5 -26h66v-106h-86z" />
    <glyph glyph-name="bar" unicode="|" horiz-adv-x="524" 
d="M200 -322l-1 1974h126v-1974h-125z" />
    <glyph glyph-name="braceright" unicode="}" horiz-adv-x="636" 
d="M41 -322v106h66q74 0 100 26t26 81v437q0 81 28 130.5t72 73t93 27.5q14 2 13 7.5t-13 6.5q-50 5 -93.5 30.5t-71.5 75.5t-28 126v433q0 33 -10.5 56t-37.5 34.5t-76 11.5h-68v106h89q73 0 128 -24t86 -68t31 -104v-429q0 -88 54.5 -145.5t171.5 -59.5v-102
q-77 0 -127 -29t-74.5 -74t-24.5 -92v-439q0 -61 -30 -106.5t-85.5 -70.5t-132.5 -25h-86z" />
    <glyph glyph-name="asciitilde" unicode="~" horiz-adv-x="1112" 
d="M163 618l-45 94q51 50 110 87.5t147 37.5q56 0 102 -15.5t88.5 -35t86 -34.5t93.5 -15q76 0 121.5 32.5t75.5 70.5l48 -96q-32 -49 -93.5 -84t-150.5 -35q-59 0 -105 15t-87 35t-82.5 35t-93.5 15q-76 0 -126.5 -33.5t-88.5 -73.5z" />
    <glyph glyph-name="uni00A0" unicode="&#xa0;" horiz-adv-x="495" 
 />
    <glyph glyph-name="exclamdown" unicode="&#xa1;" horiz-adv-x="486" 
d="M145 -322l41 1009h107l42 -1009h-190zM143 823v211h192v-211h-192z" />
    <glyph glyph-name="cent" unicode="&#xa2;" horiz-adv-x="1075" 
d="M577 202q-138 0 -244 60t-165.5 179t-59.5 295q0 161 53.5 282.5t158.5 189.5t257 68q106 0 193 -40t144.5 -114.5t72.5 -179.5h-142q-10 58 -45 104.5t-91.5 73.5t-130.5 27q-141 0 -230 -100.5t-89 -309.5q0 -187 80.5 -299.5t240.5 -112.5q73 0 129.5 27.5t91.5 74
t45 102.5h140q-15 -102 -72.5 -175.5t-144.5 -112.5t-192 -39zM511 0v273h121v-273h-121zM511 1174v272h121v-272h-121z" />
    <glyph glyph-name="sterling" unicode="&#xa3;" horiz-adv-x="1207" 
d="M28 0v137h77q76 0 129.5 70t53.5 222q0 52 -5.5 113t-18.5 149h-202v106h183l-32 161q-26 119 -3 212.5t81.5 160t141.5 101t178 34.5q91 0 170.5 -30t137.5 -81t84 -113l-139 -52q-35 68 -89 103t-146 35q-71 0 -129.5 -28t-92.5 -80.5t-34 -128.5q0 -61 13.5 -139.5
t36.5 -153.5h330v-106h-316q12 -71 16 -125t0 -109q-2 -94 -22.5 -157t-46.5 -102t-47 -60h369q104 0 167.5 36t98.5 127l135 -38q-46 -132 -145 -198t-248 -66h-686z" />
    <glyph glyph-name="currency" unicode="&#xa4;" horiz-adv-x="1058" 
d="M190 312l-80 85l116 114q-34 48 -51 101.5t-17 115.5q0 113 60 201q9 15 -2 26l-104 106l81 81l116 -119q45 34 101 52t113 18q114 0 202 -62q15 -8 25 2l107 107l80 -82l-117 -117q33 -46 51 -100t18 -113q0 -55 -15 -107t-46 -94q-8 -14 2 -23l108 -104l-80 -82
l-116 115q-47 -34 -102 -53.5t-114 -19.5q-114 0 -205 61q-15 11 -26 -2zM527 485q69 0 124 34t86.5 89t31.5 120q0 64 -31.5 119t-86.5 89.5t-124 34.5t-124 -34.5t-87 -89.5t-32 -119q0 -65 32 -120t87 -89t124 -34z" />
    <glyph glyph-name="yen" unicode="&#xa5;" horiz-adv-x="1197" 
d="M515 0v605l-500 841h203l397 -684l398 684h169l-489 -808v-638h-178zM208 278v104l792 2v-105zM208 566v105l792 1v-105z" />
    <glyph glyph-name="brokenbar" unicode="&#xa6;" horiz-adv-x="524" 
d="M200 854l-1 798h126v-798h-125zM200 -322l-1 798h126v-798h-125z" />
    <glyph glyph-name="section" unicode="&#xa7;" horiz-adv-x="969" 
d="M501 -140q-94 0 -177.5 29.5t-147.5 81.5t-98 120l106 58q47 -75 128.5 -125t190.5 -50q100 0 166 39.5t66 113.5q0 53 -42.5 100t-161.5 94l-176 68q-135 52 -193.5 122t-58.5 164q0 92 57.5 158.5t144.5 100.5q-81 42 -123.5 84t-58 85.5t-15.5 90.5q0 77 45.5 138.5
t128 97.5t193.5 36q88 0 161.5 -28t128.5 -73.5t88 -97.5l-107 -59q-47 60 -112 102t-149 42q-108 0 -168.5 -40t-60.5 -106q0 -45 36 -87.5t131 -81.5l169 -68q154 -62 220.5 -139.5t66.5 -178.5q0 -100 -54.5 -159t-127.5 -96q90 -51 138.5 -111.5t48.5 -143.5
q0 -81 -47 -144.5t-133 -100t-203 -36.5zM547 462q51 -4 94.5 18.5t69.5 61.5t25 87q-1 63 -35 110t-140 89l-114 45q-56 -5 -102.5 -31t-74 -65.5t-27.5 -82.5q0 -56 35 -94.5t145 -84.5z" />
    <glyph glyph-name="dieresis" unicode="&#xa8;" horiz-adv-x="545" 
d="M378 1283l1 163h156l-1 -163h-156zM10 1283l1 163h156l-1 -163h-156z" />
    <glyph glyph-name="copyright" unicode="&#xa9;" horiz-adv-x="1626" 
d="M811 -20q-154 0 -289 57.5t-237 159.5t-159.5 237t-57.5 290q0 153 57.5 287.5t159.5 236.5t237 160t289 58q153 0 287.5 -58t237 -160t160.5 -236.5t58 -287.5q0 -155 -58 -290t-160.5 -237t-237 -159.5t-287.5 -57.5zM816 311q-113 0 -198.5 52.5t-133 146t-47.5 217.5
t48.5 218.5t134 148t196.5 53.5q80 0 141.5 -29.5t107 -78t76.5 -104.5l-119 -35q-37 66 -86 104.5t-114 38.5q-108 0 -176.5 -84t-68.5 -228q0 -147 69.5 -231.5t178.5 -84.5q77 0 134.5 43.5t93.5 111.5l92 -37q-22 -43 -54 -83t-73 -71t-91.5 -49.5t-110.5 -18.5zM811 94
q127 0 239 44.5t198.5 127t135.5 198.5t49 260q0 142 -49 258t-135.5 199.5t-198.5 128.5t-239 45q-130 0 -243 -45t-198.5 -128.5t-133.5 -199.5t-48 -258q0 -144 48 -260t133.5 -198.5t198.5 -127t243 -44.5z" />
    <glyph glyph-name="ordfeminine" unicode="&#xaa;" horiz-adv-x="820" 
d="M325 792q-104 0 -161 48t-57 132q0 94 83 149t238 67l119 10v48q0 69 -41.5 99.5t-111.5 30.5q-55 0 -96 -20.5t-76 -77.5l-98 29q35 74 103.5 114.5t173.5 40.5q130 -1 193 -59t63 -159v-136v-95q0 -17 1 -40t2.5 -47.5t4.5 -46.5l12 -75h-115l-17 89
q-53 -52 -104 -76.5t-116 -24.5zM360 874q80 0 137 53q24 21 37 41.5t13 44.5v109l-99 -8q-113 -7 -169 -43t-56 -94q0 -47 38 -75t99 -28z" />
    <glyph glyph-name="guillemotleft" unicode="&#xab;" horiz-adv-x="885" 
d="M689 144l-268 358l269 375h93l-212 -375l209 -358h-91zM343 144l-268 358l269 375h93l-212 -375l209 -358h-91z" />
    <glyph glyph-name="logicalnot" unicode="&#xac;" horiz-adv-x="1091" 
d="M125 664v124l841 2v-125zM834 382l-1 372h133v-372h-132z" />
    <glyph glyph-name="uni00AD" unicode="&#xad;" horiz-adv-x="747" 
d="M125 453v127l497 1v-127z" />
    <glyph glyph-name="registered" unicode="&#xae;" horiz-adv-x="1070" 
d="M534 536q-130 0 -235.5 62t-168 167.5t-62.5 234.5t62.5 235t168 168.5t235.5 62.5q128 0 233.5 -62.5t168 -168.5t62.5 -235t-62.5 -234.5t-168 -167.5t-233.5 -62zM533 622q111 0 195 46.5t131.5 131.5t47.5 200t-47.5 200.5t-131.5 133t-195 47.5t-196 -47.5
t-132 -133t-47 -200.5q0 -116 47 -200.5t132 -131t196 -46.5zM357 767v461h206q74 0 115 -29t41 -87q0 -54 -31 -82.5t-67 -41.5l89 -221h-85l-79 214h-110v-214h-79zM436 1046h116q35 0 60 12.5t25 46.5q0 24 -18.5 42t-72.5 18h-110v-119z" />
    <glyph glyph-name="macron" unicode="&#xaf;" horiz-adv-x="621" 
d="M24 1243v115h568v-115h-568z" />
    <glyph glyph-name="degree" unicode="&#xb0;" horiz-adv-x="920" 
d="M458 1057q-90 0 -159.5 39t-109 108.5t-39.5 159.5t39.5 160t109 110t159.5 40q88 0 157.5 -40t109.5 -110t40 -160t-40 -159.5t-109.5 -108.5t-157.5 -39zM456 1161q89 0 140.5 56t51.5 145t-52 145t-142 56q-88 0 -140.5 -56t-51.5 -145q2 -89 53.5 -145t140.5 -56z
" />
    <glyph glyph-name="plusminus" unicode="&#xb1;" horiz-adv-x="1091" 
d="M125 129v124l841 2v-124zM608 937l358 1v-124l-358 -1v-357h-123l-1 357l-359 -1v125h359v360h124v-360z" />
    <glyph glyph-name="uni00B2" unicode="&#xb2;" horiz-adv-x="720" 
d="M67 747v69v34q0 82 34.5 138.5t89 97.5t116 74t116 67.5t89 79t34.5 106.5q0 72 -50.5 116t-135.5 44q-89 0 -146 -50t-62 -140h-105q0 78 36.5 142.5t107.5 104t174 39.5q133 0 212 -70.5t79 -185.5q0 -82 -34 -138t-88 -96t-114.5 -72t-114.5 -65t-88 -76.5t-34 -106.5
v-16h480v-96h-596z" />
    <glyph glyph-name="uni00B3" unicode="&#xb3;" horiz-adv-x="790" 
d="M381 736q-139 2 -225.5 77.5t-89.5 195.5h106q12 -86 70 -132.5t143 -46.5q103 0 164.5 46.5t61.5 121.5q0 81 -64 129t-174 49l-82 1v92l79 2q60 0 109 22.5t78 59t29 80.5q0 57 -51.5 100.5t-148.5 43.5q-49 0 -95 -20t-76 -61t-30 -105h-106q0 84 40 146.5t109.5 97
t157.5 34.5q93 0 163 -28t109.5 -80t39.5 -125q0 -68 -42 -121.5t-124 -84.5q88 -26 140.5 -84.5t52.5 -146.5q0 -82 -45 -141.5t-122.5 -91t-176.5 -30.5z" />
    <glyph glyph-name="acute" unicode="&#xb4;" horiz-adv-x="412" 
d="M10 1155l206 291h186l-268 -291h-124z" />
    <glyph glyph-name="uni00B5" unicode="&#xb5;" horiz-adv-x="1161" 
d="M143 -330v1390h159v-740q0 -51 29.5 -94.5t79 -69.5t109.5 -26q87 0 166.5 50.5t153.5 135.5v744h161l-2 -1060h-153v164q-98 -82 -169 -119t-151 -40q-64 -3 -119.5 12t-104.5 56v-403h-159z" />
    <glyph glyph-name="paragraph" unicode="&#xb6;" horiz-adv-x="1097" 
d="M521 -166v760q-131 3 -226 59.5t-146 149.5t-51 205q0 111 50.5 211.5t152.5 163.5t254 63h399v-99h-120v-1513h-108v1513h-97v-1513h-108z" />
    <glyph glyph-name="periodcentered" unicode="&#xb7;" horiz-adv-x="443" 
d="M113 628v202h210v-202h-210z" />
    <glyph glyph-name="cedilla" unicode="&#xb8;" horiz-adv-x="439" 
d="M200 -408q-51 0 -95.5 12t-83.5 37l29 72q24 -19 56 -32.5t76 -13.5q57 0 83.5 20t26.5 56q0 44 -37 65.5t-120 23.5q-9 0 -11 3t0 9l73 166h89l-48 -121q66 -4 103.5 -26t53.5 -54t16 -65q0 -50 -29 -83.5t-77 -51t-105 -17.5z" />
    <glyph glyph-name="uni00B9" unicode="&#xb9;" horiz-adv-x="470" 
d="M225 744v729h-178v77q119 -1 162 22.5t45 81.5h80v-910h-109z" />
    <glyph glyph-name="ordmasculine" unicode="&#xba;" horiz-adv-x="814" 
d="M406 795q-97 0 -166 42.5t-105.5 117.5t-36.5 172q0 101 38 177t107.5 118.5t162.5 42.5q96 0 165.5 -43t107 -119t37.5 -176q0 -97 -36.5 -172t-106 -117.5t-167.5 -42.5zM406 882q94 0 142 67t48 183q0 112 -48 178t-142 66q-93 0 -140 -66t-47 -178q0 -116 47 -183
t140 -67z" />
    <glyph glyph-name="guillemotright" unicode="&#xbb;" horiz-adv-x="940" 
d="M472 144l210 358l-213 375h92l269 -375l-268 -358h-90zM127 144l209 358l-212 375h91l269 -375l-267 -358h-90z" />
    <glyph glyph-name="onequarter" unicode="&#xbc;" horiz-adv-x="1562" 
d="M225 536v729h-178v77q119 -1 162 22.5t45 81.5h80v-910h-109zM318 -8l-113 1l977 1469h108zM1260 2v238h-426v98l423 573h107v-576h152v-95h-152v-238h-104zM939 335h319v428z" />
    <glyph glyph-name="onehalf" unicode="&#xbd;" horiz-adv-x="1714" 
d="M225 536v729h-178v77q119 -1 162 22.5t45 81.5h80v-910h-109zM318 -8l-113 1l977 1469h108zM1061 -1v69v34q0 82 34.5 138.5t89 97.5t116 74t116 67.5t89 79t34.5 106.5q0 72 -50.5 116t-135.5 44q-89 0 -146 -50t-62 -140h-105q0 78 36.5 142.5t107.5 104t174 39.5
q133 0 212 -70.5t79 -185.5q0 -82 -34 -138t-88 -96t-114.5 -72t-114.5 -65t-88 -76.5t-34 -106.5v-16h480v-96h-596z" />
    <glyph glyph-name="threequarters" unicode="&#xbe;" horiz-adv-x="1815" 
d="M381 526q-139 2 -225.5 77.5t-89.5 195.5h106q12 -86 70 -132.5t143 -46.5q103 0 164.5 46.5t61.5 121.5q0 81 -64 129t-174 49l-82 1v92l79 2q60 0 109 22.5t78 59t29 80.5q0 57 -51.5 100.5t-148.5 43.5q-49 0 -95 -20t-76 -61t-30 -105h-106q0 84 40 146.5t109.5 97
t157.5 34.5q93 0 163 -28t109.5 -80t39.5 -125q0 -68 -42 -121.5t-124 -84.5q88 -26 140.5 -84.5t52.5 -146.5q0 -82 -45 -141.5t-122.5 -91t-176.5 -30.5zM570 -8l-113 1l977 1469h108zM1512 2v238h-426v98l423 573h107v-576h152v-95h-152v-238h-104zM1191 335h319v428z
" />
    <glyph glyph-name="questiondown" unicode="&#xbf;" horiz-adv-x="1022" 
d="M498 -342q-138 0 -235 45t-148.5 124t-51.5 182q0 83 29 142t74.5 105t97 88t97 89.5t75 108.5t29.5 147h138q0 -96 -27.5 -165.5t-70.5 -121t-91.5 -94.5t-91.5 -85t-70 -92t-27 -116q0 -105 75.5 -167t198.5 -62q68 0 134 26.5t116.5 71.5t72.5 100l142 -47
q-63 -130 -186.5 -204.5t-279.5 -74.5zM437 823v211h194v-211h-194z" />
    <glyph glyph-name="Agrave" unicode="&#xc0;" horiz-adv-x="1412" 
d="M90 0l525 1446h183l524 -1446h-161l-149 412h-612l-150 -412h-160zM444 560h523l-262 732zM651 1567l-268 291h186l206 -291h-124z" />
    <glyph glyph-name="Aacute" unicode="&#xc1;" horiz-adv-x="1412" 
d="M90 0l525 1446h183l524 -1446h-161l-149 412h-612l-150 -412h-160zM444 560h523l-262 732zM633 1567l206 291h186l-268 -291h-124z" />
    <glyph glyph-name="Acircumflex" unicode="&#xc2;" horiz-adv-x="1412" 
d="M90 0l525 1446h183l524 -1446h-161l-149 412h-612l-150 -412h-160zM444 560h523l-262 732zM403 1567l247 215h114l243 -215h-160l-142 127l-152 -127h-150z" />
    <glyph glyph-name="Atilde" unicode="&#xc3;" horiz-adv-x="1412" 
d="M90 0l525 1446h183l524 -1446h-161l-149 412h-612l-150 -412h-160zM444 560h523l-262 732zM451 1639l-31 98q32 29 68.5 49.5t90.5 20.5q47 0 88.5 -13.5t82 -27t84.5 -13.5q43 0 73 15t60 37l31 -108q-25 -17 -64 -35.5t-101 -18.5q-53 0 -91.5 12.5t-74.5 25t-80 12.5
q-49 0 -78 -16.5t-58 -37.5z" />
    <glyph glyph-name="Adieresis" unicode="&#xc4;" horiz-adv-x="1412" 
d="M90 0l525 1446h183l524 -1446h-161l-149 412h-612l-150 -412h-160zM444 560h523l-262 732zM812 1695l1 163h156l-1 -163h-156zM444 1695l1 163h156l-1 -163h-156z" />
    <glyph glyph-name="Aring" unicode="&#xc5;" horiz-adv-x="1412" 
d="M90 0l525 1446h183l524 -1446h-161l-149 412h-612l-150 -412h-160zM444 560h523l-262 732zM707 1571q-85 0 -144 59.5t-59 147.5q0 81 60 138.5t143 57.5q57 0 103 -27t73.5 -72t27.5 -101q0 -86 -59 -144.5t-145 -58.5zM705 1662q45 0 76.5 33.5t31.5 77.5
q0 48 -31.5 78.5t-76.5 30.5q-44 0 -77 -30.5t-33 -78.5q0 -44 33 -77.5t77 -33.5z" />
    <glyph glyph-name="AE" unicode="&#xc6;" horiz-adv-x="1913" 
d="M0 0l807 1446h957l-1 -138h-690v-509h624v-137h-624v-523h716v-139h-893v418h-502l-234 -418h-160zM458 560h438v768z" />
    <glyph glyph-name="Ccedilla" unicode="&#xc7;" horiz-adv-x="1361" 
d="M683 -408q-51 0 -95.5 12t-83.5 37l28 72q25 -19 56.5 -32.5t76.5 -13.5q57 0 83.5 20t26.5 56q0 44 -37 65.5t-120 23.5q-9 0 -11.5 3t0.5 9l72 166h89l-48 -121q67 -4 104.5 -26t53 -54t15.5 -65q0 -50 -29 -83.5t-76.5 -51t-104.5 -17.5zM715 -20q-193 0 -327.5 87.5
t-205.5 254t-71 404.5t70.5 403t205.5 251t328 86q150 0 266 -63t186 -167t83 -226h-168q-17 87 -63.5 159t-123.5 115t-183 43q-140 0 -235.5 -65t-144 -198.5t-48.5 -339.5q0 -310 108.5 -457t319.5 -147q106 0 183 44.5t123.5 118t63.5 160.5h168q-11 -89 -49.5 -172.5
t-105 -149t-162 -103.5t-218.5 -38z" />
    <glyph glyph-name="Egrave" unicode="&#xc8;" horiz-adv-x="1234" 
d="M199 0v1446h889v-140h-733v-506h666v-140h-666v-516l755 -1v-143h-911zM592 1567l-268 291h186l206 -291h-124z" />
    <glyph glyph-name="Eacute" unicode="&#xc9;" horiz-adv-x="1234" 
d="M199 0v1446h889v-140h-733v-506h666v-140h-666v-516l755 -1v-143h-911zM574 1567l206 291h186l-268 -291h-124z" />
    <glyph glyph-name="Ecircumflex" unicode="&#xca;" horiz-adv-x="1234" 
d="M199 0v1446h889v-140h-733v-506h666v-140h-666v-516l755 -1v-143h-911zM345 1567l247 215h114l243 -215h-160l-142 127l-152 -127h-150z" />
    <glyph glyph-name="Edieresis" unicode="&#xcb;" horiz-adv-x="1234" 
d="M199 0v1446h889v-140h-733v-506h666v-140h-666v-516l755 -1v-143h-911zM753 1695l1 163h156l-1 -163h-156zM385 1695l1 163h156l-1 -163h-156z" />
    <glyph glyph-name="Igrave" unicode="&#xcc;" horiz-adv-x="553" 
d="M199 0v1446h156v-1446h-156zM223 1567l-268 291h186l206 -291h-124z" />
    <glyph glyph-name="Iacute" unicode="&#xcd;" horiz-adv-x="553" 
d="M199 0v1446h156v-1446h-156zM204 1567l206 291h186l-268 -291h-124z" />
    <glyph glyph-name="Icircumflex" unicode="&#xce;" horiz-adv-x="553" 
d="M199 0v1446h156v-1446h-156zM-25 1567l247 215h114l243 -215h-160l-142 127l-152 -127h-150z" />
    <glyph glyph-name="Idieresis" unicode="&#xcf;" horiz-adv-x="553" 
d="M199 0v1446h156v-1446h-156zM384 1695l1 163h156l-1 -163h-156zM16 1695l1 163h156l-1 -163h-156z" />
    <glyph glyph-name="Eth" unicode="&#xd0;" horiz-adv-x="1391" 
d="M70 660v130h648v-130h-648zM217 0v1446q6 0 37.5 -0.5t77.5 0t98 0t97 -1.5q267 -3 432.5 -84t243 -238t77.5 -389q0 -244 -83.5 -407t-255.5 -244.5t-435 -81.5h-289zM379 138h125q194 0 330.5 57.5t208.5 187t72 345.5q0 220 -71 346.5t-205.5 180t-325.5 53.5h-134
v-1170z" />
    <glyph glyph-name="Ntilde" unicode="&#xd1;" horiz-adv-x="1493" 
d="M199 0v1446h146l793 -1169v1169h156v-1446h-139l-800 1180v-1180h-156zM491 1639l-31 98q32 29 68.5 49.5t90.5 20.5q47 0 88.5 -13.5t82 -27t84.5 -13.5q43 0 73 15t60 37l31 -108q-25 -17 -64 -35.5t-101 -18.5q-53 0 -91.5 12.5t-74.5 25t-80 12.5q-49 0 -78 -16.5
t-58 -37.5z" />
    <glyph glyph-name="Ograve" unicode="&#xd2;" horiz-adv-x="1453" 
d="M729 -20q-190 0 -328.5 86.5t-214 251.5t-75.5 402q0 239 75.5 405.5t214.5 253.5t328 87t326.5 -87t212 -253t74.5 -406q0 -237 -74 -402t-211.5 -251.5t-327.5 -86.5zM729 120q142 0 240.5 64t149.5 197t51 338q0 208 -52 342.5t-150.5 200t-238.5 65.5t-239.5 -66
t-152.5 -201t-53 -341t53 -338.5t152.5 -196.5t239.5 -64zM675 1567l-268 291h186l206 -291h-124z" />
    <glyph glyph-name="Oacute" unicode="&#xd3;" horiz-adv-x="1453" 
d="M729 -20q-190 0 -328.5 86.5t-214 251.5t-75.5 402q0 239 75.5 405.5t214.5 253.5t328 87t326.5 -87t212 -253t74.5 -406q0 -237 -74 -402t-211.5 -251.5t-327.5 -86.5zM729 120q142 0 240.5 64t149.5 197t51 338q0 208 -52 342.5t-150.5 200t-238.5 65.5t-239.5 -66
t-152.5 -201t-53 -341t53 -338.5t152.5 -196.5t239.5 -64zM657 1567l206 291h186l-268 -291h-124z" />
    <glyph glyph-name="Ocircumflex" unicode="&#xd4;" horiz-adv-x="1453" 
d="M729 -20q-190 0 -328.5 86.5t-214 251.5t-75.5 402q0 239 75.5 405.5t214.5 253.5t328 87t326.5 -87t212 -253t74.5 -406q0 -237 -74 -402t-211.5 -251.5t-327.5 -86.5zM729 120q142 0 240.5 64t149.5 197t51 338q0 208 -52 342.5t-150.5 200t-238.5 65.5t-239.5 -66
t-152.5 -201t-53 -341t53 -338.5t152.5 -196.5t239.5 -64zM428 1567l247 215h114l243 -215h-160l-142 127l-152 -127h-150z" />
    <glyph glyph-name="Otilde" unicode="&#xd5;" horiz-adv-x="1453" 
d="M729 -20q-190 0 -328.5 86.5t-214 251.5t-75.5 402q0 239 75.5 405.5t214.5 253.5t328 87t326.5 -87t212 -253t74.5 -406q0 -237 -74 -402t-211.5 -251.5t-327.5 -86.5zM729 120q142 0 240.5 64t149.5 197t51 338q0 208 -52 342.5t-150.5 200t-238.5 65.5t-239.5 -66
t-152.5 -201t-53 -341t53 -338.5t152.5 -196.5t239.5 -64zM475 1639l-31 98q32 29 68.5 49.5t90.5 20.5q47 0 88.5 -13.5t82 -27t84.5 -13.5q43 0 73 15t60 37l31 -108q-25 -17 -64 -35.5t-101 -18.5q-53 0 -91.5 12.5t-74.5 25t-80 12.5q-49 0 -78 -16.5t-58 -37.5z" />
    <glyph glyph-name="Odieresis" unicode="&#xd6;" horiz-adv-x="1453" 
d="M729 -20q-190 0 -328.5 86.5t-214 251.5t-75.5 402q0 239 75.5 405.5t214.5 253.5t328 87t326.5 -87t212 -253t74.5 -406q0 -237 -74 -402t-211.5 -251.5t-327.5 -86.5zM729 120q142 0 240.5 64t149.5 197t51 338q0 208 -52 342.5t-150.5 200t-238.5 65.5t-239.5 -66
t-152.5 -201t-53 -341t53 -338.5t152.5 -196.5t239.5 -64zM836 1695l1 163h156l-1 -163h-156zM468 1695l1 163h156l-1 -163h-156z" />
    <glyph glyph-name="multiply" unicode="&#xd7;" horiz-adv-x="1060" 
d="M216 323l-89 90l717 719l89 -88zM844 323l-719 718l89 88l720 -716z" />
    <glyph glyph-name="Oslash" unicode="&#xd8;" horiz-adv-x="1487" 
d="M152 -26l-92 88l172 191q-52 89 -79 205.5t-27 258.5q0 240 75 407t213 254.5t328 87.5q135 0 243 -44t187 -129l161 178l92 -87l-176 -196q53 -89 80 -207t27 -261q0 -237 -74 -402t-212.5 -251.5t-328.5 -86.5q-135 0 -243.5 43t-185.5 126zM744 119q203 0 306.5 134
t109.5 413q3 110 -9.5 204.5t-39.5 176.5l-689 -781q107 -147 322 -147zM369 396l691 781q-53 77 -132.5 114t-185.5 37q-204 0 -311 -139.5t-112 -424.5q-2 -108 10.5 -199.5t39.5 -168.5z" />
    <glyph glyph-name="Ugrave" unicode="&#xd9;" horiz-adv-x="1388" 
d="M713 -20q-181 0 -294.5 59.5t-166.5 177.5t-53 291v938h163v-967q0 -180 89.5 -270t261.5 -90q116 0 196 39.5t121.5 119.5t41.5 201v967h157v-960q0 -164 -54.5 -277t-168.5 -171t-293 -58zM661 1567l-268 291h186l206 -291h-124z" />
    <glyph glyph-name="Uacute" unicode="&#xda;" horiz-adv-x="1388" 
d="M713 -20q-181 0 -294.5 59.5t-166.5 177.5t-53 291v938h163v-967q0 -180 89.5 -270t261.5 -90q116 0 196 39.5t121.5 119.5t41.5 201v967h157v-960q0 -164 -54.5 -277t-168.5 -171t-293 -58zM643 1567l206 291h186l-268 -291h-124z" />
    <glyph glyph-name="Ucircumflex" unicode="&#xdb;" horiz-adv-x="1388" 
d="M713 -20q-181 0 -294.5 59.5t-166.5 177.5t-53 291v938h163v-967q0 -180 89.5 -270t261.5 -90q116 0 196 39.5t121.5 119.5t41.5 201v967h157v-960q0 -164 -54.5 -277t-168.5 -171t-293 -58zM414 1567l247 215h114l243 -215h-160l-142 127l-152 -127h-150z" />
    <glyph glyph-name="Udieresis" unicode="&#xdc;" horiz-adv-x="1388" 
d="M713 -20q-181 0 -294.5 59.5t-166.5 177.5t-53 291v938h163v-967q0 -180 89.5 -270t261.5 -90q116 0 196 39.5t121.5 119.5t41.5 201v967h157v-960q0 -164 -54.5 -277t-168.5 -171t-293 -58zM822 1695l1 163h156l-1 -163h-156zM454 1695l1 163h156l-1 -163h-156z" />
    <glyph glyph-name="Yacute" unicode="&#xdd;" horiz-adv-x="1182" 
d="M516 0v619l-491 827h171l398 -686l392 686h171l-486 -829v-617h-155zM530 1570l206 291h186l-268 -291h-124z" />
    <glyph glyph-name="Thorn" unicode="&#xde;" horiz-adv-x="1285" 
d="M199 0v1446h162v-302h336q156 0 276 -41.5t188 -128.5t68 -222q0 -146 -67.5 -238t-186 -135.5t-269.5 -43.5h-345v-335h-162zM361 474h340q108 0 190 27t128.5 88t46.5 163q0 94 -47 149.5t-131 79.5t-197 24h-330v-531z" />
    <glyph glyph-name="germandbls" unicode="&#xdf;" horiz-adv-x="1158" 
d="M679 -20q-72 0 -148 19t-127 51l60 108q43 -25 89 -43.5t113 -18.5q115 0 183.5 54t68.5 154q0 74 -36.5 118t-95 71t-125.5 50q-51 17 -100 41t-81.5 65.5t-32.5 110.5q0 75 43.5 123.5t131.5 97.5q39 23 76.5 47t62.5 58t25 87q0 72 -53 114.5t-151 42.5
q-118 0 -192 -71.5t-74 -214.5v-1044h-154l-2 1018q1 94 30 172.5t84.5 136t137 88.5t186.5 31q122 0 195.5 -38.5t107 -101t33.5 -132.5q0 -76 -31.5 -124.5t-84.5 -81t-118 -63.5q-67 -37 -95 -58.5t-28 -60.5q0 -38 26 -54.5t93 -37.5q55 -21 119 -47t121 -66.5
t93.5 -103.5t36.5 -158q0 -111 -51.5 -186.5t-139.5 -114t-196 -38.5z" />
    <glyph glyph-name="agrave" unicode="&#xe0;" horiz-adv-x="1099" 
d="M446 -20q-101 0 -177.5 35.5t-119 101.5t-42.5 159q0 172 118 255t381 90l199 6v86q0 101 -61 161.5t-189 59.5q-96 0 -166.5 -44.5t-89.5 -142.5h-142q6 97 54.5 165.5t137.5 105t213 36.5q129 0 216.5 -37.5t132.5 -112t45 -184.5v-720h-134l-11 199
q-62 -123 -157.5 -171t-207.5 -48zM490 97q55 0 111 20t102 55t74 78t28 88v184l-166 -3q-131 -2 -215 -26t-124 -73.5t-40 -129.5q0 -91 64 -142t166 -51zM508 1155l-268 291h186l206 -291h-124z" />
    <glyph glyph-name="aacute" unicode="&#xe1;" horiz-adv-x="1099" 
d="M446 -20q-101 0 -177.5 35.5t-119 101.5t-42.5 159q0 172 118 255t381 90l199 6v86q0 101 -61 161.5t-189 59.5q-96 0 -166.5 -44.5t-89.5 -142.5h-142q6 97 54.5 165.5t137.5 105t213 36.5q129 0 216.5 -37.5t132.5 -112t45 -184.5v-720h-134l-11 199
q-62 -123 -157.5 -171t-207.5 -48zM490 97q55 0 111 20t102 55t74 78t28 88v184l-166 -3q-131 -2 -215 -26t-124 -73.5t-40 -129.5q0 -91 64 -142t166 -51zM489 1155l206 291h186l-268 -291h-124z" />
    <glyph glyph-name="acircumflex" unicode="&#xe2;" horiz-adv-x="1099" 
d="M446 -20q-101 0 -177.5 35.5t-119 101.5t-42.5 159q0 172 118 255t381 90l199 6v86q0 101 -61 161.5t-189 59.5q-96 0 -166.5 -44.5t-89.5 -142.5h-142q6 97 54.5 165.5t137.5 105t213 36.5q129 0 216.5 -37.5t132.5 -112t45 -184.5v-720h-134l-11 199
q-62 -123 -157.5 -171t-207.5 -48zM490 97q55 0 111 20t102 55t74 78t28 88v184l-166 -3q-131 -2 -215 -26t-124 -73.5t-40 -129.5q0 -91 64 -142t166 -51zM260 1155l247 215h114l243 -215h-160l-142 127l-152 -127h-150z" />
    <glyph glyph-name="atilde" unicode="&#xe3;" horiz-adv-x="1099" 
d="M446 -20q-101 0 -177.5 35.5t-119 101.5t-42.5 159q0 172 118 255t381 90l199 6v86q0 101 -61 161.5t-189 59.5q-96 0 -166.5 -44.5t-89.5 -142.5h-142q6 97 54.5 165.5t137.5 105t213 36.5q129 0 216.5 -37.5t132.5 -112t45 -184.5v-720h-134l-11 199
q-62 -123 -157.5 -171t-207.5 -48zM490 97q55 0 111 20t102 55t74 78t28 88v184l-166 -3q-131 -2 -215 -26t-124 -73.5t-40 -129.5q0 -91 64 -142t166 -51zM308 1227l-31 98q32 29 68.5 49.5t90.5 20.5q47 0 88.5 -13.5t82 -27t84.5 -13.5q43 0 73 15t60 37l31 -108
q-25 -17 -64 -35.5t-101 -18.5q-53 0 -91.5 12.5t-74.5 25t-80 12.5q-49 0 -78 -16.5t-58 -37.5z" />
    <glyph glyph-name="adieresis" unicode="&#xe4;" horiz-adv-x="1099" 
d="M446 -20q-101 0 -177.5 35.5t-119 101.5t-42.5 159q0 172 118 255t381 90l199 6v86q0 101 -61 161.5t-189 59.5q-96 0 -166.5 -44.5t-89.5 -142.5h-142q6 97 54.5 165.5t137.5 105t213 36.5q129 0 216.5 -37.5t132.5 -112t45 -184.5v-720h-134l-11 199
q-62 -123 -157.5 -171t-207.5 -48zM490 97q55 0 111 20t102 55t74 78t28 88v184l-166 -3q-131 -2 -215 -26t-124 -73.5t-40 -129.5q0 -91 64 -142t166 -51zM669 1283l1 163h156l-1 -163h-156zM301 1283l1 163h156l-1 -163h-156z" />
    <glyph glyph-name="aring" unicode="&#xe5;" horiz-adv-x="1099" 
d="M446 -20q-101 0 -177.5 35.5t-119 101.5t-42.5 159q0 172 118 255t381 90l199 6v86q0 101 -61 161.5t-189 59.5q-96 0 -166.5 -44.5t-89.5 -142.5h-142q6 97 54.5 165.5t137.5 105t213 36.5q129 0 216.5 -37.5t132.5 -112t45 -184.5v-720h-134l-11 199
q-62 -123 -157.5 -171t-207.5 -48zM490 97q55 0 111 20t102 55t74 78t28 88v184l-166 -3q-131 -2 -215 -26t-124 -73.5t-40 -129.5q0 -91 64 -142t166 -51zM563 1159q-85 0 -144 59.5t-59 147.5q0 81 60 138.5t143 57.5q57 0 103 -27t73.5 -72t27.5 -101q0 -86 -59 -144.5
t-145 -58.5zM561 1250q45 0 76.5 33.5t31.5 77.5q0 48 -31.5 78.5t-76.5 30.5q-44 0 -77 -30.5t-33 -78.5q0 -44 33 -77.5t77 -33.5z" />
    <glyph glyph-name="ae" unicode="&#xe6;" horiz-adv-x="1828" 
d="M446 -20q-101 0 -177.5 35.5t-119 101.5t-42.5 159q0 172 118 255.5t381 89.5l200 6v86q0 106 -69 164t-182 57q-95 0 -166.5 -47t-89.5 -140h-142q5 85 54 155t138.5 111t212.5 41q131 0 223 -49.5t131 -138.5q56 90 147 139t212 49q143 0 242 -61.5t151 -175.5t52 -272
v-64h-753q0 -104 34 -189t105 -136t180 -51q105 0 181 49.5t95 140.5h150q-19 -104 -82.5 -174t-153 -105.5t-188.5 -35.5q-143 0 -252.5 65t-167.5 186q-22 -77 -85 -133t-150.5 -87t-186.5 -31zM490 97q95 0 165 44t108.5 108.5t38.5 125.5l-1 147l-162 -3
q-131 -2 -214.5 -26t-124 -73.5t-40.5 -129.5q0 -91 64 -142t166 -51zM968 592h600q0 96 -32 173t-97 122t-165 45q-106 0 -173.5 -50.5t-100.5 -128.5t-32 -161z" />
    <glyph glyph-name="ccedilla" unicode="&#xe7;" horiz-adv-x="1085" 
d="M531 -408q-51 0 -95.5 12t-83.5 37l29 72q25 -19 56.5 -32.5t75.5 -13.5q57 0 83.5 20t26.5 56q0 44 -37 65.5t-120 23.5q-9 0 -11 3t0 9l73 166h89l-48 -121q66 -4 104 -26t53.5 -54t15.5 -65q0 -50 -29 -83.5t-77 -51t-105 -17.5zM567 -20q-138 0 -244 60t-165.5 179
t-59.5 295q0 161 53.5 282.5t158.5 189.5t257 68q106 0 193 -40t144.5 -114.5t72.5 -179.5h-142q-10 58 -45 104.5t-91.5 73.5t-130.5 27q-141 0 -230 -100.5t-89 -309.5q0 -187 80.5 -299.5t240.5 -112.5q73 0 129.5 27.5t91.5 74t45 102.5h140q-15 -102 -72.5 -175.5
t-144.5 -112.5t-192 -39z" />
    <glyph glyph-name="egrave" unicode="&#xe8;" horiz-adv-x="1128" 
d="M588 -20q-142 0 -250.5 62.5t-169.5 180.5t-61 284q0 165 55 288.5t160 191t253 67.5q143 0 242 -61.5t151 -175.5t52 -272v-64h-753q-1 -104 33.5 -189t105.5 -136t179 -51q106 0 182 49.5t95 140.5h150q-19 -104 -83 -174t-153.5 -105.5t-187.5 -35.5zM268 592h600
q0 96 -32 173t-97.5 122t-165.5 45q-105 0 -173 -50.5t-100.5 -128.5t-31.5 -161zM520 1155l-268 291h186l206 -291h-124z" />
    <glyph glyph-name="eacute" unicode="&#xe9;" horiz-adv-x="1128" 
d="M588 -20q-142 0 -250.5 62.5t-169.5 180.5t-61 284q0 165 55 288.5t160 191t253 67.5q143 0 242 -61.5t151 -175.5t52 -272v-64h-753q-1 -104 33.5 -189t105.5 -136t179 -51q106 0 182 49.5t95 140.5h150q-19 -104 -83 -174t-153.5 -105.5t-187.5 -35.5zM268 592h600
q0 96 -32 173t-97.5 122t-165.5 45q-105 0 -173 -50.5t-100.5 -128.5t-31.5 -161zM502 1155l206 291h186l-268 -291h-124z" />
    <glyph glyph-name="ecircumflex" unicode="&#xea;" horiz-adv-x="1128" 
d="M588 -20q-142 0 -250.5 62.5t-169.5 180.5t-61 284q0 165 55 288.5t160 191t253 67.5q143 0 242 -61.5t151 -175.5t52 -272v-64h-753q-1 -104 33.5 -189t105.5 -136t179 -51q106 0 182 49.5t95 140.5h150q-19 -104 -83 -174t-153.5 -105.5t-187.5 -35.5zM268 592h600
q0 96 -32 173t-97.5 122t-165.5 45q-105 0 -173 -50.5t-100.5 -128.5t-31.5 -161zM273 1155l247 215h114l243 -215h-160l-142 127l-152 -127h-150z" />
    <glyph glyph-name="edieresis" unicode="&#xeb;" horiz-adv-x="1128" 
d="M588 -20q-142 0 -250.5 62.5t-169.5 180.5t-61 284q0 165 55 288.5t160 191t253 67.5q143 0 242 -61.5t151 -175.5t52 -272v-64h-753q-1 -104 33.5 -189t105.5 -136t179 -51q106 0 182 49.5t95 140.5h150q-19 -104 -83 -174t-153.5 -105.5t-187.5 -35.5zM268 592h600
q0 96 -32 173t-97.5 122t-165.5 45q-105 0 -173 -50.5t-100.5 -128.5t-31.5 -161zM681 1283l1 163h156l-1 -163h-156zM313 1283l1 163h156l-1 -163h-156z" />
    <glyph glyph-name="igrave" unicode="&#xec;" horiz-adv-x="471" 
d="M160 0v1034h151v-1034h-151zM181 1155l-201 291h180l136 -290z" />
    <glyph glyph-name="iacute" unicode="&#xed;" horiz-adv-x="471" 
d="M160 0v1034h151v-1034h-151zM292 1155l-115 1l136 290h180z" />
    <glyph glyph-name="icircumflex" unicode="&#xee;" horiz-adv-x="471" 
d="M160 0v1034h151v-1034h-151zM-66 1155l247 215h114l243 -215h-160l-142 127l-152 -127h-150z" />
    <glyph glyph-name="idieresis" unicode="&#xef;" horiz-adv-x="558" 
d="M201 0v1034h151v-1034h-151zM384 1282l1 163h156l-1 -163h-156zM16 1282l1 163h156l-1 -163h-156z" />
    <glyph glyph-name="eth" unicode="&#xf0;" horiz-adv-x="1126" 
d="M563 -20q-156 0 -259.5 70t-154.5 190t-51 269q0 122 31.5 220.5t91 169t145 108t193.5 37.5q164 0 261.5 -84t125.5 -218l-131 128q-23 107 -72.5 199.5t-111.5 170.5t-126 138t-117 102h154q88 -66 175 -158t157 -210.5t112.5 -264.5t42.5 -321q0 -158 -50.5 -281.5
t-153.5 -194t-262 -70.5zM566 106q108 0 175.5 53.5t99.5 146t32 207.5q0 197 -78.5 302t-225.5 105q-160 0 -237.5 -112.5t-77.5 -294.5q0 -109 30 -202t98.5 -149t183.5 -56zM365 1149l-27 88l607 185l26 -88z" />
    <glyph glyph-name="ntilde" unicode="&#xf1;" horiz-adv-x="1145" 
d="M160 0v1034h150v-151q26 45 71.5 83t111 61t147.5 23q100 0 182.5 -39.5t131.5 -122.5t49 -213v-675h-156v661q0 132 -67 195t-177 63q-75 0 -141 -24t-106 -73t-40 -123v-699h-156zM342 1227l-31 98q32 29 68.5 49.5t90.5 20.5q47 0 88.5 -13.5t82 -27t84.5 -13.5
q43 0 73 15t60 37l31 -108q-25 -17 -64 -35.5t-101 -18.5q-53 0 -91.5 12.5t-74.5 25t-80 12.5q-49 0 -78 -16.5t-58 -37.5z" />
    <glyph glyph-name="ograve" unicode="&#xf2;" horiz-adv-x="1125" 
d="M565 -20q-141 0 -246 60.5t-163 179.5t-58 293q0 162 53 284t157.5 189.5t256.5 67.5q140 0 244 -61.5t161.5 -182t57.5 -297.5q0 -158 -52.5 -278t-155 -187.5t-255.5 -67.5zM565 106q97 0 166 48t105 140t36 223q0 118 -31.5 211t-99.5 146.5t-176 53.5
q-98 0 -168 -47.5t-106.5 -139.5t-36.5 -224q0 -118 32 -210.5t101 -146.5t178 -54zM509 1155l-268 291h186l206 -291h-124z" />
    <glyph glyph-name="oacute" unicode="&#xf3;" horiz-adv-x="1125" 
d="M565 -20q-141 0 -246 60.5t-163 179.5t-58 293q0 162 53 284t157.5 189.5t256.5 67.5q140 0 244 -61.5t161.5 -182t57.5 -297.5q0 -158 -52.5 -278t-155 -187.5t-255.5 -67.5zM565 106q97 0 166 48t105 140t36 223q0 118 -31.5 211t-99.5 146.5t-176 53.5
q-98 0 -168 -47.5t-106.5 -139.5t-36.5 -224q0 -118 32 -210.5t101 -146.5t178 -54zM490 1155l206 291h186l-268 -291h-124z" />
    <glyph glyph-name="ocircumflex" unicode="&#xf4;" horiz-adv-x="1125" 
d="M565 -20q-141 0 -246 60.5t-163 179.5t-58 293q0 162 53 284t157.5 189.5t256.5 67.5q140 0 244 -61.5t161.5 -182t57.5 -297.5q0 -158 -52.5 -278t-155 -187.5t-255.5 -67.5zM565 106q97 0 166 48t105 140t36 223q0 118 -31.5 211t-99.5 146.5t-176 53.5
q-98 0 -168 -47.5t-106.5 -139.5t-36.5 -224q0 -118 32 -210.5t101 -146.5t178 -54zM261 1155l247 215h114l243 -215h-160l-142 127l-152 -127h-150z" />
    <glyph glyph-name="otilde" unicode="&#xf5;" horiz-adv-x="1125" 
d="M565 -20q-141 0 -246 60.5t-163 179.5t-58 293q0 162 53 284t157.5 189.5t256.5 67.5q140 0 244 -61.5t161.5 -182t57.5 -297.5q0 -158 -52.5 -278t-155 -187.5t-255.5 -67.5zM565 106q97 0 166 48t105 140t36 223q0 118 -31.5 211t-99.5 146.5t-176 53.5
q-98 0 -168 -47.5t-106.5 -139.5t-36.5 -224q0 -118 32 -210.5t101 -146.5t178 -54zM309 1227l-31 98q32 29 68.5 49.5t90.5 20.5q47 0 88.5 -13.5t82 -27t84.5 -13.5q43 0 73 15t60 37l31 -108q-25 -17 -64 -35.5t-101 -18.5q-53 0 -91.5 12.5t-74.5 25t-80 12.5
q-49 0 -78 -16.5t-58 -37.5z" />
    <glyph glyph-name="odieresis" unicode="&#xf6;" horiz-adv-x="1125" 
d="M565 -20q-141 0 -246 60.5t-163 179.5t-58 293q0 162 53 284t157.5 189.5t256.5 67.5q140 0 244 -61.5t161.5 -182t57.5 -297.5q0 -158 -52.5 -278t-155 -187.5t-255.5 -67.5zM565 106q97 0 166 48t105 140t36 223q0 118 -31.5 211t-99.5 146.5t-176 53.5
q-98 0 -168 -47.5t-106.5 -139.5t-36.5 -224q0 -118 32 -210.5t101 -146.5t178 -54zM669 1283l1 163h156l-1 -163h-156zM301 1283l1 163h156l-1 -163h-156z" />
    <glyph glyph-name="divide" unicode="&#xf7;" horiz-adv-x="1091" 
d="M125 664v124l841 2v-125zM441 285v204h212v-204h-212zM441 966v204h212v-204h-212z" />
    <glyph glyph-name="oslash" unicode="&#xf8;" horiz-adv-x="1158" 
d="M107 -10l-69 73l1008 978l69 -73zM576 -20q-140 0 -245.5 60.5t-163.5 179.5t-58 293q0 162 53.5 284t157.5 189.5t257 67.5q140 0 243.5 -61.5t161 -182t57.5 -297.5q0 -158 -52 -278t-154.5 -187.5t-256.5 -67.5zM577 106q97 0 165.5 48t105 140t36.5 223
q0 118 -32 211t-100 146.5t-175 53.5q-99 0 -168.5 -47.5t-106.5 -139.5t-37 -224q0 -118 32.5 -210.5t101.5 -146.5t178 -54z" />
    <glyph glyph-name="ugrave" unicode="&#xf9;" horiz-adv-x="1153" 
d="M540 -20q-83 1 -155 23.5t-126.5 67t-85 111t-30.5 154.5v698h156v-684q0 -109 66 -176.5t203 -67.5q122 0 196 63.5t74 192.5v672h155v-1034h-126l-16 196q-18 -74 -62.5 -122t-108 -71.5t-140.5 -22.5zM517 1155l-268 291h186l206 -291h-124z" />
    <glyph glyph-name="uacute" unicode="&#xfa;" horiz-adv-x="1153" 
d="M540 -20q-83 1 -155 23.5t-126.5 67t-85 111t-30.5 154.5v698h156v-684q0 -109 66 -176.5t203 -67.5q122 0 196 63.5t74 192.5v672h155v-1034h-126l-16 196q-18 -74 -62.5 -122t-108 -71.5t-140.5 -22.5zM498 1155l206 291h186l-268 -291h-124z" />
    <glyph glyph-name="ucircumflex" unicode="&#xfb;" horiz-adv-x="1153" 
d="M540 -20q-83 1 -155 23.5t-126.5 67t-85 111t-30.5 154.5v698h156v-684q0 -109 66 -176.5t203 -67.5q122 0 196 63.5t74 192.5v672h155v-1034h-126l-16 196q-18 -74 -62.5 -122t-108 -71.5t-140.5 -22.5zM269 1155l247 215h114l243 -215h-160l-142 127l-152 -127h-150z
" />
    <glyph glyph-name="udieresis" unicode="&#xfc;" horiz-adv-x="1153" 
d="M540 -20q-83 1 -155 23.5t-126.5 67t-85 111t-30.5 154.5v698h156v-684q0 -109 66 -176.5t203 -67.5q122 0 196 63.5t74 192.5v672h155v-1034h-126l-16 196q-18 -74 -62.5 -122t-108 -71.5t-140.5 -22.5zM677 1283l1 163h156l-1 -163h-156zM309 1283l1 163h156l-1 -163
h-156z" />
    <glyph glyph-name="yacute" unicode="&#xfd;" horiz-adv-x="1055" 
d="M248 -330q-87 0 -118.5 11.5l-31.5 11.5v102l107 -1q55 -2 92 8t60.5 27.5t37 39t21.5 42.5l41 109l-404 1014h159l321 -832l317 832h152l-440 -1131q-36 -90 -83 -140.5t-105 -71.5t-126 -21zM459 1155l206 291h186l-268 -291h-124z" />
    <glyph glyph-name="thorn" unicode="&#xfe;" horiz-adv-x="1171" 
d="M160 -322v1768h153v-557q23 25 62.5 64.5t104.5 70t164 30.5q121 0 218 -57.5t154.5 -173t57.5 -291.5q0 -174 -56.5 -297t-158 -189t-236.5 -66q-91 0 -160 29.5t-118 69.5q-17 15 -23 12t-6 -25v-388h-156zM583 95q97 0 171.5 49.5t117 146t42.5 238.5q0 145 -44 235
t-116.5 132t-159.5 42q-82 0 -145 -36t-98 -88.5t-35 -103.5v-485q59 -59 124 -94.5t143 -35.5z" />
    <glyph glyph-name="ydieresis" unicode="&#xff;" horiz-adv-x="1055" 
d="M248 -330q-87 0 -118.5 11.5l-31.5 11.5v102l107 -1q55 -2 92 8t60.5 27.5t37 39t21.5 42.5l41 109l-404 1014h159l321 -832l317 832h152l-440 -1131q-36 -90 -83 -140.5t-105 -71.5t-126 -21zM639 1283l1 163h156l-1 -163h-156zM271 1283l1 163h156l-1 -163h-156z" />
    <glyph glyph-name="Amacron" unicode="&#x100;" horiz-adv-x="1412" 
d="M90 0l525 1446h183l524 -1446h-161l-149 412h-612l-150 -412h-160zM444 560h523l-262 732zM422 1655v115h568v-115h-568z" />
    <glyph glyph-name="amacron" unicode="&#x101;" horiz-adv-x="1099" 
d="M446 -20q-101 0 -177.5 35.5t-119 101.5t-42.5 159q0 172 118 255t381 90l199 6v86q0 101 -61 161.5t-189 59.5q-96 0 -166.5 -44.5t-89.5 -142.5h-142q6 97 54.5 165.5t137.5 105t213 36.5q129 0 216.5 -37.5t132.5 -112t45 -184.5v-720h-134l-11 199
q-62 -123 -157.5 -171t-207.5 -48zM490 97q55 0 111 20t102 55t74 78t28 88v184l-166 -3q-131 -2 -215 -26t-124 -73.5t-40 -129.5q0 -91 64 -142t166 -51zM278 1243v115h568v-115h-568z" />
    <glyph glyph-name="Abreve" unicode="&#x102;" horiz-adv-x="1412" 
d="M90 0l525 1446h183l524 -1446h-161l-149 412h-612l-150 -412h-160zM444 560h523l-262 732zM704 1564q-71 0 -131 24t-101.5 70t-55.5 112h120q17 -47 61 -77t107 -30t108.5 30t63.5 77h120q-15 -64 -55.5 -110t-101 -71t-135.5 -25z" />
    <glyph glyph-name="abreve" unicode="&#x103;" horiz-adv-x="1099" 
d="M446 -20q-101 0 -177.5 35.5t-119 101.5t-42.5 159q0 172 118 255t381 90l199 6v86q0 101 -61 161.5t-189 59.5q-96 0 -166.5 -44.5t-89.5 -142.5h-142q6 97 54.5 165.5t137.5 105t213 36.5q129 0 216.5 -37.5t132.5 -112t45 -184.5v-720h-134l-11 199
q-62 -123 -157.5 -171t-207.5 -48zM490 97q55 0 111 20t102 55t74 78t28 88v184l-166 -3q-131 -2 -215 -26t-124 -73.5t-40 -129.5q0 -91 64 -142t166 -51zM561 1152q-71 0 -131 24t-101.5 70t-55.5 112h120q17 -47 61 -77t107 -30t108.5 30t63.5 77h120q-15 -64 -55.5 -110
t-101 -71t-135.5 -25z" />
    <glyph glyph-name="Aogonek" unicode="&#x104;" horiz-adv-x="1412" 
d="M90 0l525 1446h183l524 -1446h-161l-149 412h-612l-150 -412h-160zM444 560h523l-262 732zM1195 -333q-97 0 -145 42.5t-48 114.5q0 61 43.5 109t164.5 85l116 -14q-100 -43 -146 -81t-46 -89q0 -37 22.5 -56t74.5 -19q49 0 86.5 12t56.5 23v-88q-24 -14 -73 -26.5
t-106 -12.5z" />
    <glyph glyph-name="aogonek" unicode="&#x105;" horiz-adv-x="1099" 
d="M446 -20q-101 0 -177.5 35.5t-119 101.5t-42.5 159q0 172 118 255t381 90l199 6v86q0 101 -61 161.5t-189 59.5q-96 0 -166.5 -44.5t-89.5 -142.5h-142q6 97 54.5 165.5t137.5 105t213 36.5q129 0 216.5 -37.5t132.5 -112t45 -184.5v-720h-134l-11 199
q-62 -123 -157.5 -171t-207.5 -48zM490 97q55 0 111 20t102 55t74 78t28 88v184l-166 -3q-131 -2 -215 -26t-124 -73.5t-40 -129.5q0 -91 64 -142t166 -51zM821 -328q-97 0 -145 42.5t-48 114.5q0 61 43.5 109t164.5 85l116 -14q-100 -43 -146 -81t-46 -89q0 -37 22.5 -56
t74.5 -19q49 0 86.5 12t56.5 23v-88q-24 -14 -73 -26.5t-106 -12.5z" />
    <glyph glyph-name="Cacute" unicode="&#x106;" horiz-adv-x="1361" 
d="M715 -20q-193 0 -327.5 87.5t-205.5 254t-71 404.5t70.5 403t205.5 251t328 86q150 0 266 -63t186 -167t83 -226h-168q-17 87 -63.5 159t-123.5 115t-183 43q-140 0 -235.5 -65t-144 -198.5t-48.5 -339.5q0 -310 108.5 -457t319.5 -147q106 0 183 44.5t123.5 118
t63.5 160.5h168q-11 -89 -49.5 -172.5t-105 -149t-162 -103.5t-218.5 -38zM635 1567l206 291h186l-268 -291h-124z" />
    <glyph glyph-name="cacute" unicode="&#x107;" horiz-adv-x="1085" 
d="M567 -20q-138 0 -244 60t-165.5 179t-59.5 295q0 161 53.5 282.5t158.5 189.5t257 68q106 0 193 -40t144.5 -114.5t72.5 -179.5h-142q-10 58 -45 104.5t-91.5 73.5t-130.5 27q-141 0 -230 -100.5t-89 -309.5q0 -187 80.5 -299.5t240.5 -112.5q73 0 129.5 27.5t91.5 74
t45 102.5h140q-15 -102 -72.5 -175.5t-144.5 -112.5t-192 -39zM495 1155l206 291h186l-268 -291h-124z" />
    <glyph glyph-name="Ccircumflex" unicode="&#x108;" horiz-adv-x="1361" 
d="M715 -20q-193 0 -327.5 87.5t-205.5 254t-71 404.5t70.5 403t205.5 251t328 86q150 0 266 -63t186 -167t83 -226h-168q-17 87 -63.5 159t-123.5 115t-183 43q-140 0 -235.5 -65t-144 -198.5t-48.5 -339.5q0 -310 108.5 -457t319.5 -147q106 0 183 44.5t123.5 118
t63.5 160.5h168q-11 -89 -49.5 -172.5t-105 -149t-162 -103.5t-218.5 -38zM406 1567l247 215h114l243 -215h-160l-142 127l-152 -127h-150z" />
    <glyph glyph-name="ccircumflex" unicode="&#x109;" horiz-adv-x="1085" 
d="M567 -20q-138 0 -244 60t-165.5 179t-59.5 295q0 161 53.5 282.5t158.5 189.5t257 68q106 0 193 -40t144.5 -114.5t72.5 -179.5h-142q-10 58 -45 104.5t-91.5 73.5t-130.5 27q-141 0 -230 -100.5t-89 -309.5q0 -187 80.5 -299.5t240.5 -112.5q73 0 129.5 27.5t91.5 74
t45 102.5h140q-15 -102 -72.5 -175.5t-144.5 -112.5t-192 -39zM266 1155l247 215h114l243 -215h-160l-142 127l-152 -127h-150z" />
    <glyph glyph-name="Cdotaccent" unicode="&#x10a;" horiz-adv-x="1361" 
d="M715 -20q-193 0 -327.5 87.5t-205.5 254t-71 404.5t70.5 403t205.5 251t328 86q150 0 266 -63t186 -167t83 -226h-168q-17 87 -63.5 159t-123.5 115t-183 43q-140 0 -235.5 -65t-144 -198.5t-48.5 -339.5q0 -310 108.5 -457t319.5 -147q106 0 183 44.5t123.5 118
t63.5 160.5h168q-11 -89 -49.5 -172.5t-105 -149t-162 -103.5t-218.5 -38zM627 1695v163h163v-163h-163z" />
    <glyph glyph-name="cdotaccent" unicode="&#x10b;" horiz-adv-x="1085" 
d="M567 -20q-138 0 -244 60t-165.5 179t-59.5 295q0 161 53.5 282.5t158.5 189.5t257 68q106 0 193 -40t144.5 -114.5t72.5 -179.5h-142q-10 58 -45 104.5t-91.5 73.5t-130.5 27q-141 0 -230 -100.5t-89 -309.5q0 -187 80.5 -299.5t240.5 -112.5q73 0 129.5 27.5t91.5 74
t45 102.5h140q-15 -102 -72.5 -175.5t-144.5 -112.5t-192 -39zM487 1283v163h163v-163h-163z" />
    <glyph glyph-name="Ccaron" unicode="&#x10c;" horiz-adv-x="1361" 
d="M715 -20q-193 0 -327.5 87.5t-205.5 254t-71 404.5t70.5 403t205.5 251t328 86q150 0 266 -63t186 -167t83 -226h-168q-17 87 -63.5 159t-123.5 115t-183 43q-140 0 -235.5 -65t-144 -198.5t-48.5 -339.5q0 -310 108.5 -457t319.5 -147q106 0 183 44.5t123.5 118
t63.5 160.5h168q-11 -89 -49.5 -172.5t-105 -149t-162 -103.5t-218.5 -38zM653 1567l-249 216h152l152 -131l142 131h160l-243 -216h-114z" />
    <glyph glyph-name="ccaron" unicode="&#x10d;" horiz-adv-x="1085" 
d="M567 -20q-138 0 -244 60t-165.5 179t-59.5 295q0 161 53.5 282.5t158.5 189.5t257 68q106 0 193 -40t144.5 -114.5t72.5 -179.5h-142q-10 58 -45 104.5t-91.5 73.5t-130.5 27q-141 0 -230 -100.5t-89 -309.5q0 -187 80.5 -299.5t240.5 -112.5q73 0 129.5 27.5t91.5 74
t45 102.5h140q-15 -102 -72.5 -175.5t-144.5 -112.5t-192 -39zM513 1155l-249 216h152l152 -131l142 131h160l-243 -216h-114z" />
    <glyph glyph-name="Dcaron" unicode="&#x10e;" horiz-adv-x="1373" 
d="M199 0v1446q5 0 36.5 -0.5t78 0t98 0t97.5 -1.5q266 -3 432 -84t243 -238t77 -389q0 -244 -83.5 -407t-255 -244.5t-435.5 -81.5h-288zM361 138h125q194 0 330.5 57.5t208.5 187t72 345.5q0 220 -71 346.5t-206 180t-325 53.5h-134v-1170zM618 1567l-249 216h152
l152 -131l142 131h160l-243 -216h-114z" />
    <glyph glyph-name="dcaron" unicode="&#x10f;" horiz-adv-x="1171" 
d="M533 -20q-199 0 -317 136.5t-118 404.5q0 161 47 280.5t141.5 186t236.5 66.5q79 0 139 -20.5t102.5 -51.5t68 -63t37.5 -55v622h157v-1486h-123l-16 212q-9 -27 -30 -66t-61 -77t-104.5 -63.5t-159.5 -25.5zM558 104q169 0 240.5 100.5t71.5 326.5q-2 125 -32.5 214
t-97 136.5t-178.5 47.5q-136 0 -221 -96t-85 -302q0 -200 76 -313.5t226 -113.5zM1134 1111l75 179l-50 10v186h140v-195l-77 -180h-88z" />
    <glyph glyph-name="Dcroat" unicode="&#x110;" horiz-adv-x="1391" 
d="M70 660v130h648v-130h-648zM217 0v1446q6 0 37.5 -0.5t77.5 0t98 0t97 -1.5q267 -3 432.5 -84t243 -238t77.5 -389q0 -244 -83.5 -407t-255.5 -244.5t-435 -81.5h-289zM379 138h125q194 0 330.5 57.5t208.5 187t72 345.5q0 220 -71 346.5t-205.5 180t-325.5 53.5h-134
v-1170z" />
    <glyph glyph-name="dcroat" unicode="&#x111;" horiz-adv-x="1222" 
d="M560 1200v103h602v-103h-602zM533 -20q-199 0 -317 136.5t-118 404.5q0 161 47 280.5t141.5 186t236.5 66.5q79 0 139 -20.5t102.5 -51.5t68 -63t37.5 -55v622h157v-1486h-123l-16 212q-9 -27 -30 -66t-61 -77t-104.5 -63.5t-159.5 -25.5zM558 104q169 0 240.5 100.5
t71.5 326.5q-2 125 -32.5 214t-97 136.5t-178.5 47.5q-136 0 -221 -96t-85 -302q0 -200 76 -313.5t226 -113.5z" />
    <glyph glyph-name="Emacron" unicode="&#x112;" horiz-adv-x="1234" 
d="M199 0v1446h889v-140h-733v-506h666v-140h-666v-516l755 -1v-143h-911zM363 1655v115h568v-115h-568z" />
    <glyph glyph-name="emacron" unicode="&#x113;" horiz-adv-x="1128" 
d="M588 -20q-142 0 -250.5 62.5t-169.5 180.5t-61 284q0 165 55 288.5t160 191t253 67.5q143 0 242 -61.5t151 -175.5t52 -272v-64h-753q-1 -104 33.5 -189t105.5 -136t179 -51q106 0 182 49.5t95 140.5h150q-19 -104 -83 -174t-153.5 -105.5t-187.5 -35.5zM268 592h600
q0 96 -32 173t-97.5 122t-165.5 45q-105 0 -173 -50.5t-100.5 -128.5t-31.5 -161zM291 1243v115h568v-115h-568z" />
    <glyph glyph-name="Ebreve" unicode="&#x114;" horiz-adv-x="1234" 
d="M199 0v1446h889v-140h-733v-506h666v-140h-666v-516l755 -1v-143h-911zM645 1564q-71 0 -131 24t-101.5 70t-55.5 112h120q17 -47 61 -77t107 -30t108.5 30t63.5 77h120q-15 -64 -55.5 -110t-101 -71t-135.5 -25z" />
    <glyph glyph-name="ebreve" unicode="&#x115;" horiz-adv-x="1128" 
d="M588 -20q-142 0 -250.5 62.5t-169.5 180.5t-61 284q0 165 55 288.5t160 191t253 67.5q143 0 242 -61.5t151 -175.5t52 -272v-64h-753q-1 -104 33.5 -189t105.5 -136t179 -51q106 0 182 49.5t95 140.5h150q-19 -104 -83 -174t-153.5 -105.5t-187.5 -35.5zM268 592h600
q0 96 -32 173t-97.5 122t-165.5 45q-105 0 -173 -50.5t-100.5 -128.5t-31.5 -161zM573 1152q-71 0 -131 24t-101.5 70t-55.5 112h120q17 -47 61 -77t107 -30t108.5 30t63.5 77h120q-15 -64 -55.5 -110t-101 -71t-135.5 -25z" />
    <glyph glyph-name="Edotaccent" unicode="&#x116;" horiz-adv-x="1234" 
d="M199 0v1446h889v-140h-733v-506h666v-140h-666v-516l755 -1v-143h-911zM566 1695v163h163v-163h-163z" />
    <glyph glyph-name="edotaccent" unicode="&#x117;" horiz-adv-x="1128" 
d="M588 -20q-142 0 -250.5 62.5t-169.5 180.5t-61 284q0 165 55 288.5t160 191t253 67.5q143 0 242 -61.5t151 -175.5t52 -272v-64h-753q-1 -104 33.5 -189t105.5 -136t179 -51q106 0 182 49.5t95 140.5h150q-19 -104 -83 -174t-153.5 -105.5t-187.5 -35.5zM268 592h600
q0 96 -32 173t-97.5 122t-165.5 45q-105 0 -173 -50.5t-100.5 -128.5t-31.5 -161zM494 1283v163h163v-163h-163z" />
    <glyph glyph-name="Eogonek" unicode="&#x118;" horiz-adv-x="1234" 
d="M199 0v1446h889v-140h-733v-506h666v-140h-666v-516l755 -1v-143h-911zM990 -334q-97 0 -145 42.5t-48 114.5q0 61 43.5 109t164.5 85l116 -14q-100 -43 -146 -81t-46 -89q0 -37 22.5 -56t74.5 -19q49 0 86.5 12t56.5 23v-88q-24 -14 -73 -26.5t-106 -12.5z" />
    <glyph glyph-name="eogonek" unicode="&#x119;" horiz-adv-x="1128" 
d="M666 -314q-96 0 -144 42.5t-48 113.5q0 41 18 76t64 64q-133 7 -234 70.5t-158 179t-57 275.5q0 165 55 288.5t160 191t253 67.5q143 0 242 -61.5t151 -175.5t52 -272v-64h-753q-1 -104 33.5 -189t105.5 -136t179 -51q106 0 182 49.5t95 140.5h150q-19 -103 -81 -169
t-155 -110q-87 -40 -129 -77.5t-42 -85.5q0 -37 23 -56.5t75 -19.5q48 0 86 12.5t57 22.5v-87q-24 -14 -73.5 -26.5t-106.5 -12.5zM268 592h600q0 96 -32 173t-97.5 122t-165.5 45q-105 0 -173 -50.5t-100.5 -128.5t-31.5 -161z" />
    <glyph glyph-name="Ecaron" unicode="&#x11a;" horiz-adv-x="1234" 
d="M199 0v1446h889v-140h-733v-506h666v-140h-666v-516l755 -1v-143h-911zM592 1567l-249 216h152l152 -131l142 131h160l-243 -216h-114z" />
    <glyph glyph-name="ecaron" unicode="&#x11b;" horiz-adv-x="1123" 
d="M588 -20q-142 0 -250.5 62.5t-169.5 180.5t-61 284q0 165 55 288.5t160 191t253 67.5q143 0 242 -61.5t151 -175.5t52 -272v-64h-753q-1 -104 33.5 -189t105.5 -136t179 -51q106 0 182 49.5t95 140.5h150q-19 -104 -83 -174t-153.5 -105.5t-187.5 -35.5zM268 592h600
q0 96 -32 173t-97.5 122t-165.5 45q-105 0 -173 -50.5t-100.5 -128.5t-31.5 -161zM516 1155l-249 216h152l152 -131l142 131h160l-243 -216h-114z" />
    <glyph glyph-name="Gcircumflex" unicode="&#x11c;" horiz-adv-x="1452" 
d="M715 -20q-188 0 -323.5 86.5t-208 251.5t-72.5 402t74 404t211 254.5t325 87.5q104 0 197 -37t166 -101.5t117.5 -146.5t50.5 -171h-168q-14 83 -64.5 154.5t-128 115.5t-172.5 44q-132 0 -231.5 -64.5t-154 -198t-54.5 -338.5q0 -158 33 -272t92 -186.5t140.5 -107
t178.5 -34.5t169 34.5t120 89.5t73 118.5t27 121.5l4 139h-366v118l527 -1v-743h-122v229q-38 -66 -97.5 -122.5t-144 -91.5t-198.5 -35zM416 1567l247 215h114l243 -215h-160l-142 127l-152 -127h-150z" />
    <glyph glyph-name="gcircumflex" unicode="&#x11d;" horiz-adv-x="1242" 
d="M587 -342q-235 0 -369 70.5t-134 206.5q0 57 25.5 97.5t61.5 67.5t66.5 43.5t40.5 24.5q-18 11 -41.5 25.5t-41.5 38t-18 60.5q0 47 44.5 86.5t130.5 59.5q-88 46 -138.5 120.5t-50.5 163.5q0 100 51.5 174t150 114t237.5 40q100 0 168.5 -23.5t128.5 -68.5q14 7 48 21
t75 30.5t76 31.5t54 23l-1 -156l-182 -36q17 -34 27.5 -73.5t10.5 -75.5q0 -92 -46.5 -165.5t-140 -115.5t-234.5 -42h-25.5t-25.5 1q-120 -3 -164 -26.5t-44 -49.5q0 -30 45 -42.5t157 -20.5q40 -2 97.5 -5t129.5 -8q155 -9 241.5 -80t86.5 -196q0 -139 -122.5 -227
t-374.5 -88zM615 -235q149 0 232 46.5t83 141.5q0 66 -48.5 108.5t-148.5 49.5l-305 19q-37 2 -81 -20.5t-75.5 -63.5t-31.5 -93q0 -88 92 -138t283 -50zM590 506q120 0 193.5 54t73.5 162q0 111 -73.5 168t-193.5 57q-122 0 -196.5 -57.5t-74.5 -167.5q0 -103 71 -159.5
t200 -56.5zM296 1155l247 215h114l243 -215h-160l-142 127l-152 -127h-150z" />
    <glyph glyph-name="Gbreve" unicode="&#x11e;" horiz-adv-x="1452" 
d="M715 -20q-188 0 -323.5 86.5t-208 251.5t-72.5 402t74 404t211 254.5t325 87.5q104 0 197 -37t166 -101.5t117.5 -146.5t50.5 -171h-168q-14 83 -64.5 154.5t-128 115.5t-172.5 44q-132 0 -231.5 -64.5t-154 -198t-54.5 -338.5q0 -158 33 -272t92 -186.5t140.5 -107
t178.5 -34.5t169 34.5t120 89.5t73 118.5t27 121.5l4 139h-366v118l527 -1v-743h-122v229q-38 -66 -97.5 -122.5t-144 -91.5t-198.5 -35zM717 1564q-71 0 -131 24t-101.5 70t-55.5 112h120q17 -47 61 -77t107 -30t108.5 30t63.5 77h120q-15 -64 -55.5 -110t-101 -71
t-135.5 -25z" />
    <glyph glyph-name="gbreve" unicode="&#x11f;" horiz-adv-x="1242" 
d="M587 -342q-235 0 -369 70.5t-134 206.5q0 57 25.5 97.5t61.5 67.5t66.5 43.5t40.5 24.5q-18 11 -41.5 25.5t-41.5 38t-18 60.5q0 47 44.5 86.5t130.5 59.5q-88 46 -138.5 120.5t-50.5 163.5q0 100 51.5 174t150 114t237.5 40q100 0 168.5 -23.5t128.5 -68.5q14 7 48 21
t75 30.5t76 31.5t54 23l-1 -156l-182 -36q17 -34 27.5 -73.5t10.5 -75.5q0 -92 -46.5 -165.5t-140 -115.5t-234.5 -42h-25.5t-25.5 1q-120 -3 -164 -26.5t-44 -49.5q0 -30 45 -42.5t157 -20.5q40 -2 97.5 -5t129.5 -8q155 -9 241.5 -80t86.5 -196q0 -139 -122.5 -227
t-374.5 -88zM615 -235q149 0 232 46.5t83 141.5q0 66 -48.5 108.5t-148.5 49.5l-305 19q-37 2 -81 -20.5t-75.5 -63.5t-31.5 -93q0 -88 92 -138t283 -50zM590 506q120 0 193.5 54t73.5 162q0 111 -73.5 168t-193.5 57q-122 0 -196.5 -57.5t-74.5 -167.5q0 -103 71 -159.5
t200 -56.5zM596 1152q-71 0 -131 24t-101.5 70t-55.5 112h120q17 -47 61 -77t107 -30t108.5 30t63.5 77h120q-15 -64 -55.5 -110t-101 -71t-135.5 -25z" />
    <glyph glyph-name="Gdotaccent" unicode="&#x120;" horiz-adv-x="1452" 
d="M715 -20q-188 0 -323.5 86.5t-208 251.5t-72.5 402t74 404t211 254.5t325 87.5q104 0 197 -37t166 -101.5t117.5 -146.5t50.5 -171h-168q-14 83 -64.5 154.5t-128 115.5t-172.5 44q-132 0 -231.5 -64.5t-154 -198t-54.5 -338.5q0 -158 33 -272t92 -186.5t140.5 -107
t178.5 -34.5t169 34.5t120 89.5t73 118.5t27 121.5l4 139h-366v118l527 -1v-743h-122v229q-38 -66 -97.5 -122.5t-144 -91.5t-198.5 -35zM637 1695v163h163v-163h-163z" />
    <glyph glyph-name="gdotaccent" unicode="&#x121;" horiz-adv-x="1242" 
d="M587 -342q-235 0 -369 70.5t-134 206.5q0 57 25.5 97.5t61.5 67.5t66.5 43.5t40.5 24.5q-18 11 -41.5 25.5t-41.5 38t-18 60.5q0 47 44.5 86.5t130.5 59.5q-88 46 -138.5 120.5t-50.5 163.5q0 100 51.5 174t150 114t237.5 40q100 0 168.5 -23.5t128.5 -68.5q14 7 48 21
t75 30.5t76 31.5t54 23l-1 -156l-182 -36q17 -34 27.5 -73.5t10.5 -75.5q0 -92 -46.5 -165.5t-140 -115.5t-234.5 -42h-25.5t-25.5 1q-120 -3 -164 -26.5t-44 -49.5q0 -30 45 -42.5t157 -20.5q40 -2 97.5 -5t129.5 -8q155 -9 241.5 -80t86.5 -196q0 -139 -122.5 -227
t-374.5 -88zM615 -235q149 0 232 46.5t83 141.5q0 66 -48.5 108.5t-148.5 49.5l-305 19q-37 2 -81 -20.5t-75.5 -63.5t-31.5 -93q0 -88 92 -138t283 -50zM590 506q120 0 193.5 54t73.5 162q0 111 -73.5 168t-193.5 57q-122 0 -196.5 -57.5t-74.5 -167.5q0 -103 71 -159.5
t200 -56.5zM517 1283v163h163v-163h-163z" />
    <glyph glyph-name="uni0122" unicode="&#x122;" horiz-adv-x="1452" 
d="M715 -20q-188 0 -323.5 86.5t-208 251.5t-72.5 402t74 404t211 254.5t325 87.5q104 0 197 -37t166 -101.5t117.5 -146.5t50.5 -171h-168q-14 83 -64.5 154.5t-128 115.5t-172.5 44q-132 0 -231.5 -64.5t-154 -198t-54.5 -338.5q0 -158 33 -272t92 -186.5t140.5 -107
t178.5 -34.5t169 34.5t120 89.5t73 118.5t27 121.5l4 139h-366v118l527 -1v-743h-122v229q-38 -66 -97.5 -122.5t-144 -91.5t-198.5 -35zM612 -364l79 118l-58 3v145h171v-122l-123 -144h-69z" />
    <glyph glyph-name="uni0123" unicode="&#x123;" horiz-adv-x="1242" 
d="M587 -342q-235 0 -369 70.5t-134 206.5q0 57 25.5 97.5t61.5 67.5t66.5 43.5t40.5 24.5q-18 11 -41.5 25.5t-41.5 38t-18 60.5q0 47 44.5 86.5t130.5 59.5q-88 46 -138.5 120.5t-50.5 163.5q0 100 51.5 174t150 114t237.5 40q100 0 168.5 -23.5t128.5 -68.5q14 7 48 21
t75 30.5t76 31.5t54 23l-1 -156l-182 -36q17 -34 27.5 -73.5t10.5 -75.5q0 -92 -46.5 -165.5t-140 -115.5t-234.5 -42h-25.5t-25.5 1q-120 -3 -164 -26.5t-44 -49.5q0 -30 45 -42.5t157 -20.5q40 -2 97.5 -5t129.5 -8q155 -9 241.5 -80t86.5 -196q0 -139 -122.5 -227
t-374.5 -88zM615 -235q149 0 232 46.5t83 141.5q0 66 -48.5 108.5t-148.5 49.5l-305 19q-37 2 -81 -20.5t-75.5 -63.5t-31.5 -93q0 -88 92 -138t283 -50zM590 506q120 0 193.5 54t73.5 162q0 111 -73.5 168t-193.5 57q-122 0 -196.5 -57.5t-74.5 -167.5q0 -103 71 -159.5
t200 -56.5zM516 1155v173l96 153h79l-73 -146l58 -4v-176h-160z" />
    <glyph glyph-name="Hcircumflex" unicode="&#x124;" horiz-adv-x="1530" 
d="M199 0v1446h156v-626h820v626h156v-1446h-156v679h-820v-679h-156zM460 1576l247 215h114l243 -215h-160l-142 127l-152 -127h-150z" />
    <glyph glyph-name="hcircumflex" unicode="&#x125;" horiz-adv-x="1145" 
d="M160 0v1486h151v-604q27 44 72.5 82t110 61.5t147.5 23.5q102 0 183.5 -37t129.5 -105t48 -160v-747h-156v712q0 98 -67 152.5t-177 54.5q-75 0 -140.5 -24.5t-105.5 -73t-40 -123.5v-698h-156zM-68 1567l247 215h114l243 -215h-160l-142 127l-152 -127h-150z" />
    <glyph glyph-name="Hbar" unicode="&#x126;" horiz-adv-x="1566" 
d="M25 1117v109h1516v-109h-1516zM223 0v1446h156v-626h820v626h156v-1446h-156v679h-820v-679h-156z" />
    <glyph glyph-name="hbar" unicode="&#x127;" horiz-adv-x="1161" 
d="M40 1200v103h604v-103h-604zM177 0v1486h151v-604q26 44 71.5 82t110.5 61.5t148 23.5q101 0 183 -37t130 -105t48 -160v-747h-156v712q0 98 -67 152.5t-177 54.5q-76 0 -141.5 -24.5t-105.5 -73t-40 -123.5v-698h-155z" />
    <glyph glyph-name="Itilde" unicode="&#x128;" horiz-adv-x="553" 
d="M199 0v1446h156v-1446h-156zM23 1639l-31 98q32 29 68.5 49.5t90.5 20.5q47 0 88.5 -13.5t82 -27t84.5 -13.5q43 0 73 15t60 37l31 -108q-25 -17 -64 -35.5t-101 -18.5q-53 0 -91.5 12.5t-74.5 25t-80 12.5q-49 0 -78 -16.5t-58 -37.5z" />
    <glyph glyph-name="itilde" unicode="&#x129;" horiz-adv-x="526" 
d="M184 0v1034h151v-1034h-151zM6 1227l-31 98q32 29 68.5 49.5t90.5 20.5q47 0 88.5 -13.5t82 -27t84.5 -13.5q43 0 73 15t60 37l31 -108q-25 -17 -64 -35.5t-101 -18.5q-53 0 -91.5 12.5t-74.5 25t-80 12.5q-49 0 -78 -16.5t-58 -37.5z" />
    <glyph glyph-name="Imacron" unicode="&#x12a;" horiz-adv-x="553" 
d="M199 0v1446h156v-1446h-156zM-7 1655v115h568v-115h-568z" />
    <glyph glyph-name="imacron" unicode="&#x12b;" horiz-adv-x="534" 
d="M190 0v1034h151v-1034h-151zM-18 1243v115h568v-115h-568z" />
    <glyph glyph-name="Ibreve" unicode="&#x12c;" horiz-adv-x="553" 
d="M199 0v1446h156v-1446h-156zM276 1564q-71 0 -131 24t-101.5 70t-55.5 112h120q17 -47 61 -77t107 -30t108.5 30t63.5 77h120q-15 -64 -55.5 -110t-101 -71t-135.5 -25z" />
    <glyph glyph-name="ibreve" unicode="&#x12d;" horiz-adv-x="471" 
d="M160 0v1034h151v-1034h-151zM235 1152q-71 0 -131 24t-101.5 70t-55.5 112h120q17 -47 61 -77t107 -30t108.5 30t63.5 77h120q-15 -64 -55.5 -110t-101 -71t-135.5 -25z" />
    <glyph glyph-name="Iogonek" unicode="&#x12e;" horiz-adv-x="553" 
d="M199 0v1446h156v-1446h-156zM223 -337q-97 0 -145 42.5t-48 114.5q0 61 43.5 109t164.5 85l116 -14q-100 -43 -146 -81t-46 -89q0 -37 22.5 -56t74.5 -19q49 0 86.5 12t56.5 23v-88q-24 -14 -73 -26.5t-106 -12.5z" />
    <glyph glyph-name="iogonek" unicode="&#x12f;" horiz-adv-x="471" 
d="M160 0v1034h151v-1034h-151zM155 1283v163h163v-163h-163zM179 -330q-97 0 -145 42.5t-48 114.5q0 61 43.5 109t164.5 85l116 -14q-100 -43 -146 -81t-46 -89q0 -37 22.5 -56t74.5 -19q49 0 86.5 12t56.5 23v-88q-24 -14 -73 -26.5t-106 -12.5z" />
    <glyph glyph-name="Idotaccent" unicode="&#x130;" horiz-adv-x="553" 
d="M199 0v1446h156v-1446h-156zM196 1695v163h163v-163h-163z" />
    <glyph glyph-name="dotlessi" unicode="&#x131;" horiz-adv-x="471" 
d="M160 0v1034h151v-1034h-151z" />
    <glyph glyph-name="Jcircumflex" unicode="&#x134;" horiz-adv-x="770" 
d="M321 -20q-79 0 -145 20t-86 29l15 152q32 -12 73 -30.5t106 -18.5q97 0 134 54.5t37 184.5v1075h156v-1121q0 -109 -25 -186.5t-88 -118t-177 -40.5zM227 1567l247 215h114l243 -215h-160l-142 127l-152 -127h-150z" />
    <glyph glyph-name="jcircumflex" unicode="&#x135;" horiz-adv-x="506" 
d="M80 -332q-86 0 -107.5 6.5t-21.5 15.5l-1 104l109 4q71 5 101.5 38t30.5 111v1087h155v-1095q0 -138 -58 -204.5t-208 -66.5zM-35 1155l247 215h114l243 -215h-160l-142 127l-152 -127h-150z" />
    <glyph glyph-name="uni0136" unicode="&#x136;" horiz-adv-x="1346" 
d="M199 0v1446h162v-771l681 771h190l-496 -571l534 -875h-179l-469 762l-261 -295v-467h-162zM575 -364l79 118l-58 3v145h171v-122l-123 -144h-69z" />
    <glyph glyph-name="uni0137" unicode="&#x137;" horiz-adv-x="1113" 
d="M160 0v1486h155v-993l515 541h184l-372 -389l401 -645h-169l-336 539l-223 -229v-310h-155zM448 -364l79 118l-58 3v145h171v-122l-123 -144h-69z" />
    <glyph glyph-name="kgreenlandic" unicode="&#x138;" horiz-adv-x="1129" 
d="M160 0v1034h155v-552l530 552h178l-360 -365l396 -669h-185l-320 550l-239 -240v-310h-155z" />
    <glyph glyph-name="Lacute" unicode="&#x139;" horiz-adv-x="1155" 
d="M199 0l1 1446h161v-1301h698v-145h-860zM206 1567l206 291h186l-268 -291h-124z" />
    <glyph glyph-name="lacute" unicode="&#x13a;" horiz-adv-x="592" 
d="M402 -11q-74 0 -121.5 21.5t-74 59.5t-36.5 87t-10 103v1226h154v-1213q0 -85 32 -124.5t84 -42.5l58 -1v-102q-22 -7 -45 -10.5t-41 -3.5zM159 1647l206 291h186l-268 -291h-124z" />
    <glyph glyph-name="uni013B" unicode="&#x13b;" horiz-adv-x="1155" 
d="M199 0l1 1446h161v-1301h698v-145h-860zM515 -364l79 118l-58 3v145h171v-122l-123 -144h-69z" />
    <glyph glyph-name="uni013C" unicode="&#x13c;" horiz-adv-x="592" 
d="M402 -11q-74 0 -121.5 21.5t-74 59.5t-36.5 87t-10 103v1226h154v-1213q0 -85 32 -124.5t84 -42.5l58 -1v-102q-22 -7 -45 -10.5t-41 -3.5zM158 -362l79 118l-58 3v145h171v-122l-123 -144h-69z" />
    <glyph glyph-name="Lcaron" unicode="&#x13d;" horiz-adv-x="1155" 
d="M199 0l1 1446h161v-1301h698v-145h-860zM755 1071l75 179l-50 10v186h140v-195l-77 -180h-88z" />
    <glyph glyph-name="lcaron" unicode="&#x13e;" horiz-adv-x="592" 
d="M402 -11q-74 0 -121.5 21.5t-74 59.5t-36.5 87t-10 103v1226h154v-1213q0 -85 32 -124.5t84 -42.5l58 -1v-102q-22 -7 -45 -10.5t-41 -3.5zM421 1111l75 179l-50 10v186h140v-195l-77 -180h-88z" />
    <glyph glyph-name="Ldot" unicode="&#x13f;" horiz-adv-x="1155" 
d="M199 0l1 1446h161v-1301h698v-145h-860zM756 684v202h210v-202h-210z" />
    <glyph glyph-name="ldot" unicode="&#x140;" horiz-adv-x="661" 
d="M402 -11q-74 0 -121.5 21.5t-74 59.5t-36.5 87t-10 103v1226h154v-1213q0 -85 32 -124.5t84 -42.5l58 -1v-102q-22 -7 -45 -10.5t-41 -3.5zM463 674v202h210v-202h-210z" />
    <glyph glyph-name="Lslash" unicode="&#x141;" horiz-adv-x="1157" 
d="M23 610v137l649 167v-129zM201 0l2 1446h160v-1301h698v-145h-860z" />
    <glyph glyph-name="lslash" unicode="&#x142;" horiz-adv-x="696" 
d="M70 326v149l505 423v-141zM478 -11q-74 0 -121.5 21.5t-74 59.5t-36.5 87t-10 103v1226h154v-1213q0 -85 32 -124.5t84 -42.5l58 -1v-102q-22 -7 -45 -10.5t-41 -3.5z" />
    <glyph glyph-name="Nacute" unicode="&#x143;" horiz-adv-x="1493" 
d="M199 0v1446h146l793 -1169v1169h156v-1446h-139l-800 1180v-1180h-156zM673 1567l206 291h186l-268 -291h-124z" />
    <glyph glyph-name="nacute" unicode="&#x144;" horiz-adv-x="1145" 
d="M160 0v1034h150v-151q26 45 71.5 83t111 61t147.5 23q100 0 182.5 -39.5t131.5 -122.5t49 -213v-675h-156v661q0 132 -67 195t-177 63q-75 0 -141 -24t-106 -73t-40 -123v-699h-156zM523 1155l206 291h186l-268 -291h-124z" />
    <glyph glyph-name="uni0145" unicode="&#x145;" horiz-adv-x="1493" 
d="M199 0v1446h146l793 -1169v1169h156v-1446h-139l-800 1180v-1180h-156zM607 -364l79 118l-58 3v145h171v-122l-123 -144h-69z" />
    <glyph glyph-name="uni0146" unicode="&#x146;" horiz-adv-x="1145" 
d="M160 0v1034h150v-151q26 45 71.5 83t111 61t147.5 23q100 0 182.5 -39.5t131.5 -122.5t49 -213v-675h-156v661q0 132 -67 195t-177 63q-75 0 -141 -24t-106 -73t-40 -123v-699h-156zM480 -364l79 118l-58 3v145h171v-122l-123 -144h-69z" />
    <glyph glyph-name="Ncaron" unicode="&#x147;" horiz-adv-x="1493" 
d="M199 0v1446h146l793 -1169v1169h156v-1446h-139l-800 1180v-1180h-156zM691 1567l-249 216h152l152 -131l142 131h160l-243 -216h-114z" />
    <glyph glyph-name="ncaron" unicode="&#x148;" horiz-adv-x="1145" 
d="M160 0v1034h150v-151q26 45 71.5 83t111 61t147.5 23q100 0 182.5 -39.5t131.5 -122.5t49 -213v-675h-156v661q0 132 -67 195t-177 63q-75 0 -141 -24t-106 -73t-40 -123v-699h-156zM541 1155l-249 216h152l152 -131l142 131h160l-243 -216h-114z" />
    <glyph glyph-name="Eng" unicode="&#x14a;" horiz-adv-x="1493" 
d="M1004 -480q-79 0 -145 20t-86 29l15 152q32 -12 73.5 -30.5t105.5 -18.5q93 0 132.5 50t39.5 172v130l-784 1156v-1180h-156v1446h146l793 -1169v1169h156v-1581q0 -113 -26.5 -190t-89.5 -116t-174 -39z" />
    <glyph glyph-name="eng" unicode="&#x14b;" horiz-adv-x="1163" 
d="M738 -332q-78 0 -97 5.5t-19 14.5v104l94 3q70 3 100.5 37t30.5 113v769q0 97 -48.5 156.5t-162.5 59.5q-81 0 -161 -43.5t-158 -119.5v-767h-157l2 1034h149v-157q77 65 138 104t118.5 56t121.5 17q148 0 231 -81.5t83 -213.5v-805q0 -90 -29.5 -154t-89 -98t-146.5 -34
z" />
    <glyph glyph-name="Omacron" unicode="&#x14c;" horiz-adv-x="1453" 
d="M729 -20q-190 0 -328.5 86.5t-214 251.5t-75.5 402q0 239 75.5 405.5t214.5 253.5t328 87t326.5 -87t212 -253t74.5 -406q0 -237 -74 -402t-211.5 -251.5t-327.5 -86.5zM729 120q142 0 240.5 64t149.5 197t51 338q0 208 -52 342.5t-150.5 200t-238.5 65.5t-239.5 -66
t-152.5 -201t-53 -341t53 -338.5t152.5 -196.5t239.5 -64zM446 1655v115h568v-115h-568z" />
    <glyph glyph-name="omacron" unicode="&#x14d;" horiz-adv-x="1125" 
d="M565 -20q-141 0 -246 60.5t-163 179.5t-58 293q0 162 53 284t157.5 189.5t256.5 67.5q140 0 244 -61.5t161.5 -182t57.5 -297.5q0 -158 -52.5 -278t-155 -187.5t-255.5 -67.5zM565 106q97 0 166 48t105 140t36 223q0 118 -31.5 211t-99.5 146.5t-176 53.5
q-98 0 -168 -47.5t-106.5 -139.5t-36.5 -224q0 -118 32 -210.5t101 -146.5t178 -54zM279 1243v115h568v-115h-568z" />
    <glyph glyph-name="Obreve" unicode="&#x14e;" horiz-adv-x="1453" 
d="M729 -20q-190 0 -328.5 86.5t-214 251.5t-75.5 402q0 239 75.5 405.5t214.5 253.5t328 87t326.5 -87t212 -253t74.5 -406q0 -237 -74 -402t-211.5 -251.5t-327.5 -86.5zM729 120q142 0 240.5 64t149.5 197t51 338q0 208 -52 342.5t-150.5 200t-238.5 65.5t-239.5 -66
t-152.5 -201t-53 -341t53 -338.5t152.5 -196.5t239.5 -64zM728 1564q-71 0 -131 24t-101.5 70t-55.5 112h120q17 -47 61 -77t107 -30t108.5 30t63.5 77h120q-15 -64 -55.5 -110t-101 -71t-135.5 -25z" />
    <glyph glyph-name="obreve" unicode="&#x14f;" horiz-adv-x="1125" 
d="M565 -20q-141 0 -246 60.5t-163 179.5t-58 293q0 162 53 284t157.5 189.5t256.5 67.5q140 0 244 -61.5t161.5 -182t57.5 -297.5q0 -158 -52.5 -278t-155 -187.5t-255.5 -67.5zM565 106q97 0 166 48t105 140t36 223q0 118 -31.5 211t-99.5 146.5t-176 53.5
q-98 0 -168 -47.5t-106.5 -139.5t-36.5 -224q0 -118 32 -210.5t101 -146.5t178 -54zM562 1152q-71 0 -131 24t-101.5 70t-55.5 112h120q17 -47 61 -77t107 -30t108.5 30t63.5 77h120q-15 -64 -55.5 -110t-101 -71t-135.5 -25z" />
    <glyph glyph-name="Ohungarumlaut" unicode="&#x150;" horiz-adv-x="1453" 
d="M729 -20q-190 0 -328.5 86.5t-214 251.5t-75.5 402q0 239 75.5 405.5t214.5 253.5t328 87t326.5 -87t212 -253t74.5 -406q0 -237 -74 -402t-211.5 -251.5t-327.5 -86.5zM729 120q142 0 240.5 64t149.5 197t51 338q0 208 -52 342.5t-150.5 200t-238.5 65.5t-239.5 -66
t-152.5 -201t-53 -341t53 -338.5t152.5 -196.5t239.5 -64zM804 1567l233 291h177l-286 -291h-124zM545 1567l195 291h173l-244 -291h-124z" />
    <glyph glyph-name="ohungarumlaut" unicode="&#x151;" horiz-adv-x="1125" 
d="M565 -20q-141 0 -246 60.5t-163 179.5t-58 293q0 162 53 284t157.5 189.5t256.5 67.5q140 0 244 -61.5t161.5 -182t57.5 -297.5q0 -158 -52.5 -278t-155 -187.5t-255.5 -67.5zM565 106q97 0 166 48t105 140t36 223q0 118 -31.5 211t-99.5 146.5t-176 53.5
q-98 0 -168 -47.5t-106.5 -139.5t-36.5 -224q0 -118 32 -210.5t101 -146.5t178 -54zM637 1155l233 291h177l-286 -291h-124zM378 1155l195 291h173l-244 -291h-124z" />
    <glyph glyph-name="OE" unicode="&#x152;" horiz-adv-x="2231" 
d="M1352 660v-516l755 -1v-143h-911v251q-69 -133 -188 -202t-279 -69q-190 0 -328.5 86.5t-214 251.5t-75.5 402q0 239 75.5 405.5t214.5 253.5t328 87q160 0 279 -69t188 -203v252h890l-1 -140h-732v-506h666v-140h-667zM729 120q142 0 240.5 64t149.5 197t51 338
q0 208 -52 342.5t-150.5 200t-238.5 65.5t-239.5 -66t-152.5 -201t-53 -341t53 -338.5t152.5 -196.5t239.5 -64z" />
    <glyph glyph-name="oe" unicode="&#x153;" horiz-adv-x="1903" 
d="M1795 545v-64h-753q-1 -104 33.5 -189t105.5 -136t179 -51q106 0 182 49.5t95 140.5h150q-19 -104 -83 -174t-153.5 -105.5t-187.5 -35.5q-140 0 -245.5 64.5t-160.5 184.5q-49 -116 -146.5 -182.5t-245.5 -66.5q-141 0 -246 60.5t-163 179.5t-58 293q0 162 53 284
t157.5 189.5t256.5 67.5q137 0 238.5 -62t153.5 -188q52 119 152 184.5t241 65.5q143 0 242 -61.5t151 -175.5t52 -272zM565 106q97 0 166 48t105 140t36 223q0 118 -31.5 211t-99.5 146.5t-176 53.5q-98 0 -168 -47.5t-106.5 -139.5t-36.5 -224q0 -118 32 -210.5
t101 -146.5t178 -54zM1043 592h600q0 96 -32 173t-97.5 122t-165.5 45q-105 0 -173 -50.5t-100.5 -128.5t-31.5 -161z" />
    <glyph glyph-name="Racute" unicode="&#x154;" horiz-adv-x="1342" 
d="M199 0v1446h546q152 0 255.5 -45.5t156 -131.5t52.5 -208q0 -118 -43.5 -196.5t-109.5 -125t-136 -69.5l289 -670h-167l-272 641h-415v-641h-156zM355 775h328q176 0 270.5 67.5t94.5 207.5q0 135 -83 199.5t-232 64.5h-378v-539zM580 1567l206 291h186l-268 -291h-124z
" />
    <glyph glyph-name="racute" unicode="&#x155;" horiz-adv-x="770" 
d="M160 0v1034h148v-187q26 73 73.5 118.5t107 67t120.5 21.5q25 0 49 -3.5t38 -11.5v-152q-16 8 -42.5 11t-44.5 3q-55 3 -107 -8t-94.5 -39t-67 -75t-24.5 -115v-664h-156zM342 1155l206 291h186l-268 -291h-124z" />
    <glyph glyph-name="uni0156" unicode="&#x156;" horiz-adv-x="1342" 
d="M199 0v1446h546q152 0 255.5 -45.5t156 -131.5t52.5 -208q0 -118 -43.5 -196.5t-109.5 -125t-136 -69.5l289 -670h-167l-272 641h-415v-641h-156zM355 775h328q176 0 270.5 67.5t94.5 207.5q0 135 -83 199.5t-232 64.5h-378v-539zM566 -364l79 118l-58 3v145h171v-122
l-123 -144h-69z" />
    <glyph glyph-name="uni0157" unicode="&#x157;" horiz-adv-x="770" 
d="M160 0v1034h148v-187q26 73 73.5 118.5t107 67t120.5 21.5q25 0 49 -3.5t38 -11.5v-152q-16 8 -42.5 11t-44.5 3q-55 3 -107 -8t-94.5 -39t-67 -75t-24.5 -115v-664h-156zM134 -364l79 118l-58 3v145h171v-122l-123 -144h-69z" />
    <glyph glyph-name="Rcaron" unicode="&#x158;" horiz-adv-x="1342" 
d="M199 0v1446h546q152 0 255.5 -45.5t156 -131.5t52.5 -208q0 -118 -43.5 -196.5t-109.5 -125t-136 -69.5l289 -670h-167l-272 641h-415v-641h-156zM355 775h328q176 0 270.5 67.5t94.5 207.5q0 135 -83 199.5t-232 64.5h-378v-539zM598 1567l-249 216h152l152 -131
l142 131h160l-243 -216h-114z" />
    <glyph glyph-name="rcaron" unicode="&#x159;" horiz-adv-x="770" 
d="M160 0v1034h148v-187q26 73 73.5 118.5t107 67t120.5 21.5q25 0 49 -3.5t38 -11.5v-152q-16 8 -42.5 11t-44.5 3q-55 3 -107 -8t-94.5 -39t-67 -75t-24.5 -115v-664h-156zM360 1155l-249 216h152l152 -131l142 131h160l-243 -216h-114z" />
    <glyph glyph-name="Sacute" unicode="&#x15a;" horiz-adv-x="1328" 
d="M674 -20q-104 0 -197.5 25.5t-169 75.5t-124 123.5t-63.5 171.5h165q20 -87 76 -145.5t139 -88t180 -29.5q99 0 181 32t131 91t49 142q0 89 -57 146t-181 91l-304 81q-98 26 -173.5 70t-118.5 117t-43 182q0 119 66 209t179.5 140t256.5 50q168 0 281.5 -59t172 -154
t58.5 -201h-162q-10 105 -61.5 166t-128.5 88t-165 27q-162 0 -247 -75t-85 -180q0 -96 60.5 -149.5t173.5 -83.5l302 -80q125 -31 198.5 -87.5t105.5 -130t32 -157.5q0 -117 -65 -209.5t-183 -145.5t-279 -53zM585 1567l206 291h186l-268 -291h-124z" />
    <glyph glyph-name="sacute" unicode="&#x15b;" horiz-adv-x="1001" 
d="M521 -20q-108 0 -198.5 33.5t-149.5 103t-73 177.5h145q13 -62 50.5 -105t95 -65.5t129.5 -22.5q110 0 177.5 42.5t67.5 130.5q0 61 -34.5 98t-105.5 54l-222 57q-122 31 -194.5 93.5t-72.5 174.5q0 89 42.5 157t127.5 107t213 39q162 0 262.5 -73t105.5 -218h-141
q-10 79 -68.5 125.5t-159.5 46.5q-105 0 -171 -43t-66 -133q0 -60 45.5 -93.5t131.5 -55.5l218 -57q68 -18 112.5 -47.5t71 -66t37.5 -77.5t11 -79q0 -93 -44.5 -161t-131 -105t-211.5 -37zM448 1155l206 291h186l-268 -291h-124z" />
    <glyph glyph-name="Scircumflex" unicode="&#x15c;" horiz-adv-x="1328" 
d="M674 -20q-104 0 -197.5 25.5t-169 75.5t-124 123.5t-63.5 171.5h165q20 -87 76 -145.5t139 -88t180 -29.5q99 0 181 32t131 91t49 142q0 89 -57 146t-181 91l-304 81q-98 26 -173.5 70t-118.5 117t-43 182q0 119 66 209t179.5 140t256.5 50q168 0 281.5 -59t172 -154
t58.5 -201h-162q-10 105 -61.5 166t-128.5 88t-165 27q-162 0 -247 -75t-85 -180q0 -96 60.5 -149.5t173.5 -83.5l302 -80q125 -31 198.5 -87.5t105.5 -130t32 -157.5q0 -117 -65 -209.5t-183 -145.5t-279 -53zM356 1567l247 215h114l243 -215h-160l-142 127l-152 -127h-150
z" />
    <glyph glyph-name="scircumflex" unicode="&#x15d;" horiz-adv-x="1001" 
d="M521 -20q-108 0 -198.5 33.5t-149.5 103t-73 177.5h145q13 -62 50.5 -105t95 -65.5t129.5 -22.5q110 0 177.5 42.5t67.5 130.5q0 61 -34.5 98t-105.5 54l-222 57q-122 31 -194.5 93.5t-72.5 174.5q0 89 42.5 157t127.5 107t213 39q162 0 262.5 -73t105.5 -218h-141
q-10 79 -68.5 125.5t-159.5 46.5q-105 0 -171 -43t-66 -133q0 -60 45.5 -93.5t131.5 -55.5l218 -57q68 -18 112.5 -47.5t71 -66t37.5 -77.5t11 -79q0 -93 -44.5 -161t-131 -105t-211.5 -37zM219 1155l247 215h114l243 -215h-160l-142 127l-152 -127h-150z" />
    <glyph glyph-name="Scedilla" unicode="&#x15e;" horiz-adv-x="1328" 
d="M612 -408q-51 0 -95.5 12t-83.5 37l29 72q25 -19 56.5 -32.5t75.5 -13.5q57 0 83.5 20t26.5 56q0 44 -37 65.5t-120 23.5q-9 0 -11 3t0 9l73 166h89l-48 -121q66 -4 104 -26t53.5 -54t15.5 -65q0 -50 -29 -83.5t-77 -51t-105 -17.5zM674 -20q-104 0 -197.5 25.5
t-169 75.5t-124 123.5t-63.5 171.5h165q20 -87 76 -145.5t139 -88t180 -29.5q99 0 181 32t131 91t49 142q0 89 -57 146t-181 91l-304 81q-98 26 -173.5 70t-118.5 117t-43 182q0 119 66 209t179.5 140t256.5 50q168 0 281.5 -59t172 -154t58.5 -201h-162q-10 105 -61.5 166
t-128.5 88t-165 27q-162 0 -247 -75t-85 -180q0 -96 60.5 -149.5t173.5 -83.5l302 -80q125 -31 198.5 -87.5t105.5 -130t32 -157.5q0 -117 -65 -209.5t-183 -145.5t-279 -53z" />
    <glyph glyph-name="scedilla" unicode="&#x15f;" horiz-adv-x="1001" 
d="M465 -408q-51 0 -95.5 12t-83.5 37l29 72q25 -19 56.5 -32.5t75.5 -13.5q57 0 83.5 20t26.5 56q0 44 -37 65.5t-120 23.5q-9 0 -11 3t0 9l73 166h89l-48 -121q66 -4 104 -26t53.5 -54t15.5 -65q0 -50 -29 -83.5t-77 -51t-105 -17.5zM521 -20q-108 0 -198.5 33.5
t-149.5 103t-73 177.5h145q13 -62 50.5 -105t95 -65.5t129.5 -22.5q110 0 177.5 42.5t67.5 130.5q0 61 -34.5 98t-105.5 54l-222 57q-122 31 -194.5 93.5t-72.5 174.5q0 89 42.5 157t127.5 107t213 39q162 0 262.5 -73t105.5 -218h-141q-10 79 -68.5 125.5t-159.5 46.5
q-105 0 -171 -43t-66 -133q0 -60 45.5 -93.5t131.5 -55.5l218 -57q68 -18 112.5 -47.5t71 -66t37.5 -77.5t11 -79q0 -93 -44.5 -161t-131 -105t-211.5 -37z" />
    <glyph glyph-name="Scaron" unicode="&#x160;" horiz-adv-x="1328" 
d="M674 -20q-104 0 -197.5 25.5t-169 75.5t-124 123.5t-63.5 171.5h165q20 -87 76 -145.5t139 -88t180 -29.5q99 0 181 32t131 91t49 142q0 89 -57 146t-181 91l-304 81q-98 26 -173.5 70t-118.5 117t-43 182q0 119 66 209t179.5 140t256.5 50q168 0 281.5 -59t172 -154
t58.5 -201h-162q-10 105 -61.5 166t-128.5 88t-165 27q-162 0 -247 -75t-85 -180q0 -96 60.5 -149.5t173.5 -83.5l302 -80q125 -31 198.5 -87.5t105.5 -130t32 -157.5q0 -117 -65 -209.5t-183 -145.5t-279 -53zM603 1567l-249 216h152l152 -131l142 131h160l-243 -216h-114z
" />
    <glyph glyph-name="scaron" unicode="&#x161;" horiz-adv-x="1001" 
d="M521 -20q-108 0 -198.5 33.5t-149.5 103t-73 177.5h145q13 -62 50.5 -105t95 -65.5t129.5 -22.5q110 0 177.5 42.5t67.5 130.5q0 61 -34.5 98t-105.5 54l-222 57q-122 31 -194.5 93.5t-72.5 174.5q0 89 42.5 157t127.5 107t213 39q162 0 262.5 -73t105.5 -218h-141
q-10 79 -68.5 125.5t-159.5 46.5q-105 0 -171 -43t-66 -133q0 -60 45.5 -93.5t131.5 -55.5l218 -57q68 -18 112.5 -47.5t71 -66t37.5 -77.5t11 -79q0 -93 -44.5 -161t-131 -105t-211.5 -37zM466 1155l-249 216h152l152 -131l142 131h160l-243 -216h-114z" />
    <glyph glyph-name="uni0162" unicode="&#x162;" horiz-adv-x="1174" 
d="M572 -405q-51 0 -95.5 12t-83.5 37l28 72q25 -19 56.5 -32.5t76.5 -13.5q57 0 83.5 20t26.5 56q0 44 -37 65.5t-120 23.5q-9 0 -11.5 3t0.5 9l72 166h89l-48 -121q67 -4 104.5 -26t53 -54t15.5 -65q0 -50 -29 -83.5t-76.5 -51t-104.5 -17.5zM523 0v1301h-474v145h1077
v-145h-446v-1301h-157z" />
    <glyph glyph-name="uni0163" unicode="&#x163;" horiz-adv-x="764" 
d="M422 -403q-51 0 -95.5 12t-83.5 37l29 71q25 -19 56.5 -32.5t75.5 -13.5q57 0 83.5 20t26.5 56q0 44 -37 65.5t-120 24.5q-9 0 -11 2.5t0 9.5l73 166h89l-48 -122q66 -4 104 -26t53.5 -54t15.5 -64q0 -50 -29 -84t-77 -51t-105 -17zM521 -4q-99 0 -153.5 28t-76.5 83
t-22 138v672h-168v117h172l37 298h116v-297h234v-118h-234v-667q0 -60 11.5 -87.5t41 -35t82.5 -7.5h106v-108q-19 -7 -56.5 -11.5t-89.5 -4.5z" />
    <glyph glyph-name="Tcaron" unicode="&#x164;" horiz-adv-x="1174" 
d="M523 0v1301h-474v145h1077v-145h-446v-1301h-157zM553 1567l-249 216h152l152 -131l142 131h160l-243 -216h-114z" />
    <glyph glyph-name="tcaron" unicode="&#x165;" horiz-adv-x="830" 
d="M521 -4q-99 0 -153.5 28t-76.5 83t-22 138v672h-168v117h172l37 298h116v-297h234v-118h-234v-667q0 -60 11.5 -87.5t41 -35t82.5 -7.5h106v-108q-19 -7 -56.5 -11.5t-89.5 -4.5zM514 1136l75 179l-50 10v186h140v-195l-77 -180h-88z" />
    <glyph glyph-name="Tbar" unicode="&#x166;" horiz-adv-x="1174" 
d="M213 664v130h749v-130h-749zM523 0v1301h-474v145h1077v-145h-446v-1301h-157z" />
    <glyph glyph-name="tbar" unicode="&#x167;" horiz-adv-x="764" 
d="M108 552v104h544v-104h-544zM521 -4q-99 0 -153.5 28t-76.5 83t-22 138v672h-168v117h172l37 298h116v-297h234v-118h-234v-667q0 -60 11.5 -87.5t41 -35t82.5 -7.5h106v-108q-19 -7 -56.5 -11.5t-89.5 -4.5z" />
    <glyph glyph-name="Utilde" unicode="&#x168;" horiz-adv-x="1388" 
d="M713 -20q-181 0 -294.5 59.5t-166.5 177.5t-53 291v938h163v-967q0 -180 89.5 -270t261.5 -90q116 0 196 39.5t121.5 119.5t41.5 201v967h157v-960q0 -164 -54.5 -277t-168.5 -171t-293 -58zM461 1639l-31 98q32 29 68.5 49.5t90.5 20.5q47 0 88.5 -13.5t82 -27
t84.5 -13.5q43 0 73 15t60 37l31 -108q-25 -17 -64 -35.5t-101 -18.5q-53 0 -91.5 12.5t-74.5 25t-80 12.5q-49 0 -78 -16.5t-58 -37.5z" />
    <glyph glyph-name="utilde" unicode="&#x169;" horiz-adv-x="1153" 
d="M540 -20q-83 1 -155 23.5t-126.5 67t-85 111t-30.5 154.5v698h156v-684q0 -109 66 -176.5t203 -67.5q122 0 196 63.5t74 192.5v672h155v-1034h-126l-16 196q-18 -74 -62.5 -122t-108 -71.5t-140.5 -22.5zM317 1227l-31 98q32 29 68.5 49.5t90.5 20.5q47 0 88.5 -13.5
t82 -27t84.5 -13.5q43 0 73 15t60 37l31 -108q-25 -17 -64 -35.5t-101 -18.5q-53 0 -91.5 12.5t-74.5 25t-80 12.5q-49 0 -78 -16.5t-58 -37.5z" />
    <glyph glyph-name="Umacron" unicode="&#x16a;" horiz-adv-x="1388" 
d="M713 -20q-181 0 -294.5 59.5t-166.5 177.5t-53 291v938h163v-967q0 -180 89.5 -270t261.5 -90q116 0 196 39.5t121.5 119.5t41.5 201v967h157v-960q0 -164 -54.5 -277t-168.5 -171t-293 -58zM432 1655v115h568v-115h-568z" />
    <glyph glyph-name="umacron" unicode="&#x16b;" horiz-adv-x="1153" 
d="M540 -20q-83 1 -155 23.5t-126.5 67t-85 111t-30.5 154.5v698h156v-684q0 -109 66 -176.5t203 -67.5q122 0 196 63.5t74 192.5v672h155v-1034h-126l-16 196q-18 -74 -62.5 -122t-108 -71.5t-140.5 -22.5zM287 1243v115h568v-115h-568z" />
    <glyph glyph-name="Ubreve" unicode="&#x16c;" horiz-adv-x="1388" 
d="M713 -20q-181 0 -294.5 59.5t-166.5 177.5t-53 291v938h163v-967q0 -180 89.5 -270t261.5 -90q116 0 196 39.5t121.5 119.5t41.5 201v967h157v-960q0 -164 -54.5 -277t-168.5 -171t-293 -58zM714 1564q-71 0 -131 24t-101.5 70t-55.5 112h120q17 -47 61 -77t107 -30
t108.5 30t63.5 77h120q-15 -64 -55.5 -110t-101 -71t-135.5 -25z" />
    <glyph glyph-name="ubreve" unicode="&#x16d;" horiz-adv-x="1153" 
d="M540 -20q-83 1 -155 23.5t-126.5 67t-85 111t-30.5 154.5v698h156v-684q0 -109 66 -176.5t203 -67.5q122 0 196 63.5t74 192.5v672h155v-1034h-126l-16 196q-18 -74 -62.5 -122t-108 -71.5t-140.5 -22.5zM570 1152q-71 0 -131 24t-101.5 70t-55.5 112h120q17 -47 61 -77
t107 -30t108.5 30t63.5 77h120q-15 -64 -55.5 -110t-101 -71t-135.5 -25z" />
    <glyph glyph-name="Uring" unicode="&#x16e;" horiz-adv-x="1388" 
d="M713 -20q-181 0 -294.5 59.5t-166.5 177.5t-53 291v938h163v-967q0 -180 89.5 -270t261.5 -90q116 0 196 39.5t121.5 119.5t41.5 201v967h157v-960q0 -164 -54.5 -277t-168.5 -171t-293 -58zM717 1571q-85 0 -144 59.5t-59 147.5q0 81 60 138.5t143 57.5q57 0 103 -27
t73.5 -72t27.5 -101q0 -86 -59 -144.5t-145 -58.5zM715 1662q45 0 76.5 33.5t31.5 77.5q0 48 -31.5 78.5t-76.5 30.5q-44 0 -77 -30.5t-33 -78.5q0 -44 33 -77.5t77 -33.5z" />
    <glyph glyph-name="uring" unicode="&#x16f;" horiz-adv-x="1153" 
d="M540 -20q-83 1 -155 23.5t-126.5 67t-85 111t-30.5 154.5v698h156v-684q0 -109 66 -176.5t203 -67.5q122 0 196 63.5t74 192.5v672h155v-1034h-126l-16 196q-18 -74 -62.5 -122t-108 -71.5t-140.5 -22.5zM572 1159q-85 0 -144 59.5t-59 147.5q0 81 60 138.5t143 57.5
q57 0 103 -27t73.5 -72t27.5 -101q0 -86 -59 -144.5t-145 -58.5zM570 1250q45 0 76.5 33.5t31.5 77.5q0 48 -31.5 78.5t-76.5 30.5q-44 0 -77 -30.5t-33 -78.5q0 -44 33 -77.5t77 -33.5z" />
    <glyph glyph-name="Uhungarumlaut" unicode="&#x170;" horiz-adv-x="1388" 
d="M713 -20q-181 0 -294.5 59.5t-166.5 177.5t-53 291v938h163v-967q0 -180 89.5 -270t261.5 -90q116 0 196 39.5t121.5 119.5t41.5 201v967h157v-960q0 -164 -54.5 -277t-168.5 -171t-293 -58zM790 1567l233 291h177l-286 -291h-124zM531 1567l195 291h173l-244 -291h-124z
" />
    <glyph glyph-name="uhungarumlaut" unicode="&#x171;" horiz-adv-x="1153" 
d="M540 -20q-83 1 -155 23.5t-126.5 67t-85 111t-30.5 154.5v698h156v-684q0 -109 66 -176.5t203 -67.5q122 0 196 63.5t74 192.5v672h155v-1034h-126l-16 196q-18 -74 -62.5 -122t-108 -71.5t-140.5 -22.5zM645 1155l233 291h177l-286 -291h-124zM386 1155l195 291h173
l-244 -291h-124z" />
    <glyph glyph-name="Uogonek" unicode="&#x172;" horiz-adv-x="1388" 
d="M745 -334q-96 0 -144 42.5t-48 113.5q0 61 43.5 109t163.5 85l116 -13q-100 -43 -146 -81t-46 -89q0 -37 23 -56.5t75 -19.5q48 0 86 12.5t57 22.5v-87q-24 -14 -73.5 -26.5t-106.5 -12.5zM713 -20q-181 0 -294.5 59.5t-166.5 177.5t-53 291v938h163v-967
q0 -180 89.5 -270t261.5 -90q116 0 196 39.5t121.5 119.5t41.5 201v967h157v-960q0 -164 -54.5 -277t-168.5 -171t-293 -58z" />
    <glyph glyph-name="uogonek" unicode="&#x173;" horiz-adv-x="1153" 
d="M540 -20q-83 1 -155 23.5t-126.5 67t-85 111t-30.5 154.5v698h156v-684q0 -109 66 -176.5t203 -67.5q122 0 196 63.5t74 192.5v672h155v-1034h-126l-16 196q-18 -74 -62.5 -122t-108 -71.5t-140.5 -22.5zM855 -332q-97 0 -145 42.5t-48 114.5q0 61 43.5 109t164.5 85
l116 -14q-100 -43 -146 -81t-46 -89q0 -37 22.5 -56t74.5 -19q49 0 86.5 12t56.5 23v-88q-24 -14 -73 -26.5t-106 -12.5z" />
    <glyph glyph-name="Wcircumflex" unicode="&#x174;" horiz-adv-x="1899" 
d="M462 0l-413 1446h159l334 -1205l342 1205h127l339 -1205l342 1205h158l-420 -1446h-154l-330 1169l-335 -1169h-149zM645 1567l247 215h114l243 -215h-160l-142 127l-152 -127h-150z" />
    <glyph glyph-name="wcircumflex" unicode="&#x175;" horiz-adv-x="1555" 
d="M374 0l-315 1034h147l248 -836h18l244 836h121l256 -834h19l236 834h149l-307 -1034h-168l-247 801l-233 -801h-168zM483 1155l247 215h114l243 -215h-160l-142 127l-152 -127h-150z" />
    <glyph glyph-name="Ycircumflex" unicode="&#x176;" horiz-adv-x="1182" 
d="M516 0v619l-491 827h171l398 -686l392 686h171l-486 -829v-617h-155zM301 1570l247 215h114l243 -215h-160l-142 127l-152 -127h-150z" />
    <glyph glyph-name="ycircumflex" unicode="&#x177;" horiz-adv-x="1055" 
d="M248 -330q-87 0 -118.5 11.5l-31.5 11.5v102l107 -1q55 -2 92 8t60.5 27.5t37 39t21.5 42.5l41 109l-404 1014h159l321 -832l317 832h152l-440 -1131q-36 -90 -83 -140.5t-105 -71.5t-126 -21zM233 1155l247 215h114l243 -215h-160l-142 127l-152 -127h-150z" />
    <glyph glyph-name="Ydieresis" unicode="&#x178;" horiz-adv-x="1182" 
d="M516 0v619l-491 827h171l398 -686l392 686h171l-486 -829v-617h-155zM710 1698l1 163h156l-1 -163h-156zM342 1698l1 163h156l-1 -163h-156z" />
    <glyph glyph-name="Zacute" unicode="&#x179;" horiz-adv-x="1256" 
d="M133 0v91l808 1217h-779v138h994v-87l-813 -1219h810v-140h-1020zM592 1567l206 291h186l-268 -291h-124z" />
    <glyph glyph-name="zacute" unicode="&#x17a;" horiz-adv-x="953" 
d="M80 0v103l604 814h-579v117h762v-102l-602 -814h608v-118h-793zM413 1155l206 291h186l-268 -291h-124z" />
    <glyph glyph-name="Zdotaccent" unicode="&#x17b;" horiz-adv-x="1256" 
d="M133 0v91l808 1217h-779v138h994v-87l-813 -1219h810v-140h-1020zM584 1695v163h163v-163h-163z" />
    <glyph glyph-name="zdotaccent" unicode="&#x17c;" horiz-adv-x="953" 
d="M80 0v103l604 814h-579v117h762v-102l-602 -814h608v-118h-793zM405 1283v163h163v-163h-163z" />
    <glyph glyph-name="Zcaron" unicode="&#x17d;" horiz-adv-x="1256" 
d="M133 0v91l808 1217h-779v138h994v-87l-813 -1219h810v-140h-1020zM610 1567l-249 216h152l152 -131l142 131h160l-243 -216h-114z" />
    <glyph glyph-name="zcaron" unicode="&#x17e;" horiz-adv-x="953" 
d="M80 0v103l604 814h-579v117h762v-102l-602 -814h608v-118h-793zM431 1155l-249 216h152l152 -131l142 131h160l-243 -216h-114z" />
    <glyph glyph-name="uni018F" unicode="&#x18f;" horiz-adv-x="1451" 
d="M728 -20q-187 0 -325 85.5t-213.5 259.5t-75.5 439h1043q0 261 -110 405.5t-321 144.5q-106 0 -187 -33t-136 -86t-83 -114.5t-28 -118.5h-181q0 83 43 171t123.5 163.5t194 122.5t256.5 47q192 0 329 -88t210 -253.5t73 -398.5q0 -246 -75 -412t-212.5 -250t-324.5 -84z
M728 127q141 0 235.5 66t142.5 181t50 260h-853q0 -146 48.5 -261t143 -180.5t233.5 -65.5z" />
    <glyph glyph-name="florin" unicode="&#x192;" horiz-adv-x="878" 
d="M-160 -333l17 113l115 2q71 1 106.5 36.5t50.5 124.5l171 974h-167l21 117h166l29 164q21 122 95.5 185t191.5 63h182l-18 -114h-150q-56 0 -96.5 -40.5t-53.5 -107.5l-26 -150h264l-21 -117h-261l-173 -992q-22 -122 -94 -190t-195 -68h-154z" />
    <glyph glyph-name="Ohorn" unicode="&#x1a0;" horiz-adv-x="1544" 
d="M729 -20q-190 0 -328.5 86.5t-214 251.5t-75.5 402q0 239 75.5 405.5t214.5 253.5t328 87q140 0 252 -47.5t191 -139.5q38 1 65 10t44 30t26.5 59t11.5 98h135q0 -95 -22 -159t-69 -98t-123 -39q50 -88 76 -203t26 -257q0 -237 -74 -402t-211.5 -251.5t-327.5 -86.5z
M729 120q142 0 240.5 64t149.5 197t51 338q0 208 -52 342.5t-150.5 200t-238.5 65.5t-239.5 -66t-152.5 -201t-53 -341t53 -338.5t152.5 -196.5t239.5 -64z" />
    <glyph glyph-name="ohorn" unicode="&#x1a1;" horiz-adv-x="1182" 
d="M565 -20q-141 0 -246 60.5t-163 179.5t-58 293q0 162 53 284t157.5 189.5t256.5 67.5q105 0 189.5 -34.5t145.5 -101.5q43 5 69 22.5t39 59t16 114.5h135q0 -91 -20 -153.5t-63 -97t-113 -43.5q65 -121 65 -307q0 -158 -52.5 -278t-155 -187.5t-255.5 -67.5zM565 106
q97 0 166 48t105 140t36 223q0 118 -31.5 211t-99.5 146.5t-176 53.5q-98 0 -168 -47.5t-106.5 -139.5t-36.5 -224q0 -118 32 -210.5t101 -146.5t178 -54z" />
    <glyph glyph-name="Uhorn" unicode="&#x1af;" horiz-adv-x="1593" 
d="M713 -20q-181 0 -294.5 59.5t-166.5 177.5t-53 291v938h163v-967q0 -180 89.5 -270t261.5 -90q116 0 196 39.5t121.5 119.5t41.5 201v967h157v-167q46 3 72.5 21t40.5 60t17 116h135q0 -105 -27 -172.5t-85 -97.5t-153 -26v-694q0 -164 -54.5 -277t-168.5 -171t-293 -58z
" />
    <glyph glyph-name="uhorn" unicode="&#x1b0;" horiz-adv-x="1273" 
d="M540 -20q-83 1 -155 23.5t-126.5 67t-85 111t-30.5 154.5v698h156v-684q0 -109 66 -176.5t203 -67.5q122 0 196 63.5t74 192.5v672h155v-118q50 1 79.5 18.5t44 60t17.5 119.5h135q0 -107 -28 -175t-88.5 -97.5t-159.5 -23.5v-818h-126l-16 196q-18 -74 -62.5 -122
t-108 -71.5t-140.5 -22.5z" />
    <glyph glyph-name="uni01D4" unicode="&#x1d4;" horiz-adv-x="1153" 
d="M540 -20q-83 1 -155 23.5t-126.5 67t-85 111t-30.5 154.5v698h156v-684q0 -109 66 -176.5t203 -67.5q122 0 196 63.5t74 192.5v672h155v-1034h-126l-16 196q-18 -74 -62.5 -122t-108 -71.5t-140.5 -22.5zM516 1155l-249 216h152l152 -131l142 131h160l-243 -216h-114z
" />
    <glyph glyph-name="uni01EA" unicode="&#x1ea;" horiz-adv-x="1453" 
d="M766 -335q-97 0 -145 42.5t-48 113.5q0 61 43.5 109t164.5 85l116 -13q-100 -43 -146 -81t-46 -89q0 -37 22.5 -56.5t74.5 -19.5q49 0 86.5 12.5t56.5 22.5v-87q-24 -14 -73 -26.5t-106 -12.5zM729 -20q-190 0 -328.5 86.5t-214 251.5t-75.5 402q0 239 75.5 405.5
t214.5 253.5t328 87t326.5 -87t212 -253t74.5 -406q0 -237 -74 -402t-211.5 -251.5t-327.5 -86.5zM729 120q142 0 240.5 64t149.5 197t51 338q0 208 -52 342.5t-150.5 200t-238.5 65.5t-239.5 -66t-152.5 -201t-53 -341t53 -338.5t152.5 -196.5t239.5 -64z" />
    <glyph glyph-name="uni01EB" unicode="&#x1eb;" horiz-adv-x="1125" 
d="M605 -329q-96 0 -144 42.5t-48 113.5q0 61 43.5 109t163.5 85l116 -13q-100 -43 -146 -81t-46 -89q0 -37 23 -56.5t75 -19.5q48 0 86 12.5t57 22.5v-87q-24 -14 -73.5 -26.5t-106.5 -12.5zM565 -20q-141 0 -246 60.5t-163 179.5t-58 293q0 162 53 284t157.5 189.5
t256.5 67.5q140 0 244 -61.5t161.5 -182t57.5 -297.5q0 -158 -52.5 -278t-155 -187.5t-255.5 -67.5zM565 106q97 0 166 48t105 140t36 223q0 118 -31.5 211t-99.5 146.5t-176 53.5q-98 0 -168 -47.5t-106.5 -139.5t-36.5 -224q0 -118 32 -210.5t101 -146.5t178 -54z" />
    <glyph glyph-name="Aringacute" unicode="&#x1fa;" horiz-adv-x="1412" 
d="M832 1880l-58 -136q58 -20 94.5 -69t36.5 -114q0 -85 -58 -141t-142 -56t-141.5 57.5t-57.5 143.5q0 73 48 125t118 62l31 128h129zM703 1448q45 0 77 34t32 77q0 48 -32 79t-77 31q-43 0 -76.5 -31t-33.5 -79q0 -43 33.5 -77t76.5 -34zM90 0l525 1446h183l524 -1446
h-161l-149 412h-612l-150 -412h-160zM444 560h523l-262 732z" />
    <glyph glyph-name="aringacute" unicode="&#x1fb;" horiz-adv-x="1099" 
d="M683 1494l-58 -137q58 -20 94.5 -69t36.5 -113q0 -86 -58 -141.5t-142 -55.5t-141.5 57t-57.5 144q0 72 48 124t118 62l31 129h129zM554 1062q45 0 77 34t32 77q0 48 -32 79t-77 31q-43 0 -76.5 -31t-33.5 -79q0 -43 33.5 -77t76.5 -34zM446 -20q-101 0 -177.5 35.5
t-119 101.5t-42.5 159q0 172 118 255t381 90l199 6v86q0 101 -61 161.5t-189 59.5q-96 0 -166.5 -44.5t-89.5 -142.5h-142q6 97 54.5 165.5t137.5 105t213 36.5q129 0 216.5 -37.5t132.5 -112t45 -184.5v-720h-134l-11 199q-62 -123 -157.5 -171t-207.5 -48zM490 97
q55 0 111 20t102 55t74 78t28 88v184l-166 -3q-131 -2 -215 -26t-124 -73.5t-40 -129.5q0 -91 64 -142t166 -51z" />
    <glyph glyph-name="AEacute" unicode="&#x1fc;" horiz-adv-x="1913" 
d="M0 0l807 1446h957l-1 -138h-690v-509h624v-137h-624v-523h716v-139h-893v418h-502l-234 -418h-160zM458 560h438v768zM1198 1567l206 291h186l-268 -291h-124z" />
    <glyph glyph-name="aeacute" unicode="&#x1fd;" horiz-adv-x="1828" 
d="M446 -20q-101 0 -177.5 35.5t-119 101.5t-42.5 159q0 172 118 255.5t381 89.5l200 6v86q0 106 -69 164t-182 57q-95 0 -166.5 -47t-89.5 -140h-142q5 85 54 155t138.5 111t212.5 41q131 0 223 -49.5t131 -138.5q56 90 147 139t212 49q143 0 242 -61.5t151 -175.5t52 -272
v-64h-753q0 -104 34 -189t105 -136t180 -51q105 0 181 49.5t95 140.5h150q-19 -104 -82.5 -174t-153 -105.5t-188.5 -35.5q-143 0 -252.5 65t-167.5 186q-22 -77 -85 -133t-150.5 -87t-186.5 -31zM490 97q95 0 165 44t108.5 108.5t38.5 125.5l-1 147l-162 -3
q-131 -2 -214.5 -26t-124 -73.5t-40.5 -129.5q0 -91 64 -142t166 -51zM968 592h600q0 96 -32 173t-97 122t-165 45q-106 0 -173.5 -50.5t-100.5 -128.5t-32 -161zM818 1155l206 291h186l-268 -291h-124z" />
    <glyph glyph-name="Oslashacute" unicode="&#x1fe;" horiz-adv-x="1487" 
d="M152 -26l-92 88l172 191q-52 89 -79 205.5t-27 258.5q0 240 75 407t213 254.5t328 87.5q135 0 243 -44t187 -129l161 178l92 -87l-176 -196q53 -89 80 -207t27 -261q0 -237 -74 -402t-212.5 -251.5t-328.5 -86.5q-135 0 -243.5 43t-185.5 126zM744 119q203 0 306.5 134
t109.5 413q3 110 -9.5 204.5t-39.5 176.5l-689 -781q107 -147 322 -147zM369 396l691 781q-53 77 -132.5 114t-185.5 37q-204 0 -311 -139.5t-112 -424.5q-2 -108 10.5 -199.5t39.5 -168.5zM668 1567l206 291h186l-268 -291h-124z" />
    <glyph glyph-name="oslashacute" unicode="&#x1ff;" horiz-adv-x="1158" 
d="M107 -10l-69 73l1008 978l69 -73zM576 -20q-140 0 -245.5 60.5t-163.5 179.5t-58 293q0 162 53.5 284t157.5 189.5t257 67.5q140 0 243.5 -61.5t161 -182t57.5 -297.5q0 -158 -52 -278t-154.5 -187.5t-256.5 -67.5zM577 106q97 0 165.5 48t105 140t36.5 223
q0 118 -32 211t-100 146.5t-175 53.5q-99 0 -168.5 -47.5t-106.5 -139.5t-37 -224q0 -118 32.5 -210.5t101.5 -146.5t178 -54zM505 1155l206 291h186l-268 -291h-124z" />
    <glyph glyph-name="uni0200" unicode="&#x200;" horiz-adv-x="1412" 
d="M90 0l525 1446h183l524 -1446h-161l-149 412h-612l-150 -412h-160zM444 560h523l-262 732zM514 1567l-286 291h177l233 -291h-124zM773 1567l-244 291h173l195 -291h-124z" />
    <glyph glyph-name="uni0201" unicode="&#x201;" horiz-adv-x="1099" 
d="M446 -20q-101 0 -177.5 35.5t-119 101.5t-42.5 159q0 172 118 255t381 90l199 6v86q0 101 -61 161.5t-189 59.5q-96 0 -166.5 -44.5t-89.5 -142.5h-142q6 97 54.5 165.5t137.5 105t213 36.5q129 0 216.5 -37.5t132.5 -112t45 -184.5v-720h-134l-11 199
q-62 -123 -157.5 -171t-207.5 -48zM490 97q55 0 111 20t102 55t74 78t28 88v184l-166 -3q-131 -2 -215 -26t-124 -73.5t-40 -129.5q0 -91 64 -142t166 -51zM370 1155l-286 291h177l233 -291h-124zM629 1155l-244 291h173l195 -291h-124z" />
    <glyph glyph-name="uni0202" unicode="&#x202;" horiz-adv-x="1412" 
d="M90 0l525 1446h183l524 -1446h-161l-149 412h-612l-150 -412h-160zM444 560h523l-262 732zM411 1627q15 67 56 113t101.5 69.5t130.5 23.5q75 0 136 -25t102 -71t54 -110h-119q-18 47 -64 77.5t-109 30.5t-106.5 -30.5t-60.5 -77.5h-121z" />
    <glyph glyph-name="uni0203" unicode="&#x203;" horiz-adv-x="1099" 
d="M446 -20q-101 0 -177.5 35.5t-119 101.5t-42.5 159q0 172 118 255t381 90l199 6v86q0 101 -61 161.5t-189 59.5q-96 0 -166.5 -44.5t-89.5 -142.5h-142q6 97 54.5 165.5t137.5 105t213 36.5q129 0 216.5 -37.5t132.5 -112t45 -184.5v-720h-134l-11 199
q-62 -123 -157.5 -171t-207.5 -48zM490 97q55 0 111 20t102 55t74 78t28 88v184l-166 -3q-131 -2 -215 -26t-124 -73.5t-40 -129.5q0 -91 64 -142t166 -51zM268 1215q15 67 56 113t101.5 69.5t130.5 23.5q75 0 136 -25t102 -71t54 -110h-119q-18 47 -64 77.5t-109 30.5
t-106.5 -30.5t-60.5 -77.5h-121z" />
    <glyph glyph-name="uni0204" unicode="&#x204;" horiz-adv-x="1234" 
d="M199 0v1446h889v-140h-733v-506h666v-140h-666v-516l755 -1v-143h-911zM455 1567l-286 291h177l233 -291h-124zM714 1567l-244 291h173l195 -291h-124z" />
    <glyph glyph-name="uni0205" unicode="&#x205;" horiz-adv-x="1128" 
d="M588 -20q-142 0 -250.5 62.5t-169.5 180.5t-61 284q0 165 55 288.5t160 191t253 67.5q143 0 242 -61.5t151 -175.5t52 -272v-64h-753q-1 -104 33.5 -189t105.5 -136t179 -51q106 0 182 49.5t95 140.5h150q-19 -104 -83 -174t-153.5 -105.5t-187.5 -35.5zM268 592h600
q0 96 -32 173t-97.5 122t-165.5 45q-105 0 -173 -50.5t-100.5 -128.5t-31.5 -161zM383 1155l-286 291h177l233 -291h-124zM642 1155l-244 291h173l195 -291h-124z" />
    <glyph glyph-name="uni0206" unicode="&#x206;" horiz-adv-x="1234" 
d="M199 0v1446h889v-140h-733v-506h666v-140h-666v-516l755 -1v-143h-911zM352 1627q15 67 56 113t101.5 69.5t130.5 23.5q75 0 136 -25t102 -71t54 -110h-119q-18 47 -64 77.5t-109 30.5t-106.5 -30.5t-60.5 -77.5h-121z" />
    <glyph glyph-name="uni0207" unicode="&#x207;" horiz-adv-x="1128" 
d="M588 -20q-142 0 -250.5 62.5t-169.5 180.5t-61 284q0 165 55 288.5t160 191t253 67.5q143 0 242 -61.5t151 -175.5t52 -272v-64h-753q-1 -104 33.5 -189t105.5 -136t179 -51q106 0 182 49.5t95 140.5h150q-19 -104 -83 -174t-153.5 -105.5t-187.5 -35.5zM268 592h600
q0 96 -32 173t-97.5 122t-165.5 45q-105 0 -173 -50.5t-100.5 -128.5t-31.5 -161zM280 1215q15 67 56 113t101.5 69.5t130.5 23.5q75 0 136 -25t102 -71t54 -110h-119q-18 47 -64 77.5t-109 30.5t-106.5 -30.5t-60.5 -77.5h-121z" />
    <glyph glyph-name="uni0208" unicode="&#x208;" horiz-adv-x="553" 
d="M199 0v1446h156v-1446h-156zM85 1567l-286 291h177l233 -291h-124zM344 1567l-244 291h173l195 -291h-124z" />
    <glyph glyph-name="uni0209" unicode="&#x209;" horiz-adv-x="471" 
d="M160 0v1034h151v-1034h-151zM44 1155l-286 291h177l233 -291h-124zM303 1155l-244 291h173l195 -291h-124z" />
    <glyph glyph-name="uni020A" unicode="&#x20a;" horiz-adv-x="553" 
d="M199 0v1446h156v-1446h-156zM-17 1627q15 67 56 113t101.5 69.5t130.5 23.5q75 0 136 -25t102 -71t54 -110h-119q-18 47 -64 77.5t-109 30.5t-106.5 -30.5t-60.5 -77.5h-121z" />
    <glyph glyph-name="uni020B" unicode="&#x20b;" horiz-adv-x="531" 
d="M188 0v1034h151v-1034h-151zM-30 1215q15 67 56 113t101.5 69.5t130.5 23.5q75 0 136 -25t102 -71t54 -110h-119q-18 47 -64 77.5t-109 30.5t-106.5 -30.5t-60.5 -77.5h-121z" />
    <glyph glyph-name="uni020C" unicode="&#x20c;" horiz-adv-x="1453" 
d="M729 -20q-190 0 -328.5 86.5t-214 251.5t-75.5 402q0 239 75.5 405.5t214.5 253.5t328 87t326.5 -87t212 -253t74.5 -406q0 -237 -74 -402t-211.5 -251.5t-327.5 -86.5zM729 120q142 0 240.5 64t149.5 197t51 338q0 208 -52 342.5t-150.5 200t-238.5 65.5t-239.5 -66
t-152.5 -201t-53 -341t53 -338.5t152.5 -196.5t239.5 -64zM538 1567l-286 291h177l233 -291h-124zM797 1567l-244 291h173l195 -291h-124z" />
    <glyph glyph-name="uni020D" unicode="&#x20d;" horiz-adv-x="1125" 
d="M565 -20q-141 0 -246 60.5t-163 179.5t-58 293q0 162 53 284t157.5 189.5t256.5 67.5q140 0 244 -61.5t161.5 -182t57.5 -297.5q0 -158 -52.5 -278t-155 -187.5t-255.5 -67.5zM565 106q97 0 166 48t105 140t36 223q0 118 -31.5 211t-99.5 146.5t-176 53.5
q-98 0 -168 -47.5t-106.5 -139.5t-36.5 -224q0 -118 32 -210.5t101 -146.5t178 -54zM371 1155l-286 291h177l233 -291h-124zM630 1155l-244 291h173l195 -291h-124z" />
    <glyph glyph-name="uni020E" unicode="&#x20e;" horiz-adv-x="1453" 
d="M729 -20q-190 0 -328.5 86.5t-214 251.5t-75.5 402q0 239 75.5 405.5t214.5 253.5t328 87t326.5 -87t212 -253t74.5 -406q0 -237 -74 -402t-211.5 -251.5t-327.5 -86.5zM729 120q142 0 240.5 64t149.5 197t51 338q0 208 -52 342.5t-150.5 200t-238.5 65.5t-239.5 -66
t-152.5 -201t-53 -341t53 -338.5t152.5 -196.5t239.5 -64zM435 1627q15 67 56 113t101.5 69.5t130.5 23.5q75 0 136 -25t102 -71t54 -110h-119q-18 47 -64 77.5t-109 30.5t-106.5 -30.5t-60.5 -77.5h-121z" />
    <glyph glyph-name="uni020F" unicode="&#x20f;" horiz-adv-x="1125" 
d="M565 -20q-141 0 -246 60.5t-163 179.5t-58 293q0 162 53 284t157.5 189.5t256.5 67.5q140 0 244 -61.5t161.5 -182t57.5 -297.5q0 -158 -52.5 -278t-155 -187.5t-255.5 -67.5zM565 106q97 0 166 48t105 140t36 223q0 118 -31.5 211t-99.5 146.5t-176 53.5
q-98 0 -168 -47.5t-106.5 -139.5t-36.5 -224q0 -118 32 -210.5t101 -146.5t178 -54zM269 1215q15 67 56 113t101.5 69.5t130.5 23.5q75 0 136 -25t102 -71t54 -110h-119q-18 47 -64 77.5t-109 30.5t-106.5 -30.5t-60.5 -77.5h-121z" />
    <glyph glyph-name="uni0210" unicode="&#x210;" horiz-adv-x="1342" 
d="M199 0v1446h546q152 0 255.5 -45.5t156 -131.5t52.5 -208q0 -118 -43.5 -196.5t-109.5 -125t-136 -69.5l289 -670h-167l-272 641h-415v-641h-156zM355 775h328q176 0 270.5 67.5t94.5 207.5q0 135 -83 199.5t-232 64.5h-378v-539zM461 1567l-286 291h177l233 -291h-124z
M720 1567l-244 291h173l195 -291h-124z" />
    <glyph glyph-name="uni0211" unicode="&#x211;" horiz-adv-x="770" 
d="M160 0v1034h148v-187q26 73 73.5 118.5t107 67t120.5 21.5q25 0 49 -3.5t38 -11.5v-152q-16 8 -42.5 11t-44.5 3q-55 3 -107 -8t-94.5 -39t-67 -75t-24.5 -115v-664h-156zM223 1155l-286 291h177l233 -291h-124zM482 1155l-244 291h173l195 -291h-124z" />
    <glyph glyph-name="uni0212" unicode="&#x212;" horiz-adv-x="1342" 
d="M199 0v1446h546q152 0 255.5 -45.5t156 -131.5t52.5 -208q0 -118 -43.5 -196.5t-109.5 -125t-136 -69.5l289 -670h-167l-272 641h-415v-641h-156zM355 775h328q176 0 270.5 67.5t94.5 207.5q0 135 -83 199.5t-232 64.5h-378v-539zM358 1627q15 67 56 113t101.5 69.5
t130.5 23.5q75 0 136 -25t102 -71t54 -110h-119q-18 47 -64 77.5t-109 30.5t-106.5 -30.5t-60.5 -77.5h-121z" />
    <glyph glyph-name="uni0213" unicode="&#x213;" horiz-adv-x="770" 
d="M160 0v1034h148v-187q26 73 73.5 118.5t107 67t120.5 21.5q25 0 49 -3.5t38 -11.5v-152q-16 8 -42.5 11t-44.5 3q-55 3 -107 -8t-94.5 -39t-67 -75t-24.5 -115v-664h-156zM121 1205q15 67 56 113t101.5 69.5t130.5 23.5q75 0 136 -25t102 -71t54 -110h-119
q-18 47 -64 77.5t-109 30.5t-106.5 -30.5t-60.5 -77.5h-121z" />
    <glyph glyph-name="uni0214" unicode="&#x214;" horiz-adv-x="1388" 
d="M713 -20q-181 0 -294.5 59.5t-166.5 177.5t-53 291v938h163v-967q0 -180 89.5 -270t261.5 -90q116 0 196 39.5t121.5 119.5t41.5 201v967h157v-960q0 -164 -54.5 -277t-168.5 -171t-293 -58zM524 1567l-286 291h177l233 -291h-124zM783 1567l-244 291h173l195 -291h-124z
" />
    <glyph glyph-name="uni0215" unicode="&#x215;" horiz-adv-x="1153" 
d="M540 -20q-83 1 -155 23.5t-126.5 67t-85 111t-30.5 154.5v698h156v-684q0 -109 66 -176.5t203 -67.5q122 0 196 63.5t74 192.5v672h155v-1034h-126l-16 196q-18 -74 -62.5 -122t-108 -71.5t-140.5 -22.5zM379 1155l-286 291h177l233 -291h-124zM638 1155l-244 291h173
l195 -291h-124z" />
    <glyph glyph-name="uni0216" unicode="&#x216;" horiz-adv-x="1388" 
d="M713 -20q-181 0 -294.5 59.5t-166.5 177.5t-53 291v938h163v-967q0 -180 89.5 -270t261.5 -90q116 0 196 39.5t121.5 119.5t41.5 201v967h157v-960q0 -164 -54.5 -277t-168.5 -171t-293 -58zM421 1627q15 67 56 113t101.5 69.5t130.5 23.5q75 0 136 -25t102 -71t54 -110
h-119q-18 47 -64 77.5t-109 30.5t-106.5 -30.5t-60.5 -77.5h-121z" />
    <glyph glyph-name="uni0217" unicode="&#x217;" horiz-adv-x="1153" 
d="M540 -20q-83 1 -155 23.5t-126.5 67t-85 111t-30.5 154.5v698h156v-684q0 -109 66 -176.5t203 -67.5q122 0 196 63.5t74 192.5v672h155v-1034h-126l-16 196q-18 -74 -62.5 -122t-108 -71.5t-140.5 -22.5zM277 1215q15 67 56 113t101.5 69.5t130.5 23.5q75 0 136 -25
t102 -71t54 -110h-119q-18 47 -64 77.5t-109 30.5t-106.5 -30.5t-60.5 -77.5h-121z" />
    <glyph glyph-name="uni0218" unicode="&#x218;" horiz-adv-x="1328" 
d="M674 -20q-104 0 -197.5 25.5t-169 75.5t-124 123.5t-63.5 171.5h165q20 -87 76 -145.5t139 -88t180 -29.5q99 0 181 32t131 91t49 142q0 89 -57 146t-181 91l-304 81q-98 26 -173.5 70t-118.5 117t-43 182q0 119 66 209t179.5 140t256.5 50q168 0 281.5 -59t172 -154
t58.5 -201h-162q-10 105 -61.5 166t-128.5 88t-165 27q-162 0 -247 -75t-85 -180q0 -96 60.5 -149.5t173.5 -83.5l302 -80q125 -31 198.5 -87.5t105.5 -130t32 -157.5q0 -117 -65 -209.5t-183 -145.5t-279 -53zM546 -364l79 118l-58 3v145h171v-122l-123 -144h-69z" />
    <glyph glyph-name="uni0219" unicode="&#x219;" horiz-adv-x="1001" 
d="M521 -20q-108 0 -198.5 33.5t-149.5 103t-73 177.5h145q13 -62 50.5 -105t95 -65.5t129.5 -22.5q110 0 177.5 42.5t67.5 130.5q0 61 -34.5 98t-105.5 54l-222 57q-122 31 -194.5 93.5t-72.5 174.5q0 89 42.5 157t127.5 107t213 39q162 0 262.5 -73t105.5 -218h-141
q-10 79 -68.5 125.5t-159.5 46.5q-105 0 -171 -43t-66 -133q0 -60 45.5 -93.5t131.5 -55.5l218 -57q68 -18 112.5 -47.5t71 -66t37.5 -77.5t11 -79q0 -93 -44.5 -161t-131 -105t-211.5 -37zM399 -364l79 118l-58 3v145h171v-122l-123 -144h-69z" />
    <glyph glyph-name="uni021A" unicode="&#x21a;" horiz-adv-x="1174" 
d="M523 0v1301h-474v145h1077v-145h-446v-1301h-157zM505 -361l79 118l-58 3v145h171v-122l-123 -144h-69z" />
    <glyph glyph-name="uni021B" unicode="&#x21b;" horiz-adv-x="764" 
d="M521 -4q-99 0 -153.5 28t-76.5 83t-22 138v672h-168v117h172l37 298h116v-297h234v-118h-234v-667q0 -60 11.5 -87.5t41 -35t82.5 -7.5h106v-108q-19 -7 -56.5 -11.5t-89.5 -4.5zM356 -359l79 118l-58 3v145h171v-122l-123 -144h-69z" />
    <glyph glyph-name="uni0237" unicode="&#x237;" horiz-adv-x="506" 
d="M80 -332q-86 0 -107.5 6.5t-21.5 15.5l-1 104l109 4q71 5 101.5 38t30.5 111v1087h155v-1095q0 -138 -58 -204.5t-208 -66.5z" />
    <glyph glyph-name="uni0259" unicode="&#x259;" horiz-adv-x="1128" 
d="M553 -20q-142 0 -241.5 62t-151.5 176t-52 271v65h754q0 103 -34.5 188.5t-105 136t-179.5 50.5q-106 0 -181.5 -49t-95.5 -141h-150q20 105 83.5 175t153 105t187.5 35q143 0 251 -62.5t169 -180.5t61 -284q0 -165 -55 -288t-159.5 -191t-253.5 -68zM555 103
q105 0 173 50.5t100.5 128.5t32.5 160h-601q0 -96 32 -173t97.5 -121.5t165.5 -44.5z" />
    <glyph glyph-name="uni02BB" unicode="&#x2bb;" horiz-adv-x="418" 
d="M100 1010v178q0 71 32 129t81 88.5t100 19.5v-66l-14 -1q-37 -2 -67.5 -42.5t-30.5 -88.5v-12l112 -4v-201h-213z" />
    <glyph glyph-name="uni02BC" unicode="&#x2bc;" horiz-adv-x="418" 
d="M100 1013v65l15 1q38 2 67.5 42.5t29.5 89.5v11l-112 5v201h213v-178q0 -72 -32 -130t-81 -88t-100 -19z" />
    <glyph glyph-name="circumflex" unicode="&#x2c6;" horiz-adv-x="619" 
d="M8 1155l247 215h114l243 -215h-160l-142 127l-152 -127h-150z" />
    <glyph glyph-name="caron" unicode="&#x2c7;" horiz-adv-x="627" 
d="M255 1155l-249 216h152l152 -131l142 131h160l-243 -216h-114z" />
    <glyph glyph-name="breve" unicode="&#x2d8;" horiz-adv-x="615" 
d="M306 1155q-71 0 -131 24t-101.5 70t-55.5 112h120q17 -47 61 -77t107 -30t108.5 30t63.5 77h120q-15 -64 -55.5 -110t-101 -71t-135.5 -25z" />
    <glyph glyph-name="dotaccent" unicode="&#x2d9;" horiz-adv-x="183" 
d="M10 1283v163h163v-163h-163z" />
    <glyph glyph-name="ring" unicode="&#x2da;" horiz-adv-x="458" 
d="M227 1153q-85 0 -144 59.5t-59 147.5q0 81 60 138.5t143 57.5q57 0 103 -27t73.5 -72t27.5 -101q0 -86 -59 -144.5t-145 -58.5zM225 1244q45 0 76.5 33.5t31.5 77.5q0 48 -31.5 78.5t-76.5 30.5q-44 0 -77 -30.5t-33 -78.5q0 -44 33 -77.5t77 -33.5z" />
    <glyph glyph-name="ogonek" unicode="&#x2db;" horiz-adv-x="425" 
d="M217 -331q-97 0 -145 42.5t-48 114.5q0 61 43.5 109t164.5 85l116 -14q-100 -43 -146 -81t-46 -89q0 -37 22.5 -56t74.5 -19q49 0 86.5 12t56.5 23v-88q-24 -14 -73 -26.5t-106 -12.5z" />
    <glyph glyph-name="tilde" unicode="&#x2dc;" horiz-adv-x="650" 
d="M66 1227l-31 98q32 29 68.5 49.5t90.5 20.5q47 0 88.5 -13.5t82 -27t84.5 -13.5q43 0 73 15t60 37l31 -108q-25 -17 -64 -35.5t-101 -18.5q-53 0 -91.5 12.5t-74.5 25t-80 12.5q-49 0 -78 -16.5t-58 -37.5z" />
    <glyph glyph-name="hungarumlaut" unicode="&#x2dd;" horiz-adv-x="690" 
d="M270 1155l233 291h177l-286 -291h-124zM11 1155l195 291h173l-244 -291h-124z" />
    <glyph glyph-name="gravecomb" unicode="&#x300;" 
d="M278 1155l-268 291h186l206 -291h-124z" />
    <glyph glyph-name="acutecomb" unicode="&#x301;" 
d="M10 1155l206 291h186l-268 -291h-124z" />
    <glyph glyph-name="uni0302" unicode="&#x302;" 
d="M8 1155l247 215h114l243 -215h-160l-142 127l-152 -127h-150z" />
    <glyph glyph-name="tildecomb" unicode="&#x303;" 
d="M66 1227l-31 98q32 29 68.5 49.5t90.5 20.5q47 0 88.5 -13.5t82 -27t84.5 -13.5q43 0 73 15t60 37l31 -108q-25 -17 -64 -35.5t-101 -18.5q-53 0 -91.5 12.5t-74.5 25t-80 12.5q-49 0 -78 -16.5t-58 -37.5z" />
    <glyph glyph-name="uni0304" unicode="&#x304;" 
d="M24 1243v115h568v-115h-568z" />
    <glyph glyph-name="uni0306" unicode="&#x306;" 
d="M306 1155q-71 0 -131 24t-101.5 70t-55.5 112h120q17 -47 61 -77t107 -30t108.5 30t63.5 77h120q-15 -64 -55.5 -110t-101 -71t-135.5 -25z" />
    <glyph glyph-name="uni0307" unicode="&#x307;" 
d="M10 1283v163h163v-163h-163z" />
    <glyph glyph-name="uni0308" unicode="&#x308;" 
d="M378 1283l1 163h156l-1 -163h-156zM10 1283l1 163h156l-1 -163h-156z" />
    <glyph glyph-name="hookabovecomb" unicode="&#x309;" 
d="M664 1171l-51 77q44 29 62.5 66t-2.5 70q-20 34 -63.5 33t-84.5 -29l-51 78q83 53 161 43.5t118 -71.5q49 -73 23 -144t-112 -123z" />
    <glyph glyph-name="uni030A" unicode="&#x30a;" 
d="M227 1153q-85 0 -144 59.5t-59 147.5q0 81 60 138.5t143 57.5q57 0 103 -27t73.5 -72t27.5 -101q0 -86 -59 -144.5t-145 -58.5zM225 1244q45 0 76.5 33.5t31.5 77.5q0 48 -31.5 78.5t-76.5 30.5q-44 0 -77 -30.5t-33 -78.5q0 -44 33 -77.5t77 -33.5z" />
    <glyph glyph-name="uni030B" unicode="&#x30b;" 
d="M270 1155l233 291h177l-286 -291h-124zM11 1155l195 291h173l-244 -291h-124z" />
    <glyph glyph-name="uni030C" unicode="&#x30c;" 
d="M255 1155l-249 216h152l152 -131l142 131h160l-243 -216h-114z" />
    <glyph glyph-name="uni030F" unicode="&#x30f;" 
d="M296 1155l-286 291h177l233 -291h-124zM555 1155l-244 291h173l195 -291h-124z" />
    <glyph glyph-name="uni0311" unicode="&#x311;" 
d="M6 1215q15 67 56 113t101.5 69.5t130.5 23.5q75 0 136 -25t102 -71t54 -110h-119q-18 47 -64 77.5t-109 30.5t-106.5 -30.5t-60.5 -77.5h-121z" />
    <glyph glyph-name="uni0312" unicode="&#x312;" 
d="M124 1155v173l96 153h79l-73 -146l58 -4v-176h-160z" />
    <glyph glyph-name="uni031B" unicode="&#x31b;" 
d="M0 955v106q45 -1 76 4.5t50.5 25t30 57t13.5 100.5h135q-1 -112 -31.5 -181t-97.5 -96.5t-176 -15.5z" />
    <glyph glyph-name="dotbelowcomb" unicode="&#x323;" 
d="M10 -348v163h163v-163h-163z" />
    <glyph glyph-name="uni0326" unicode="&#x326;" 
d="M-1 -364l79 118l-58 3v145h171v-122l-123 -144h-69z" />
    <glyph glyph-name="uni0327" unicode="&#x327;" 
d="M200 -408q-51 0 -95.5 12t-83.5 37l29 72q24 -19 56 -32.5t76 -13.5q57 0 83.5 20t26.5 56q0 44 -37 65.5t-120 23.5q-9 0 -11 3t0 9l73 166h89l-48 -121q66 -4 103.5 -26t53.5 -54t16 -65q0 -50 -29 -83.5t-77 -51t-105 -17.5z" />
    <glyph glyph-name="uni0328" unicode="&#x328;" 
d="M217 -331q-97 0 -145 42.5t-48 114.5q0 61 43.5 109t164.5 85l116 -14q-100 -43 -146 -81t-46 -89q0 -37 22.5 -56t74.5 -19q49 0 86.5 12t56.5 23v-88q-24 -14 -73 -26.5t-106 -12.5z" />
    <glyph glyph-name="pi" unicode="&#x3c0;" horiz-adv-x="1309" 
d="M147 0q22 83 42 186.5t36 221t25 241.5t9 248q0 20 -17 20h-187v117h1194v-117h-235v-917h-152l-1 917h-455q0 -130 -9.5 -262.5t-25.5 -255t-37.5 -225.5t-45.5 -174h-141z" />
    <glyph glyph-name="uni1E0C" unicode="&#x1e0c;" horiz-adv-x="1373" 
d="M199 0v1446q5 0 36.5 -0.5t78 0t98 0t97.5 -1.5q266 -3 432 -84t243 -238t77 -389q0 -244 -83.5 -407t-255 -244.5t-435.5 -81.5h-288zM361 138h125q194 0 330.5 57.5t208.5 187t72 345.5q0 220 -71 346.5t-206 180t-325 53.5h-134v-1170zM631 -348v163h163v-163h-163z
" />
    <glyph glyph-name="uni1E0D" unicode="&#x1e0d;" horiz-adv-x="1187" 
d="M533 -20q-199 0 -317 136.5t-118 404.5q0 161 47 280.5t141.5 186t236.5 66.5q79 0 139 -20.5t102.5 -51.5t68 -63t37.5 -55v622h157v-1486h-123l-16 212q-9 -27 -30 -66t-61 -77t-104.5 -63.5t-159.5 -25.5zM558 104q169 0 240.5 100.5t71.5 326.5q-2 125 -32.5 214
t-97 136.5t-178.5 47.5q-136 0 -221 -96t-85 -302q0 -200 76 -313.5t226 -113.5zM464 -348v163h163v-163h-163z" />
    <glyph glyph-name="uni1E24" unicode="&#x1e24;" horiz-adv-x="1530" 
d="M199 0v1446h156v-626h820v626h156v-1446h-156v679h-820v-679h-156zM701 -348v163h163v-163h-163z" />
    <glyph glyph-name="uni1E25" unicode="&#x1e25;" horiz-adv-x="1145" 
d="M160 0v1486h151v-604q27 44 72.5 82t110 61.5t147.5 23.5q102 0 183.5 -37t129.5 -105t48 -160v-747h-156v712q0 98 -67 152.5t-177 54.5q-75 0 -140.5 -24.5t-105.5 -73t-40 -123.5v-698h-156zM516 -348v163h163v-163h-163z" />
    <glyph glyph-name="uni1E44" unicode="&#x1e44;" horiz-adv-x="1493" 
d="M199 0v1446h146l793 -1169v1169h156v-1446h-139l-800 1180v-1180h-156zM665 1695v163h163v-163h-163z" />
    <glyph glyph-name="uni1E45" unicode="&#x1e45;" horiz-adv-x="1145" 
d="M160 0v1034h150v-151q26 45 71.5 83t111 61t147.5 23q100 0 182.5 -39.5t131.5 -122.5t49 -213v-675h-156v661q0 132 -67 195t-177 63q-75 0 -141 -24t-106 -73t-40 -123v-699h-156zM515 1283v163h163v-163h-163z" />
    <glyph glyph-name="uni1E5A" unicode="&#x1e5a;" horiz-adv-x="1342" 
d="M199 0v1446h546q152 0 255.5 -45.5t156 -131.5t52.5 -208q0 -118 -43.5 -196.5t-109.5 -125t-136 -69.5l289 -670h-167l-272 641h-415v-641h-156zM355 775h328q176 0 270.5 67.5t94.5 207.5q0 135 -83 199.5t-232 64.5h-378v-539zM588 -348v163h163v-163h-163z" />
    <glyph glyph-name="uni1E5B" unicode="&#x1e5b;" horiz-adv-x="770" 
d="M160 0v1034h148v-187q26 73 73.5 118.5t107 67t120.5 21.5q25 0 49 -3.5t38 -11.5v-152q-16 8 -42.5 11t-44.5 3q-55 3 -107 -8t-94.5 -39t-67 -75t-24.5 -115v-664h-156zM156 -348v163h163v-163h-163z" />
    <glyph glyph-name="uni1E62" unicode="&#x1e62;" horiz-adv-x="1328" 
d="M674 -20q-104 0 -197.5 25.5t-169 75.5t-124 123.5t-63.5 171.5h165q20 -87 76 -145.5t139 -88t180 -29.5q99 0 181 32t131 91t49 142q0 89 -57 146t-181 91l-304 81q-98 26 -173.5 70t-118.5 117t-43 182q0 119 66 209t179.5 140t256.5 50q168 0 281.5 -59t172 -154
t58.5 -201h-162q-10 105 -61.5 166t-128.5 88t-165 27q-162 0 -247 -75t-85 -180q0 -96 60.5 -149.5t173.5 -83.5l302 -80q125 -31 198.5 -87.5t105.5 -130t32 -157.5q0 -117 -65 -209.5t-183 -145.5t-279 -53zM568 -348v163h163v-163h-163z" />
    <glyph glyph-name="uni1E63" unicode="&#x1e63;" horiz-adv-x="1001" 
d="M521 -20q-108 0 -198.5 33.5t-149.5 103t-73 177.5h145q13 -62 50.5 -105t95 -65.5t129.5 -22.5q110 0 177.5 42.5t67.5 130.5q0 61 -34.5 98t-105.5 54l-222 57q-122 31 -194.5 93.5t-72.5 174.5q0 89 42.5 157t127.5 107t213 39q162 0 262.5 -73t105.5 -218h-141
q-10 79 -68.5 125.5t-159.5 46.5q-105 0 -171 -43t-66 -133q0 -60 45.5 -93.5t131.5 -55.5l218 -57q68 -18 112.5 -47.5t71 -66t37.5 -77.5t11 -79q0 -93 -44.5 -161t-131 -105t-211.5 -37zM421 -348v163h163v-163h-163z" />
    <glyph glyph-name="uni1E6C" unicode="&#x1e6c;" horiz-adv-x="1174" 
d="M523 0v1301h-474v145h1077v-145h-446v-1301h-157zM527 -345v163h163v-163h-163z" />
    <glyph glyph-name="uni1E6D" unicode="&#x1e6d;" horiz-adv-x="764" 
d="M521 -4q-99 0 -153.5 28t-76.5 83t-22 138v672h-168v117h172l37 298h116v-297h234v-118h-234v-667q0 -60 11.5 -87.5t41 -35t82.5 -7.5h106v-108q-19 -7 -56.5 -11.5t-89.5 -4.5zM378 -343v163h163v-163h-163z" />
    <glyph glyph-name="Wgrave" unicode="&#x1e80;" horiz-adv-x="1899" 
d="M462 0l-413 1446h159l334 -1205l342 1205h127l339 -1205l342 1205h158l-420 -1446h-154l-330 1169l-335 -1169h-149zM893 1567l-268 291h186l206 -291h-124z" />
    <glyph glyph-name="wgrave" unicode="&#x1e81;" horiz-adv-x="1555" 
d="M374 0l-315 1034h147l248 -836h18l244 836h121l256 -834h19l236 834h149l-307 -1034h-168l-247 801l-233 -801h-168zM731 1155l-268 291h186l206 -291h-124z" />
    <glyph glyph-name="Wacute" unicode="&#x1e82;" horiz-adv-x="1899" 
d="M462 0l-413 1446h159l334 -1205l342 1205h127l339 -1205l342 1205h158l-420 -1446h-154l-330 1169l-335 -1169h-149zM874 1567l206 291h186l-268 -291h-124z" />
    <glyph glyph-name="wacute" unicode="&#x1e83;" horiz-adv-x="1555" 
d="M374 0l-315 1034h147l248 -836h18l244 836h121l256 -834h19l236 834h149l-307 -1034h-168l-247 801l-233 -801h-168zM712 1155l206 291h186l-268 -291h-124z" />
    <glyph glyph-name="Wdieresis" unicode="&#x1e84;" horiz-adv-x="1899" 
d="M462 0l-413 1446h159l334 -1205l342 1205h127l339 -1205l342 1205h158l-420 -1446h-154l-330 1169l-335 -1169h-149zM1053 1695l1 163h156l-1 -163h-156zM685 1695l1 163h156l-1 -163h-156z" />
    <glyph glyph-name="wdieresis" unicode="&#x1e85;" horiz-adv-x="1555" 
d="M374 0l-315 1034h147l248 -836h18l244 836h121l256 -834h19l236 834h149l-307 -1034h-168l-247 801l-233 -801h-168zM891 1283l1 163h156l-1 -163h-156zM523 1283l1 163h156l-1 -163h-156z" />
    <glyph glyph-name="uni1E92" unicode="&#x1e92;" horiz-adv-x="1256" 
d="M133 0v91l808 1217h-779v138h994v-87l-813 -1219h810v-140h-1020zM583 -348v163h163v-163h-163z" />
    <glyph glyph-name="uni1E93" unicode="&#x1e93;" horiz-adv-x="953" 
d="M80 0v103l604 814h-579v117h762v-102l-602 -814h608v-118h-793zM406 -348v163h163v-163h-163z" />
    <glyph glyph-name="uni1EA0" unicode="&#x1ea0;" horiz-adv-x="1412" 
d="M90 0l525 1446h183l524 -1446h-161l-149 412h-612l-150 -412h-160zM444 560h523l-262 732zM625 -348v163h163v-163h-163z" />
    <glyph glyph-name="uni1EA1" unicode="&#x1ea1;" horiz-adv-x="1099" 
d="M446 -20q-101 0 -177.5 35.5t-119 101.5t-42.5 159q0 172 118 255t381 90l199 6v86q0 101 -61 161.5t-189 59.5q-96 0 -166.5 -44.5t-89.5 -142.5h-142q6 97 54.5 165.5t137.5 105t213 36.5q129 0 216.5 -37.5t132.5 -112t45 -184.5v-720h-134l-11 199
q-62 -123 -157.5 -171t-207.5 -48zM490 97q55 0 111 20t102 55t74 78t28 88v184l-166 -3q-131 -2 -215 -26t-124 -73.5t-40 -129.5q0 -91 64 -142t166 -51zM479 -348v163h163v-163h-163z" />
    <glyph glyph-name="uni1EA2" unicode="&#x1ea2;" horiz-adv-x="1412" 
d="M90 0l525 1446h183l524 -1446h-161l-149 412h-612l-150 -412h-160zM444 560h523l-262 732zM760 1564l-51 77q44 29 62.5 66t-2.5 70q-20 34 -63.5 33t-84.5 -29l-51 78q83 53 161 43.5t118 -71.5q49 -73 23 -144t-112 -123z" />
    <glyph glyph-name="uni1EA3" unicode="&#x1ea3;" horiz-adv-x="1099" 
d="M446 -20q-101 0 -177.5 35.5t-119 101.5t-42.5 159q0 172 118 255t381 90l199 6v86q0 101 -61 161.5t-189 59.5q-96 0 -166.5 -44.5t-89.5 -142.5h-142q6 97 54.5 165.5t137.5 105t213 36.5q129 0 216.5 -37.5t132.5 -112t45 -184.5v-720h-134l-11 199
q-62 -123 -157.5 -171t-207.5 -48zM490 97q55 0 111 20t102 55t74 78t28 88v184l-166 -3q-131 -2 -215 -26t-124 -73.5t-40 -129.5q0 -91 64 -142t166 -51zM616 1152l-51 77q44 29 62.5 66t-2.5 70q-20 34 -63.5 33t-84.5 -29l-51 78q83 53 161 43.5t118 -71.5
q49 -73 23 -144t-112 -123z" />
    <glyph glyph-name="uni1EA4" unicode="&#x1ea4;" horiz-adv-x="1412" 
d="M90 0l525 1446h183l524 -1446h-161l-149 412h-612l-150 -412h-160zM444 560h523l-262 732zM404 1567l247 215h114l243 -215h-160l-142 127l-152 -127h-150zM878 1782l144 237h159l-194 -237h-109z" />
    <glyph glyph-name="uni1EA5" unicode="&#x1ea5;" horiz-adv-x="1099" 
d="M446 -20q-101 0 -177.5 35.5t-119 101.5t-42.5 159q0 172 118 255t381 90l199 6v86q0 101 -61 161.5t-189 59.5q-96 0 -166.5 -44.5t-89.5 -142.5h-142q6 97 54.5 165.5t137.5 105t213 36.5q129 0 216.5 -37.5t132.5 -112t45 -184.5v-720h-134l-11 199
q-62 -123 -157.5 -171t-207.5 -48zM490 97q55 0 111 20t102 55t74 78t28 88v184l-166 -3q-131 -2 -215 -26t-124 -73.5t-40 -129.5q0 -91 64 -142t166 -51zM260 1155l247 215h114l243 -215h-160l-142 127l-152 -127h-150zM734 1370l144 237h159l-194 -237h-109z" />
    <glyph glyph-name="uni1EA6" unicode="&#x1ea6;" horiz-adv-x="1412" 
d="M90 0l525 1446h183l524 -1446h-161l-149 412h-612l-150 -412h-160zM444 560h523l-262 732zM404 1567l247 215h114l243 -215h-160l-142 127l-152 -127h-150zM979 1783l-206 237h158l159 -237h-111z" />
    <glyph glyph-name="uni1EA7" unicode="&#x1ea7;" horiz-adv-x="1099" 
d="M446 -20q-101 0 -177.5 35.5t-119 101.5t-42.5 159q0 172 118 255t381 90l199 6v86q0 101 -61 161.5t-189 59.5q-96 0 -166.5 -44.5t-89.5 -142.5h-142q6 97 54.5 165.5t137.5 105t213 36.5q129 0 216.5 -37.5t132.5 -112t45 -184.5v-720h-134l-11 199
q-62 -123 -157.5 -171t-207.5 -48zM490 97q55 0 111 20t102 55t74 78t28 88v184l-166 -3q-131 -2 -215 -26t-124 -73.5t-40 -129.5q0 -91 64 -142t166 -51zM260 1155l247 215h114l243 -215h-160l-142 127l-152 -127h-150zM835 1371l-206 237h158l159 -237h-111z" />
    <glyph glyph-name="uni1EA8" unicode="&#x1ea8;" horiz-adv-x="1412" 
d="M90 0l525 1446h183l524 -1446h-161l-149 412h-612l-150 -412h-160zM444 560h523l-262 732zM407 1567l247 215h114l243 -215h-160l-142 127l-152 -127h-150zM925 1735l-50 78q44 28 62.5 65.5t-2.5 70.5q-21 34 -64 32.5t-85 -29.5l-50 78q83 54 161 44t118 -71
q48 -73 22 -144t-112 -124z" />
    <glyph glyph-name="uni1EA9" unicode="&#x1ea9;" horiz-adv-x="1099" 
d="M446 -20q-101 0 -177.5 35.5t-119 101.5t-42.5 159q0 172 118 255t381 90l199 6v86q0 101 -61 161.5t-189 59.5q-96 0 -166.5 -44.5t-89.5 -142.5h-142q6 97 54.5 165.5t137.5 105t213 36.5q129 0 216.5 -37.5t132.5 -112t45 -184.5v-720h-134l-11 199
q-62 -123 -157.5 -171t-207.5 -48zM490 97q55 0 111 20t102 55t74 78t28 88v184l-166 -3q-131 -2 -215 -26t-124 -73.5t-40 -129.5q0 -91 64 -142t166 -51zM264 1155l247 215h114l243 -215h-160l-142 127l-152 -127h-150zM782 1323l-50 78q44 28 62.5 65.5t-2.5 70.5
q-21 34 -64 32.5t-85 -29.5l-50 78q83 54 161 44t118 -71q48 -73 22 -144t-112 -124z" />
    <glyph glyph-name="uni1EAA" unicode="&#x1eaa;" horiz-adv-x="1412" 
d="M90 0l525 1446h183l524 -1446h-161l-149 412h-612l-150 -412h-160zM444 560h523l-262 732zM405 1567l247 215h114l243 -215h-160l-142 127l-152 -127h-150zM451 1895l-32 98q32 29 68.5 49.5t90.5 20.5q48 0 89.5 -13.5t81.5 -27t84 -13.5q43 0 73.5 15t59.5 37l31 -108
q-25 -17 -64 -35.5t-101 -18.5q-53 0 -91.5 12.5t-74 25t-79.5 12.5q-49 0 -78 -16.5t-58 -37.5z" />
    <glyph glyph-name="uni1EAB" unicode="&#x1eab;" horiz-adv-x="1099" 
d="M446 -20q-101 0 -177.5 35.5t-119 101.5t-42.5 159q0 172 118 255t381 90l199 6v86q0 101 -61 161.5t-189 59.5q-96 0 -166.5 -44.5t-89.5 -142.5h-142q6 97 54.5 165.5t137.5 105t213 36.5q129 0 216.5 -37.5t132.5 -112t45 -184.5v-720h-134l-11 199
q-62 -123 -157.5 -171t-207.5 -48zM490 97q55 0 111 20t102 55t74 78t28 88v184l-166 -3q-131 -2 -215 -26t-124 -73.5t-40 -129.5q0 -91 64 -142t166 -51zM261 1155l247 215h114l243 -215h-160l-142 127l-152 -127h-150zM307 1483l-32 98q32 29 68.5 49.5t90.5 20.5
q48 0 89.5 -13.5t81.5 -27t84 -13.5q43 0 73.5 15t59.5 37l31 -108q-25 -17 -64 -35.5t-101 -18.5q-53 0 -91.5 12.5t-74 25t-79.5 12.5q-49 0 -78 -16.5t-58 -37.5z" />
    <glyph glyph-name="uni1EAC" unicode="&#x1eac;" horiz-adv-x="1412" 
d="M90 0l525 1446h183l524 -1446h-161l-149 412h-612l-150 -412h-160zM444 560h523l-262 732zM625 -348v163h163v-163h-163zM404 1567l247 215h114l243 -215h-160l-142 127l-152 -127h-150z" />
    <glyph glyph-name="uni1EAD" unicode="&#x1ead;" horiz-adv-x="1099" 
d="M446 -20q-101 0 -177.5 35.5t-119 101.5t-42.5 159q0 172 118 255t381 90l199 6v86q0 101 -61 161.5t-189 59.5q-96 0 -166.5 -44.5t-89.5 -142.5h-142q6 97 54.5 165.5t137.5 105t213 36.5q129 0 216.5 -37.5t132.5 -112t45 -184.5v-720h-134l-11 199
q-62 -123 -157.5 -171t-207.5 -48zM490 97q55 0 111 20t102 55t74 78t28 88v184l-166 -3q-131 -2 -215 -26t-124 -73.5t-40 -129.5q0 -91 64 -142t166 -51zM479 -348v163h163v-163h-163zM260 1155l247 215h114l243 -215h-160l-142 127l-152 -127h-150z" />
    <glyph glyph-name="uni1EAE" unicode="&#x1eae;" horiz-adv-x="1412" 
d="M90 0l525 1446h183l524 -1446h-161l-149 412h-612l-150 -412h-160zM444 560h523l-262 732zM709 1564q-71 0 -131 24t-101.5 70t-55.5 112h120q17 -47 61 -77t107 -30t108.5 30t63.5 77h120q-15 -64 -55.5 -110t-101 -71t-135.5 -25zM652 1792l145 237h158l-193 -237h-110
z" />
    <glyph glyph-name="uni1EAF" unicode="&#x1eaf;" horiz-adv-x="1099" 
d="M446 -20q-101 0 -177.5 35.5t-119 101.5t-42.5 159q0 172 118 255t381 90l199 6v86q0 101 -61 161.5t-189 59.5q-96 0 -166.5 -44.5t-89.5 -142.5h-142q6 97 54.5 165.5t137.5 105t213 36.5q129 0 216.5 -37.5t132.5 -112t45 -184.5v-720h-134l-11 199
q-62 -123 -157.5 -171t-207.5 -48zM490 97q55 0 111 20t102 55t74 78t28 88v184l-166 -3q-131 -2 -215 -26t-124 -73.5t-40 -129.5q0 -91 64 -142t166 -51zM565 1152q-71 0 -131 24t-101.5 70t-55.5 112h120q17 -47 61 -77t107 -30t108.5 30t63.5 77h120q-15 -64 -55.5 -110
t-101 -71t-135.5 -25zM508 1380l145 237h158l-193 -237h-110z" />
    <glyph glyph-name="uni1EB0" unicode="&#x1eb0;" horiz-adv-x="1412" 
d="M90 0l525 1446h183l524 -1446h-161l-149 412h-612l-150 -412h-160zM444 560h523l-262 732zM709 1564q-71 0 -131 24t-101.5 70t-55.5 112h120q17 -47 61 -77t107 -30t108.5 30t63.5 77h120q-15 -64 -55.5 -110t-101 -71t-135.5 -25zM668 1790l-207 238h159l159 -238h-111
z" />
    <glyph glyph-name="uni1EB1" unicode="&#x1eb1;" horiz-adv-x="1099" 
d="M446 -20q-101 0 -177.5 35.5t-119 101.5t-42.5 159q0 172 118 255t381 90l199 6v86q0 101 -61 161.5t-189 59.5q-96 0 -166.5 -44.5t-89.5 -142.5h-142q6 97 54.5 165.5t137.5 105t213 36.5q129 0 216.5 -37.5t132.5 -112t45 -184.5v-720h-134l-11 199
q-62 -123 -157.5 -171t-207.5 -48zM490 97q55 0 111 20t102 55t74 78t28 88v184l-166 -3q-131 -2 -215 -26t-124 -73.5t-40 -129.5q0 -91 64 -142t166 -51zM565 1152q-71 0 -131 24t-101.5 70t-55.5 112h120q17 -47 61 -77t107 -30t108.5 30t63.5 77h120q-15 -64 -55.5 -110
t-101 -71t-135.5 -25zM524 1378l-207 238h159l159 -238h-111z" />
    <glyph glyph-name="uni1EB2" unicode="&#x1eb2;" horiz-adv-x="1412" 
d="M90 0l525 1446h183l524 -1446h-161l-149 412h-612l-150 -412h-160zM444 560h523l-262 732zM709 1564q-71 0 -131 24t-101.5 70t-55.5 112h120q17 -47 61 -77t107 -30t108.5 30t63.5 77h120q-15 -64 -55.5 -110t-101 -71t-135.5 -25zM719 1765l-50 78q44 28 62.5 65.5
t-2.5 70.5q-21 34 -64 32.5t-85 -29.5l-50 78q70 45 139 45q92 0 140 -72q48 -73 22 -144t-112 -124z" />
    <glyph glyph-name="uni1EB3" unicode="&#x1eb3;" horiz-adv-x="1099" 
d="M446 -20q-101 0 -177.5 35.5t-119 101.5t-42.5 159q0 172 118 255t381 90l199 6v86q0 101 -61 161.5t-189 59.5q-96 0 -166.5 -44.5t-89.5 -142.5h-142q6 97 54.5 165.5t137.5 105t213 36.5q129 0 216.5 -37.5t132.5 -112t45 -184.5v-720h-134l-11 199
q-62 -123 -157.5 -171t-207.5 -48zM490 97q55 0 111 20t102 55t74 78t28 88v184l-166 -3q-131 -2 -215 -26t-124 -73.5t-40 -129.5q0 -91 64 -142t166 -51zM565 1152q-71 0 -131 24t-101.5 70t-55.5 112h120q17 -47 61 -77t107 -30t108.5 30t63.5 77h120q-15 -64 -55.5 -110
t-101 -71t-135.5 -25zM575 1353l-50 78q44 28 62.5 65.5t-2.5 70.5q-21 34 -64 32.5t-85 -29.5l-50 78q70 45 139 45q92 0 140 -72q48 -73 22 -144t-112 -124z" />
    <glyph glyph-name="uni1EB4" unicode="&#x1eb4;" horiz-adv-x="1412" 
d="M90 0l525 1446h183l524 -1446h-161l-149 412h-612l-150 -412h-160zM444 560h523l-262 732zM709 1564q-71 0 -131 24t-101.5 70t-55.5 112h120q17 -47 61 -77t107 -30t108.5 30t63.5 77h120q-15 -64 -55.5 -110t-101 -71t-135.5 -25zM457 1892l-32 98q32 29 68.5 49.5
t90.5 20.5q48 0 89.5 -13.5t81.5 -27t84 -13.5q43 0 73.5 15t59.5 37l31 -108q-25 -17 -64 -35.5t-101 -18.5q-53 0 -91.5 12.5t-74 25t-79.5 12.5q-49 0 -78 -16.5t-58 -37.5z" />
    <glyph glyph-name="uni1EB5" unicode="&#x1eb5;" horiz-adv-x="1099" 
d="M446 -20q-101 0 -177.5 35.5t-119 101.5t-42.5 159q0 172 118 255t381 90l199 6v86q0 101 -61 161.5t-189 59.5q-96 0 -166.5 -44.5t-89.5 -142.5h-142q6 97 54.5 165.5t137.5 105t213 36.5q129 0 216.5 -37.5t132.5 -112t45 -184.5v-720h-134l-11 199
q-62 -123 -157.5 -171t-207.5 -48zM490 97q55 0 111 20t102 55t74 78t28 88v184l-166 -3q-131 -2 -215 -26t-124 -73.5t-40 -129.5q0 -91 64 -142t166 -51zM565 1152q-71 0 -131 24t-101.5 70t-55.5 112h120q17 -47 61 -77t107 -30t108.5 30t63.5 77h120q-15 -64 -55.5 -110
t-101 -71t-135.5 -25zM313 1480l-32 98q32 29 68.5 49.5t90.5 20.5q48 0 89.5 -13.5t81.5 -27t84 -13.5q43 0 73.5 15t59.5 37l31 -108q-25 -17 -64 -35.5t-101 -18.5q-53 0 -91.5 12.5t-74 25t-79.5 12.5q-49 0 -78 -16.5t-58 -37.5z" />
    <glyph glyph-name="uni1EB6" unicode="&#x1eb6;" horiz-adv-x="1412" 
d="M90 0l525 1446h183l524 -1446h-161l-149 412h-612l-150 -412h-160zM444 560h523l-262 732zM625 -348v163h163v-163h-163zM704 1564q-71 0 -131 24t-101.5 70t-55.5 112h120q17 -47 61 -77t107 -30t108.5 30t63.5 77h120q-15 -64 -55.5 -110t-101 -71t-135.5 -25z" />
    <glyph glyph-name="uni1EB7" unicode="&#x1eb7;" horiz-adv-x="1099" 
d="M446 -20q-101 0 -177.5 35.5t-119 101.5t-42.5 159q0 172 118 255t381 90l199 6v86q0 101 -61 161.5t-189 59.5q-96 0 -166.5 -44.5t-89.5 -142.5h-142q6 97 54.5 165.5t137.5 105t213 36.5q129 0 216.5 -37.5t132.5 -112t45 -184.5v-720h-134l-11 199
q-62 -123 -157.5 -171t-207.5 -48zM490 97q55 0 111 20t102 55t74 78t28 88v184l-166 -3q-131 -2 -215 -26t-124 -73.5t-40 -129.5q0 -91 64 -142t166 -51zM479 -348v163h163v-163h-163zM561 1152q-71 0 -131 24t-101.5 70t-55.5 112h120q17 -47 61 -77t107 -30t108.5 30
t63.5 77h120q-15 -64 -55.5 -110t-101 -71t-135.5 -25z" />
    <glyph glyph-name="uni1EB8" unicode="&#x1eb8;" horiz-adv-x="1234" 
d="M199 0v1446h889v-140h-733v-506h666v-140h-666v-516l755 -1v-143h-911zM607 -348v163h163v-163h-163z" />
    <glyph glyph-name="uni1EB9" unicode="&#x1eb9;" horiz-adv-x="1128" 
d="M588 -20q-142 0 -250.5 62.5t-169.5 180.5t-61 284q0 165 55 288.5t160 191t253 67.5q143 0 242 -61.5t151 -175.5t52 -272v-64h-753q-1 -104 33.5 -189t105.5 -136t179 -51q106 0 182 49.5t95 140.5h150q-19 -104 -83 -174t-153.5 -105.5t-187.5 -35.5zM268 592h600
q0 96 -32 173t-97.5 122t-165.5 45q-105 0 -173 -50.5t-100.5 -128.5t-31.5 -161zM494 -348v163h163v-163h-163z" />
    <glyph glyph-name="uni1EBA" unicode="&#x1eba;" horiz-adv-x="1234" 
d="M199 0v1446h889v-140h-733v-506h666v-140h-666v-516l755 -1v-143h-911zM701 1564l-51 77q44 29 62.5 66t-2.5 70q-20 34 -63.5 33t-84.5 -29l-51 78q83 53 161 43.5t118 -71.5q49 -73 23 -144t-112 -123z" />
    <glyph glyph-name="uni1EBB" unicode="&#x1ebb;" horiz-adv-x="1128" 
d="M588 -20q-142 0 -250.5 62.5t-169.5 180.5t-61 284q0 165 55 288.5t160 191t253 67.5q143 0 242 -61.5t151 -175.5t52 -272v-64h-753q-1 -104 33.5 -189t105.5 -136t179 -51q106 0 182 49.5t95 140.5h150q-19 -104 -83 -174t-153.5 -105.5t-187.5 -35.5zM268 592h600
q0 96 -32 173t-97.5 122t-165.5 45q-105 0 -173 -50.5t-100.5 -128.5t-31.5 -161zM629 1152l-51 77q44 29 62.5 66t-2.5 70q-20 34 -63.5 33t-84.5 -29l-51 78q83 53 161 43.5t118 -71.5q49 -73 23 -144t-112 -123z" />
    <glyph glyph-name="uni1EBC" unicode="&#x1ebc;" horiz-adv-x="1234" 
d="M199 0v1446h889v-140h-733v-506h666v-140h-666v-516l755 -1v-143h-911zM392 1639l-31 98q32 29 68.5 49.5t90.5 20.5q47 0 88.5 -13.5t82 -27t84.5 -13.5q43 0 73 15t60 37l31 -108q-25 -17 -64 -35.5t-101 -18.5q-53 0 -91.5 12.5t-74.5 25t-80 12.5q-49 0 -78 -16.5
t-58 -37.5z" />
    <glyph glyph-name="uni1EBD" unicode="&#x1ebd;" horiz-adv-x="1128" 
d="M588 -20q-142 0 -250.5 62.5t-169.5 180.5t-61 284q0 165 55 288.5t160 191t253 67.5q143 0 242 -61.5t151 -175.5t52 -272v-64h-753q-1 -104 33.5 -189t105.5 -136t179 -51q106 0 182 49.5t95 140.5h150q-19 -104 -83 -174t-153.5 -105.5t-187.5 -35.5zM268 592h600
q0 96 -32 173t-97.5 122t-165.5 45q-105 0 -173 -50.5t-100.5 -128.5t-31.5 -161zM320 1227l-31 98q32 29 68.5 49.5t90.5 20.5q47 0 88.5 -13.5t82 -27t84.5 -13.5q43 0 73 15t60 37l31 -108q-25 -17 -64 -35.5t-101 -18.5q-53 0 -91.5 12.5t-74.5 25t-80 12.5
q-49 0 -78 -16.5t-58 -37.5z" />
    <glyph glyph-name="uni1EBE" unicode="&#x1ebe;" horiz-adv-x="1234" 
d="M199 0v1446h889v-140h-733v-506h666v-140h-666v-516l755 -1v-143h-911zM345 1567l247 215h114l243 -215h-160l-142 127l-152 -127h-150zM819 1782l144 237h159l-194 -237h-109z" />
    <glyph glyph-name="uni1EBF" unicode="&#x1ebf;" horiz-adv-x="1128" 
d="M588 -20q-142 0 -250.5 62.5t-169.5 180.5t-61 284q0 165 55 288.5t160 191t253 67.5q143 0 242 -61.5t151 -175.5t52 -272v-64h-753q-1 -104 33.5 -189t105.5 -136t179 -51q106 0 182 49.5t95 140.5h150q-19 -104 -83 -174t-153.5 -105.5t-187.5 -35.5zM268 592h600
q0 96 -32 173t-97.5 122t-165.5 45q-105 0 -173 -50.5t-100.5 -128.5t-31.5 -161zM273 1155l247 215h114l243 -215h-160l-142 127l-152 -127h-150zM747 1370l144 237h159l-194 -237h-109z" />
    <glyph glyph-name="uni1EC0" unicode="&#x1ec0;" horiz-adv-x="1234" 
d="M199 0v1446h889v-140h-733v-506h666v-140h-666v-516l755 -1v-143h-911zM345 1567l247 215h114l243 -215h-160l-142 127l-152 -127h-150zM920 1783l-206 237h158l159 -237h-111z" />
    <glyph glyph-name="uni1EC1" unicode="&#x1ec1;" horiz-adv-x="1128" 
d="M588 -20q-142 0 -250.5 62.5t-169.5 180.5t-61 284q0 165 55 288.5t160 191t253 67.5q143 0 242 -61.5t151 -175.5t52 -272v-64h-753q-1 -104 33.5 -189t105.5 -136t179 -51q106 0 182 49.5t95 140.5h150q-19 -104 -83 -174t-153.5 -105.5t-187.5 -35.5zM268 592h600
q0 96 -32 173t-97.5 122t-165.5 45q-105 0 -173 -50.5t-100.5 -128.5t-31.5 -161zM273 1155l247 215h114l243 -215h-160l-142 127l-152 -127h-150zM848 1371l-206 237h158l159 -237h-111z" />
    <glyph glyph-name="uni1EC2" unicode="&#x1ec2;" horiz-adv-x="1234" 
d="M199 0v1446h889v-140h-733v-506h666v-140h-666v-516l755 -1v-143h-911zM349 1567l247 215h114l243 -215h-160l-142 127l-152 -127h-150zM867 1735l-50 78q44 28 62.5 65.5t-2.5 70.5q-21 34 -64 32.5t-85 -29.5l-50 78q83 54 161 44t118 -71q48 -73 22 -144t-112 -124z
" />
    <glyph glyph-name="uni1EC3" unicode="&#x1ec3;" horiz-adv-x="1128" 
d="M588 -20q-142 0 -250.5 62.5t-169.5 180.5t-61 284q0 165 55 288.5t160 191t253 67.5q143 0 242 -61.5t151 -175.5t52 -272v-64h-753q-1 -104 33.5 -189t105.5 -136t179 -51q106 0 182 49.5t95 140.5h150q-19 -104 -83 -174t-153.5 -105.5t-187.5 -35.5zM268 592h600
q0 96 -32 173t-97.5 122t-165.5 45q-105 0 -173 -50.5t-100.5 -128.5t-31.5 -161zM277 1155l247 215h114l243 -215h-160l-142 127l-152 -127h-150zM795 1323l-50 78q44 28 62.5 65.5t-2.5 70.5q-21 34 -64 32.5t-85 -29.5l-50 78q83 54 161 44t118 -71q48 -73 22 -144
t-112 -124z" />
    <glyph glyph-name="uni1EC4" unicode="&#x1ec4;" horiz-adv-x="1234" 
d="M199 0v1446h889v-140h-733v-506h666v-140h-666v-516l755 -1v-143h-911zM346 1567l247 215h114l243 -215h-160l-142 127l-152 -127h-150zM392 1895l-32 98q32 29 68.5 49.5t90.5 20.5q48 0 89.5 -13.5t81.5 -27t84 -13.5q43 0 73.5 15t59.5 37l31 -108q-25 -17 -64 -35.5
t-101 -18.5q-53 0 -91.5 12.5t-74 25t-79.5 12.5q-49 0 -78 -16.5t-58 -37.5z" />
    <glyph glyph-name="uni1EC5" unicode="&#x1ec5;" horiz-adv-x="1128" 
d="M588 -20q-142 0 -250.5 62.5t-169.5 180.5t-61 284q0 165 55 288.5t160 191t253 67.5q143 0 242 -61.5t151 -175.5t52 -272v-64h-753q-1 -104 33.5 -189t105.5 -136t179 -51q106 0 182 49.5t95 140.5h150q-19 -104 -83 -174t-153.5 -105.5t-187.5 -35.5zM268 592h600
q0 96 -32 173t-97.5 122t-165.5 45q-105 0 -173 -50.5t-100.5 -128.5t-31.5 -161zM274 1155l247 215h114l243 -215h-160l-142 127l-152 -127h-150zM320 1483l-32 98q32 29 68.5 49.5t90.5 20.5q48 0 89.5 -13.5t81.5 -27t84 -13.5q43 0 73.5 15t59.5 37l31 -108
q-25 -17 -64 -35.5t-101 -18.5q-53 0 -91.5 12.5t-74 25t-79.5 12.5q-49 0 -78 -16.5t-58 -37.5z" />
    <glyph glyph-name="uni1EC6" unicode="&#x1ec6;" horiz-adv-x="1234" 
d="M199 0v1446h889v-140h-733v-506h666v-140h-666v-516l755 -1v-143h-911zM607 -348v163h163v-163h-163zM345 1567l247 215h114l243 -215h-160l-142 127l-152 -127h-150z" />
    <glyph glyph-name="uni1EC7" unicode="&#x1ec7;" horiz-adv-x="1128" 
d="M588 -20q-142 0 -250.5 62.5t-169.5 180.5t-61 284q0 165 55 288.5t160 191t253 67.5q143 0 242 -61.5t151 -175.5t52 -272v-64h-753q-1 -104 33.5 -189t105.5 -136t179 -51q106 0 182 49.5t95 140.5h150q-19 -104 -83 -174t-153.5 -105.5t-187.5 -35.5zM268 592h600
q0 96 -32 173t-97.5 122t-165.5 45q-105 0 -173 -50.5t-100.5 -128.5t-31.5 -161zM494 -348v163h163v-163h-163zM273 1155l247 215h114l243 -215h-160l-142 127l-152 -127h-150z" />
    <glyph glyph-name="uni1EC8" unicode="&#x1ec8;" horiz-adv-x="553" 
d="M199 0v1446h156v-1446h-156zM331 1564l-51 77q44 29 62.5 66t-2.5 70q-20 34 -63.5 33t-84.5 -29l-51 78q83 53 161 43.5t118 -71.5q49 -73 23 -144t-112 -123z" />
    <glyph glyph-name="uni1EC9" unicode="&#x1ec9;" horiz-adv-x="471" 
d="M160 0v1034h151v-1034h-151zM290 1152l-51 77q44 29 62.5 66t-2.5 70q-20 34 -63.5 33t-84.5 -29l-51 78q83 53 161 43.5t118 -71.5q49 -73 23 -144t-112 -123z" />
    <glyph glyph-name="uni1ECA" unicode="&#x1eca;" horiz-adv-x="553" 
d="M199 0v1446h156v-1446h-156zM203 -348v163h163v-163h-163z" />
    <glyph glyph-name="uni1ECB" unicode="&#x1ecb;" horiz-adv-x="484" 
d="M167 0v1034h152v-1034h-152zM160 1273v172h164v-172h-164zM161 -348v163h163v-163h-163z" />
    <glyph glyph-name="uni1ECC" unicode="&#x1ecc;" horiz-adv-x="1453" 
d="M729 -20q-190 0 -328.5 86.5t-214 251.5t-75.5 402q0 239 75.5 405.5t214.5 253.5t328 87t326.5 -87t212 -253t74.5 -406q0 -237 -74 -402t-211.5 -251.5t-327.5 -86.5zM729 120q142 0 240.5 64t149.5 197t51 338q0 208 -52 342.5t-150.5 200t-238.5 65.5t-239.5 -66
t-152.5 -201t-53 -341t53 -338.5t152.5 -196.5t239.5 -64zM650 -348v163h163v-163h-163z" />
    <glyph glyph-name="uni1ECD" unicode="&#x1ecd;" horiz-adv-x="1125" 
d="M565 -20q-141 0 -246 60.5t-163 179.5t-58 293q0 162 53 284t157.5 189.5t256.5 67.5q140 0 244 -61.5t161.5 -182t57.5 -297.5q0 -158 -52.5 -278t-155 -187.5t-255.5 -67.5zM565 106q97 0 166 48t105 140t36 223q0 118 -31.5 211t-99.5 146.5t-176 53.5
q-98 0 -168 -47.5t-106.5 -139.5t-36.5 -224q0 -118 32 -210.5t101 -146.5t178 -54zM484 -348v163h163v-163h-163z" />
    <glyph glyph-name="uni1ECE" unicode="&#x1ece;" horiz-adv-x="1453" 
d="M729 -20q-190 0 -328.5 86.5t-214 251.5t-75.5 402q0 239 75.5 405.5t214.5 253.5t328 87t326.5 -87t212 -253t74.5 -406q0 -237 -74 -402t-211.5 -251.5t-327.5 -86.5zM729 120q142 0 240.5 64t149.5 197t51 338q0 208 -52 342.5t-150.5 200t-238.5 65.5t-239.5 -66
t-152.5 -201t-53 -341t53 -338.5t152.5 -196.5t239.5 -64zM784 1564l-51 77q44 29 62.5 66t-2.5 70q-20 34 -63.5 33t-84.5 -29l-51 78q83 53 161 43.5t118 -71.5q49 -73 23 -144t-112 -123z" />
    <glyph glyph-name="uni1ECF" unicode="&#x1ecf;" horiz-adv-x="1125" 
d="M565 -20q-141 0 -246 60.5t-163 179.5t-58 293q0 162 53 284t157.5 189.5t256.5 67.5q140 0 244 -61.5t161.5 -182t57.5 -297.5q0 -158 -52.5 -278t-155 -187.5t-255.5 -67.5zM565 106q97 0 166 48t105 140t36 223q0 118 -31.5 211t-99.5 146.5t-176 53.5
q-98 0 -168 -47.5t-106.5 -139.5t-36.5 -224q0 -118 32 -210.5t101 -146.5t178 -54zM617 1152l-51 77q44 29 62.5 66t-2.5 70q-20 34 -63.5 33t-84.5 -29l-51 78q83 53 161 43.5t118 -71.5q49 -73 23 -144t-112 -123z" />
    <glyph glyph-name="uni1ED0" unicode="&#x1ed0;" horiz-adv-x="1453" 
d="M729 -20q-190 0 -328.5 86.5t-214 251.5t-75.5 402q0 239 75.5 405.5t214.5 253.5t328 87t326.5 -87t212 -253t74.5 -406q0 -237 -74 -402t-211.5 -251.5t-327.5 -86.5zM729 120q142 0 240.5 64t149.5 197t51 338q0 208 -52 342.5t-150.5 200t-238.5 65.5t-239.5 -66
t-152.5 -201t-53 -341t53 -338.5t152.5 -196.5t239.5 -64zM428 1567l247 215h114l243 -215h-160l-142 127l-152 -127h-150zM902 1782l144 237h159l-194 -237h-109z" />
    <glyph glyph-name="uni1ED1" unicode="&#x1ed1;" horiz-adv-x="1125" 
d="M565 -20q-141 0 -246 60.5t-163 179.5t-58 293q0 162 53 284t157.5 189.5t256.5 67.5q140 0 244 -61.5t161.5 -182t57.5 -297.5q0 -158 -52.5 -278t-155 -187.5t-255.5 -67.5zM565 106q97 0 166 48t105 140t36 223q0 118 -31.5 211t-99.5 146.5t-176 53.5
q-98 0 -168 -47.5t-106.5 -139.5t-36.5 -224q0 -118 32 -210.5t101 -146.5t178 -54zM261 1155l247 215h114l243 -215h-160l-142 127l-152 -127h-150zM735 1370l144 237h159l-194 -237h-109z" />
    <glyph glyph-name="uni1ED2" unicode="&#x1ed2;" horiz-adv-x="1453" 
d="M729 -20q-190 0 -328.5 86.5t-214 251.5t-75.5 402q0 239 75.5 405.5t214.5 253.5t328 87t326.5 -87t212 -253t74.5 -406q0 -237 -74 -402t-211.5 -251.5t-327.5 -86.5zM729 120q142 0 240.5 64t149.5 197t51 338q0 208 -52 342.5t-150.5 200t-238.5 65.5t-239.5 -66
t-152.5 -201t-53 -341t53 -338.5t152.5 -196.5t239.5 -64zM428 1567l247 215h114l243 -215h-160l-142 127l-152 -127h-150zM1003 1783l-206 237h158l159 -237h-111z" />
    <glyph glyph-name="uni1ED3" unicode="&#x1ed3;" horiz-adv-x="1125" 
d="M565 -20q-141 0 -246 60.5t-163 179.5t-58 293q0 162 53 284t157.5 189.5t256.5 67.5q140 0 244 -61.5t161.5 -182t57.5 -297.5q0 -158 -52.5 -278t-155 -187.5t-255.5 -67.5zM565 106q97 0 166 48t105 140t36 223q0 118 -31.5 211t-99.5 146.5t-176 53.5
q-98 0 -168 -47.5t-106.5 -139.5t-36.5 -224q0 -118 32 -210.5t101 -146.5t178 -54zM261 1155l247 215h114l243 -215h-160l-142 127l-152 -127h-150zM836 1371l-206 237h158l159 -237h-111z" />
    <glyph glyph-name="uni1ED4" unicode="&#x1ed4;" horiz-adv-x="1453" 
d="M729 -20q-190 0 -328.5 86.5t-214 251.5t-75.5 402q0 239 75.5 405.5t214.5 253.5t328 87t326.5 -87t212 -253t74.5 -406q0 -237 -74 -402t-211.5 -251.5t-327.5 -86.5zM729 120q142 0 240.5 64t149.5 197t51 338q0 208 -52 342.5t-150.5 200t-238.5 65.5t-239.5 -66
t-152.5 -201t-53 -341t53 -338.5t152.5 -196.5t239.5 -64zM432 1567l247 215h114l243 -215h-160l-142 127l-152 -127h-150zM950 1735l-50 78q44 28 62.5 65.5t-2.5 70.5q-21 34 -64 32.5t-85 -29.5l-50 78q83 54 161 44t118 -71q48 -73 22 -144t-112 -124z" />
    <glyph glyph-name="uni1ED5" unicode="&#x1ed5;" horiz-adv-x="1125" 
d="M565 -20q-141 0 -246 60.5t-163 179.5t-58 293q0 162 53 284t157.5 189.5t256.5 67.5q140 0 244 -61.5t161.5 -182t57.5 -297.5q0 -158 -52.5 -278t-155 -187.5t-255.5 -67.5zM565 106q97 0 166 48t105 140t36 223q0 118 -31.5 211t-99.5 146.5t-176 53.5
q-98 0 -168 -47.5t-106.5 -139.5t-36.5 -224q0 -118 32 -210.5t101 -146.5t178 -54zM265 1155l247 215h114l243 -215h-160l-142 127l-152 -127h-150zM783 1323l-50 78q44 28 62.5 65.5t-2.5 70.5q-21 34 -64 32.5t-85 -29.5l-50 78q83 54 161 44t118 -71q48 -73 22 -144
t-112 -124z" />
    <glyph glyph-name="uni1ED6" unicode="&#x1ed6;" horiz-adv-x="1453" 
d="M729 -20q-190 0 -328.5 86.5t-214 251.5t-75.5 402q0 239 75.5 405.5t214.5 253.5t328 87t326.5 -87t212 -253t74.5 -406q0 -237 -74 -402t-211.5 -251.5t-327.5 -86.5zM729 120q142 0 240.5 64t149.5 197t51 338q0 208 -52 342.5t-150.5 200t-238.5 65.5t-239.5 -66
t-152.5 -201t-53 -341t53 -338.5t152.5 -196.5t239.5 -64zM429 1567l247 215h114l243 -215h-160l-142 127l-152 -127h-150zM475 1895l-32 98q32 29 68.5 49.5t90.5 20.5q48 0 89.5 -13.5t81.5 -27t84 -13.5q43 0 73.5 15t59.5 37l31 -108q-25 -17 -64 -35.5t-101 -18.5
q-53 0 -91.5 12.5t-74 25t-79.5 12.5q-49 0 -78 -16.5t-58 -37.5z" />
    <glyph glyph-name="uni1ED7" unicode="&#x1ed7;" horiz-adv-x="1125" 
d="M565 -20q-141 0 -246 60.5t-163 179.5t-58 293q0 162 53 284t157.5 189.5t256.5 67.5q140 0 244 -61.5t161.5 -182t57.5 -297.5q0 -158 -52.5 -278t-155 -187.5t-255.5 -67.5zM565 106q97 0 166 48t105 140t36 223q0 118 -31.5 211t-99.5 146.5t-176 53.5
q-98 0 -168 -47.5t-106.5 -139.5t-36.5 -224q0 -118 32 -210.5t101 -146.5t178 -54zM262 1155l247 215h114l243 -215h-160l-142 127l-152 -127h-150zM308 1483l-32 98q32 29 68.5 49.5t90.5 20.5q48 0 89.5 -13.5t81.5 -27t84 -13.5q43 0 73.5 15t59.5 37l31 -108
q-25 -17 -64 -35.5t-101 -18.5q-53 0 -91.5 12.5t-74 25t-79.5 12.5q-49 0 -78 -16.5t-58 -37.5z" />
    <glyph glyph-name="uni1ED8" unicode="&#x1ed8;" horiz-adv-x="1453" 
d="M729 -20q-190 0 -328.5 86.5t-214 251.5t-75.5 402q0 239 75.5 405.5t214.5 253.5t328 87t326.5 -87t212 -253t74.5 -406q0 -237 -74 -402t-211.5 -251.5t-327.5 -86.5zM729 120q142 0 240.5 64t149.5 197t51 338q0 208 -52 342.5t-150.5 200t-238.5 65.5t-239.5 -66
t-152.5 -201t-53 -341t53 -338.5t152.5 -196.5t239.5 -64zM650 -348v163h163v-163h-163zM428 1567l247 215h114l243 -215h-160l-142 127l-152 -127h-150z" />
    <glyph glyph-name="uni1ED9" unicode="&#x1ed9;" horiz-adv-x="1125" 
d="M565 -20q-141 0 -246 60.5t-163 179.5t-58 293q0 162 53 284t157.5 189.5t256.5 67.5q140 0 244 -61.5t161.5 -182t57.5 -297.5q0 -158 -52.5 -278t-155 -187.5t-255.5 -67.5zM565 106q97 0 166 48t105 140t36 223q0 118 -31.5 211t-99.5 146.5t-176 53.5
q-98 0 -168 -47.5t-106.5 -139.5t-36.5 -224q0 -118 32 -210.5t101 -146.5t178 -54zM484 -348v163h163v-163h-163zM261 1155l247 215h114l243 -215h-160l-142 127l-152 -127h-150z" />
    <glyph glyph-name="uni1EDA" unicode="&#x1eda;" horiz-adv-x="1544" 
d="M729 -20q-190 0 -328.5 86.5t-214 251.5t-75.5 402q0 239 75.5 405.5t214.5 253.5t328 87q140 0 252 -47.5t191 -139.5q38 1 65 10t44 30t26.5 59t11.5 98h135q0 -95 -22 -159t-69 -98t-123 -39q50 -88 76 -203t26 -257q0 -237 -74 -402t-211.5 -251.5t-327.5 -86.5z
M729 120q142 0 240.5 64t149.5 197t51 338q0 208 -52 342.5t-150.5 200t-238.5 65.5t-239.5 -66t-152.5 -201t-53 -341t53 -338.5t152.5 -196.5t239.5 -64zM657 1567l206 291h186l-268 -291h-124z" />
    <glyph glyph-name="uni1EDB" unicode="&#x1edb;" horiz-adv-x="1182" 
d="M500 1155l206 291h186l-268 -291h-124zM565 -20q-141 0 -246 60.5t-163 179.5t-58 293q0 162 53 284t157.5 189.5t256.5 67.5q105 0 189.5 -34.5t145.5 -101.5q43 5 69 22.5t39 59t16 114.5h135q0 -91 -20 -153.5t-63 -97t-113 -43.5q65 -121 65 -307q0 -158 -52.5 -278
t-155 -187.5t-255.5 -67.5zM565 106q97 0 166 48t105 140t36 223q0 118 -31.5 211t-99.5 146.5t-176 53.5q-98 0 -168 -47.5t-106.5 -139.5t-36.5 -224q0 -118 32 -210.5t101 -146.5t178 -54z" />
    <glyph glyph-name="uni1EDC" unicode="&#x1edc;" horiz-adv-x="1544" 
d="M729 -20q-190 0 -328.5 86.5t-214 251.5t-75.5 402q0 239 75.5 405.5t214.5 253.5t328 87q140 0 252 -47.5t191 -139.5q38 1 65 10t44 30t26.5 59t11.5 98h135q0 -95 -22 -159t-69 -98t-123 -39q50 -88 76 -203t26 -257q0 -237 -74 -402t-211.5 -251.5t-327.5 -86.5z
M729 120q142 0 240.5 64t149.5 197t51 338q0 208 -52 342.5t-150.5 200t-238.5 65.5t-239.5 -66t-152.5 -201t-53 -341t53 -338.5t152.5 -196.5t239.5 -64zM675 1567l-268 291h186l206 -291h-124z" />
    <glyph glyph-name="uni1EDD" unicode="&#x1edd;" horiz-adv-x="1182" 
d="M498 1155l-268 291h186l206 -291h-124zM565 -20q-141 0 -246 60.5t-163 179.5t-58 293q0 162 53 284t157.5 189.5t256.5 67.5q105 0 189.5 -34.5t145.5 -101.5q43 5 69 22.5t39 59t16 114.5h135q0 -91 -20 -153.5t-63 -97t-113 -43.5q65 -121 65 -307q0 -158 -52.5 -278
t-155 -187.5t-255.5 -67.5zM565 106q97 0 166 48t105 140t36 223q0 118 -31.5 211t-99.5 146.5t-176 53.5q-98 0 -168 -47.5t-106.5 -139.5t-36.5 -224q0 -118 32 -210.5t101 -146.5t178 -54z" />
    <glyph glyph-name="uni1EDE" unicode="&#x1ede;" horiz-adv-x="1544" 
d="M729 -20q-190 0 -328.5 86.5t-214 251.5t-75.5 402q0 239 75.5 405.5t214.5 253.5t328 87q140 0 252 -47.5t191 -139.5q38 1 65 10t44 30t26.5 59t11.5 98h135q0 -95 -22 -159t-69 -98t-123 -39q50 -88 76 -203t26 -257q0 -237 -74 -402t-211.5 -251.5t-327.5 -86.5z
M729 120q142 0 240.5 64t149.5 197t51 338q0 208 -52 342.5t-150.5 200t-238.5 65.5t-239.5 -66t-152.5 -201t-53 -341t53 -338.5t152.5 -196.5t239.5 -64zM784 1564l-51 77q44 29 62.5 66t-2.5 70q-20 34 -63.5 33t-84.5 -29l-51 78q83 53 161 43.5t118 -71.5
q49 -73 23 -144t-112 -123z" />
    <glyph glyph-name="uni1EDF" unicode="&#x1edf;" horiz-adv-x="1182" 
d="M615 1152l-51 77q44 29 62.5 66t-2.5 70q-20 34 -63.5 33t-84.5 -29l-51 78q83 53 161 43.5t118 -71.5q49 -73 23 -144t-112 -123zM565 -20q-141 0 -246 60.5t-163 179.5t-58 293q0 162 53 284t157.5 189.5t256.5 67.5q105 0 189.5 -34.5t145.5 -101.5q43 5 69 22.5
t39 59t16 114.5h135q0 -91 -20 -153.5t-63 -97t-113 -43.5q65 -121 65 -307q0 -158 -52.5 -278t-155 -187.5t-255.5 -67.5zM565 106q97 0 166 48t105 140t36 223q0 118 -31.5 211t-99.5 146.5t-176 53.5q-98 0 -168 -47.5t-106.5 -139.5t-36.5 -224q0 -118 32 -210.5
t101 -146.5t178 -54z" />
    <glyph glyph-name="uni1EE0" unicode="&#x1ee0;" horiz-adv-x="1544" 
d="M729 -20q-190 0 -328.5 86.5t-214 251.5t-75.5 402q0 239 75.5 405.5t214.5 253.5t328 87q140 0 252 -47.5t191 -139.5q38 1 65 10t44 30t26.5 59t11.5 98h135q0 -95 -22 -159t-69 -98t-123 -39q50 -88 76 -203t26 -257q0 -237 -74 -402t-211.5 -251.5t-327.5 -86.5z
M729 120q142 0 240.5 64t149.5 197t51 338q0 208 -52 342.5t-150.5 200t-238.5 65.5t-239.5 -66t-152.5 -201t-53 -341t53 -338.5t152.5 -196.5t239.5 -64zM475 1639l-31 98q32 29 68.5 49.5t90.5 20.5q47 0 88.5 -13.5t82 -27t84.5 -13.5q43 0 73 15t60 37l31 -108
q-25 -17 -64 -35.5t-101 -18.5q-53 0 -91.5 12.5t-74.5 25t-80 12.5q-49 0 -78 -16.5t-58 -37.5z" />
    <glyph glyph-name="uni1EE1" unicode="&#x1ee1;" horiz-adv-x="1182" 
d="M307 1227l-31 98q32 29 68.5 49.5t90.5 20.5q47 0 88.5 -13.5t82 -27t84.5 -13.5q43 0 73 15t60 37l31 -108q-25 -17 -64 -35.5t-101 -18.5q-53 0 -91.5 12.5t-74.5 25t-80 12.5q-49 0 -78 -16.5t-58 -37.5zM565 -20q-141 0 -246 60.5t-163 179.5t-58 293q0 162 53 284
t157.5 189.5t256.5 67.5q105 0 189.5 -34.5t145.5 -101.5q43 5 69 22.5t39 59t16 114.5h135q0 -91 -20 -153.5t-63 -97t-113 -43.5q65 -121 65 -307q0 -158 -52.5 -278t-155 -187.5t-255.5 -67.5zM565 106q97 0 166 48t105 140t36 223q0 118 -31.5 211t-99.5 146.5
t-176 53.5q-98 0 -168 -47.5t-106.5 -139.5t-36.5 -224q0 -118 32 -210.5t101 -146.5t178 -54z" />
    <glyph glyph-name="uni1EE2" unicode="&#x1ee2;" horiz-adv-x="1544" 
d="M729 -20q-190 0 -328.5 86.5t-214 251.5t-75.5 402q0 239 75.5 405.5t214.5 253.5t328 87q140 0 252 -47.5t191 -139.5q38 1 65 10t44 30t26.5 59t11.5 98h135q0 -95 -22 -159t-69 -98t-123 -39q50 -88 76 -203t26 -257q0 -237 -74 -402t-211.5 -251.5t-327.5 -86.5z
M729 120q142 0 240.5 64t149.5 197t51 338q0 208 -52 342.5t-150.5 200t-238.5 65.5t-239.5 -66t-152.5 -201t-53 -341t53 -338.5t152.5 -196.5t239.5 -64zM650 -348v163h163v-163h-163z" />
    <glyph glyph-name="uni1EE3" unicode="&#x1ee3;" horiz-adv-x="1182" 
d="M468 -348v163h163v-163h-163zM565 -20q-141 0 -246 60.5t-163 179.5t-58 293q0 162 53 284t157.5 189.5t256.5 67.5q105 0 189.5 -34.5t145.5 -101.5q43 5 69 22.5t39 59t16 114.5h135q0 -91 -20 -153.5t-63 -97t-113 -43.5q65 -121 65 -307q0 -158 -52.5 -278
t-155 -187.5t-255.5 -67.5zM565 106q97 0 166 48t105 140t36 223q0 118 -31.5 211t-99.5 146.5t-176 53.5q-98 0 -168 -47.5t-106.5 -139.5t-36.5 -224q0 -118 32 -210.5t101 -146.5t178 -54z" />
    <glyph glyph-name="uni1EE4" unicode="&#x1ee4;" horiz-adv-x="1388" 
d="M713 -20q-181 0 -294.5 59.5t-166.5 177.5t-53 291v938h163v-967q0 -180 89.5 -270t261.5 -90q116 0 196 39.5t121.5 119.5t41.5 201v967h157v-960q0 -164 -54.5 -277t-168.5 -171t-293 -58zM631 -345v163h163v-163h-163z" />
    <glyph glyph-name="uni1EE5" unicode="&#x1ee5;" horiz-adv-x="1153" 
d="M540 -20q-83 1 -155 23.5t-126.5 67t-85 111t-30.5 154.5v698h156v-684q0 -109 66 -176.5t203 -67.5q122 0 196 63.5t74 192.5v672h155v-1034h-126l-16 196q-18 -74 -62.5 -122t-108 -71.5t-140.5 -22.5zM491 -348v163h163v-163h-163z" />
    <glyph glyph-name="uni1EE6" unicode="&#x1ee6;" horiz-adv-x="1388" 
d="M713 -20q-181 0 -294.5 59.5t-166.5 177.5t-53 291v938h163v-967q0 -180 89.5 -270t261.5 -90q116 0 196 39.5t121.5 119.5t41.5 201v967h157v-960q0 -164 -54.5 -277t-168.5 -171t-293 -58zM770 1564l-51 77q44 29 62.5 66t-2.5 70q-20 34 -63.5 33t-84.5 -29l-51 78
q83 53 161 43.5t118 -71.5q49 -73 23 -144t-112 -123z" />
    <glyph glyph-name="uni1EE7" unicode="&#x1ee7;" horiz-adv-x="1153" 
d="M540 -20q-83 1 -155 23.5t-126.5 67t-85 111t-30.5 154.5v698h156v-684q0 -109 66 -176.5t203 -67.5q122 0 196 63.5t74 192.5v672h155v-1034h-126l-16 196q-18 -74 -62.5 -122t-108 -71.5t-140.5 -22.5zM625 1152l-51 77q44 29 62.5 66t-2.5 70q-20 34 -63.5 33
t-84.5 -29l-51 78q83 53 161 43.5t118 -71.5q49 -73 23 -144t-112 -123z" />
    <glyph glyph-name="uni1EE8" unicode="&#x1ee8;" horiz-adv-x="1593" 
d="M713 -20q-181 0 -294.5 59.5t-166.5 177.5t-53 291v938h163v-967q0 -180 89.5 -270t261.5 -90q116 0 196 39.5t121.5 119.5t41.5 201v967h157v-167q46 3 72.5 21t40.5 60t17 116h135q0 -105 -27 -172.5t-85 -97.5t-153 -26v-694q0 -164 -54.5 -277t-168.5 -171t-293 -58z
M643 1567l206 291h186l-268 -291h-124z" />
    <glyph glyph-name="uni1EE9" unicode="&#x1ee9;" horiz-adv-x="1273" 
d="M519 1155l206 291h186l-268 -291h-124zM540 -20q-83 1 -155 23.5t-126.5 67t-85 111t-30.5 154.5v698h156v-684q0 -109 66 -176.5t203 -67.5q122 0 196 63.5t74 192.5v672h155v-118q50 1 79.5 18.5t44 60t17.5 119.5h135q0 -107 -28 -175t-88.5 -97.5t-159.5 -23.5v-818
h-126l-16 196q-18 -74 -62.5 -122t-108 -71.5t-140.5 -22.5z" />
    <glyph glyph-name="uni1EEA" unicode="&#x1eea;" horiz-adv-x="1593" 
d="M713 -20q-181 0 -294.5 59.5t-166.5 177.5t-53 291v938h163v-967q0 -180 89.5 -270t261.5 -90q116 0 196 39.5t121.5 119.5t41.5 201v967h157v-167q46 3 72.5 21t40.5 60t17 116h135q0 -105 -27 -172.5t-85 -97.5t-153 -26v-694q0 -164 -54.5 -277t-168.5 -171t-293 -58z
M661 1567l-268 291h186l206 -291h-124z" />
    <glyph glyph-name="uni1EEB" unicode="&#x1eeb;" horiz-adv-x="1273" 
d="M517 1155l-268 291h186l206 -291h-124zM540 -20q-83 1 -155 23.5t-126.5 67t-85 111t-30.5 154.5v698h156v-684q0 -109 66 -176.5t203 -67.5q122 0 196 63.5t74 192.5v672h155v-118q50 1 79.5 18.5t44 60t17.5 119.5h135q0 -107 -28 -175t-88.5 -97.5t-159.5 -23.5v-818
h-126l-16 196q-18 -74 -62.5 -122t-108 -71.5t-140.5 -22.5z" />
    <glyph glyph-name="uni1EEC" unicode="&#x1eec;" horiz-adv-x="1593" 
d="M713 -20q-181 0 -294.5 59.5t-166.5 177.5t-53 291v938h163v-967q0 -180 89.5 -270t261.5 -90q116 0 196 39.5t121.5 119.5t41.5 201v967h157v-167q46 3 72.5 21t40.5 60t17 116h135q0 -105 -27 -172.5t-85 -97.5t-153 -26v-694q0 -164 -54.5 -277t-168.5 -171t-293 -58z
M770 1564l-51 77q44 29 62.5 66t-2.5 70q-20 34 -63.5 33t-84.5 -29l-51 78q83 53 161 43.5t118 -71.5q49 -73 23 -144t-112 -123z" />
    <glyph glyph-name="uni1EED" unicode="&#x1eed;" horiz-adv-x="1273" 
d="M634 1152l-51 77q44 29 62.5 66t-2.5 70q-20 34 -63.5 33t-84.5 -29l-51 78q83 53 161 43.5t118 -71.5q49 -73 23 -144t-112 -123zM540 -20q-83 1 -155 23.5t-126.5 67t-85 111t-30.5 154.5v698h156v-684q0 -109 66 -176.5t203 -67.5q122 0 196 63.5t74 192.5v672h155
v-118q50 1 79.5 18.5t44 60t17.5 119.5h135q0 -107 -28 -175t-88.5 -97.5t-159.5 -23.5v-818h-126l-16 196q-18 -74 -62.5 -122t-108 -71.5t-140.5 -22.5z" />
    <glyph glyph-name="uni1EEE" unicode="&#x1eee;" horiz-adv-x="1590" 
d="M713 -20q-181 0 -294.5 59.5t-166.5 177.5t-53 291v938h163v-967q0 -180 89.5 -270t261.5 -90q116 0 196 39.5t121.5 119.5t41.5 201v967h157v-167q46 3 72.5 21t40.5 60t17 116h135q0 -105 -27 -172.5t-85 -97.5t-153 -26v-694q0 -164 -54.5 -277t-168.5 -171t-293 -58z
M461 1639l-31 98q32 29 68.5 49.5t90.5 20.5q47 0 88.5 -13.5t82 -27t84.5 -13.5q43 0 73 15t60 37l31 -108q-25 -17 -64 -35.5t-101 -18.5q-53 0 -91.5 12.5t-74.5 25t-80 12.5q-49 0 -78 -16.5t-58 -37.5z" />
    <glyph glyph-name="uni1EEF" unicode="&#x1eef;" horiz-adv-x="1273" 
d="M326 1227l-31 98q32 29 68.5 49.5t90.5 20.5q47 0 88.5 -13.5t82 -27t84.5 -13.5q43 0 73 15t60 37l31 -108q-25 -17 -64 -35.5t-101 -18.5q-53 0 -91.5 12.5t-74.5 25t-80 12.5q-49 0 -78 -16.5t-58 -37.5zM540 -20q-83 1 -155 23.5t-126.5 67t-85 111t-30.5 154.5v698
h156v-684q0 -109 66 -176.5t203 -67.5q122 0 196 63.5t74 192.5v672h155v-118q50 1 79.5 18.5t44 60t17.5 119.5h135q0 -107 -28 -175t-88.5 -97.5t-159.5 -23.5v-818h-126l-16 196q-18 -74 -62.5 -122t-108 -71.5t-140.5 -22.5z" />
    <glyph glyph-name="uni1EF0" unicode="&#x1ef0;" horiz-adv-x="1593" 
d="M713 -20q-181 0 -294.5 59.5t-166.5 177.5t-53 291v938h163v-967q0 -180 89.5 -270t261.5 -90q116 0 196 39.5t121.5 119.5t41.5 201v967h157v-167q46 3 72.5 21t40.5 60t17 116h135q0 -105 -27 -172.5t-85 -97.5t-153 -26v-694q0 -164 -54.5 -277t-168.5 -171t-293 -58z
M631 -345v163h163v-163h-163z" />
    <glyph glyph-name="uni1EF1" unicode="&#x1ef1;" horiz-adv-x="1273" 
d="M488 -348v163h163v-163h-163zM540 -20q-83 1 -155 23.5t-126.5 67t-85 111t-30.5 154.5v698h156v-684q0 -109 66 -176.5t203 -67.5q122 0 196 63.5t74 192.5v672h155v-118q50 1 79.5 18.5t44 60t17.5 119.5h135q0 -107 -28 -175t-88.5 -97.5t-159.5 -23.5v-818h-126
l-16 196q-18 -74 -62.5 -122t-108 -71.5t-140.5 -22.5z" />
    <glyph glyph-name="Ygrave" unicode="&#x1ef2;" horiz-adv-x="1182" 
d="M516 0v619l-491 827h171l398 -686l392 686h171l-486 -829v-617h-155zM549 1570l-268 291h186l206 -291h-124z" />
    <glyph glyph-name="ygrave" unicode="&#x1ef3;" horiz-adv-x="1055" 
d="M248 -330q-87 0 -118.5 11.5l-31.5 11.5v102l107 -1q55 -2 92 8t60.5 27.5t37 39t21.5 42.5l41 109l-404 1014h159l321 -832l317 832h152l-440 -1131q-36 -90 -83 -140.5t-105 -71.5t-126 -21zM478 1155l-268 291h186l206 -291h-124z" />
    <glyph glyph-name="uni1EF4" unicode="&#x1ef4;" horiz-adv-x="1182" 
d="M516 0v619l-491 827h171l398 -686l392 686h171l-486 -829v-617h-155zM513 -348v163h163v-163h-163z" />
    <glyph glyph-name="uni1EF5" unicode="&#x1ef5;" horiz-adv-x="1055" 
d="M248 -330q-87 0 -118.5 11.5l-31.5 11.5v102l107 -1q55 -2 92 8t60.5 27.5t37 39t21.5 42.5l41 109l-404 1014h159l321 -832l317 832h152l-440 -1131q-36 -90 -83 -140.5t-105 -71.5t-126 -21zM694 -344v163h163v-163h-163z" />
    <glyph glyph-name="uni1EF6" unicode="&#x1ef6;" horiz-adv-x="1182" 
d="M516 0v619l-491 827h171l398 -686l392 686h171l-486 -829v-617h-155zM657 1567l-51 77q44 29 62.5 66t-2.5 70q-20 34 -63.5 33t-84.5 -29l-51 78q83 53 161 43.5t118 -71.5q49 -73 23 -144t-112 -123z" />
    <glyph glyph-name="uni1EF7" unicode="&#x1ef7;" horiz-adv-x="1055" 
d="M248 -330q-87 0 -118.5 11.5l-31.5 11.5v102l107 -1q55 -2 92 8t60.5 27.5t37 39t21.5 42.5l41 109l-404 1014h159l321 -832l317 832h152l-440 -1131q-36 -90 -83 -140.5t-105 -71.5t-126 -21zM586 1152l-51 77q44 29 62.5 66t-2.5 70q-20 34 -63.5 33t-84.5 -29l-51 78
q83 53 161 43.5t118 -71.5q49 -73 23 -144t-112 -123z" />
    <glyph glyph-name="uni1EF8" unicode="&#x1ef8;" horiz-adv-x="1182" 
d="M516 0v619l-491 827h171l398 -686l392 686h171l-486 -829v-617h-155zM349 1642l-31 98q32 29 68.5 49.5t90.5 20.5q47 0 88.5 -13.5t82 -27t84.5 -13.5q43 0 73 15t60 37l31 -108q-25 -17 -64 -35.5t-101 -18.5q-53 0 -91.5 12.5t-74.5 25t-80 12.5q-49 0 -78 -16.5
t-58 -37.5z" />
    <glyph glyph-name="uni1EF9" unicode="&#x1ef9;" horiz-adv-x="1055" 
d="M248 -330q-87 0 -118.5 11.5l-31.5 11.5v102l107 -1q55 -2 92 8t60.5 27.5t37 39t21.5 42.5l41 109l-404 1014h159l321 -832l317 832h152l-440 -1131q-36 -90 -83 -140.5t-105 -71.5t-126 -21zM278 1227l-31 98q32 29 68.5 49.5t90.5 20.5q47 0 88.5 -13.5t82 -27
t84.5 -13.5q43 0 73 15t60 37l31 -108q-25 -17 -64 -35.5t-101 -18.5q-53 0 -91.5 12.5t-74.5 25t-80 12.5q-49 0 -78 -16.5t-58 -37.5z" />
    <glyph glyph-name="endash" unicode="&#x2013;" horiz-adv-x="1090" 
d="M125 439v127l841 1v-127z" />
    <glyph glyph-name="emdash" unicode="&#x2014;" horiz-adv-x="2216" 
d="M374 439v127l1469 1v-127z" />
    <glyph glyph-name="quoteleft" unicode="&#x2018;" horiz-adv-x="466" 
d="M114 1063v176l161 271h80l-110 -241l82 -4v-202h-213z" />
    <glyph glyph-name="quoteright" unicode="&#x2019;" horiz-adv-x="446" 
d="M100 999l110 241l-82 4v202h213v-176l-161 -271h-80z" />
    <glyph glyph-name="quotesinglbase" unicode="&#x201a;" horiz-adv-x="464" 
d="M85 -242l110 240l-82 4v204h213v-177l-161 -271h-80z" />
    <glyph glyph-name="quotedblleft" unicode="&#x201c;" horiz-adv-x="806" 
d="M114 999v178l162 269h80l-111 -240l82 -3v-204h-213zM453 999v178l161 269h80l-111 -240l83 -3v-204h-213z" />
    <glyph glyph-name="quotedblright" unicode="&#x201d;" horiz-adv-x="784" 
d="M438 999l111 241l-82 4v202h212v-176l-161 -271h-80zM100 999l110 241l-82 4v202h213v-176l-161 -271h-80z" />
    <glyph glyph-name="quotedblbase" unicode="&#x201e;" horiz-adv-x="811" 
d="M432 -242l110 240l-82 4v204h213v-177l-161 -271h-80zM85 -242l110 240l-82 4v204h213v-177l-161 -271h-80z" />
    <glyph glyph-name="dagger" unicode="&#x2020;" horiz-adv-x="880" 
d="M355 -322l31 1131l-363 -23v151l356 -20l-25 529h170l-26 -529l355 20v-151l-363 23l33 -1131h-168z" />
    <glyph glyph-name="daggerdbl" unicode="&#x2021;" horiz-adv-x="880" 
d="M354 -322l25 520l-356 -20v152l362 -24v492l-362 -22v150l356 -20l-25 540h169l-25 -540l355 20v-150l-362 22v-492l362 24v-152l-356 20l27 -520h-170z" />
    <glyph glyph-name="bullet" unicode="&#x2022;" horiz-adv-x="613" 
d="M303 554q-50 0 -91 24.5t-65 66t-24 91.5t24 91t65 65t91 24t91 -24t65 -65t24 -91t-24 -91.5t-65 -66t-91 -24.5z" />
    <glyph glyph-name="ellipsis" unicode="&#x2026;" horiz-adv-x="1466" 
d="M1153 0v214h193v-214h-193zM113 0v214h193v-214h-193zM633 0v214h193v-214h-193z" />
    <glyph glyph-name="perthousand" unicode="&#x2030;" horiz-adv-x="2583" 
d="M351 -8l977 1470h108l-972 -1470h-113zM447 642q-97 0 -173 51t-120 143.5t-44 217.5q0 127 44 219.5t120 143.5t173 51t172 -51t118 -143.5t43 -219.5q0 -125 -42.5 -217.5t-118 -143.5t-172.5 -51zM445 733q102 0 158.5 82t56.5 239q0 158 -57 241t-158 83t-158 -83.5
t-57 -240.5q0 -155 57 -238t158 -83zM1341 -20q-98 0 -174 49.5t-119.5 142.5t-43.5 223q0 127 43.5 220t120 143.5t173.5 50.5q96 0 171.5 -50.5t118.5 -143.5t43 -220q0 -130 -42.5 -223t-118 -142.5t-172.5 -49.5zM1339 72q101 0 158 82t57 239q0 158 -57 240.5
t-158 82.5t-158 -83t-57 -240q0 -155 56.5 -238t158.5 -83zM2135 -20q-98 0 -174 49.5t-119.5 142.5t-43.5 223q0 127 43.5 220t120 143.5t173.5 50.5q96 0 171.5 -50.5t118.5 -143.5t43 -220q0 -130 -42.5 -223t-118 -142.5t-172.5 -49.5zM2133 72q102 0 158 82t56 239
q0 158 -56.5 240.5t-157.5 82.5t-158 -83t-57 -240q0 -155 57 -238t158 -83z" />
    <glyph glyph-name="guilsinglleft" unicode="&#x2039;" horiz-adv-x="539" 
d="M343 144l-268 358l269 375h93l-212 -375l209 -358h-91z" />
    <glyph glyph-name="guilsinglright" unicode="&#x203a;" horiz-adv-x="538" 
d="M106 144l209 358l-212 375h91l269 -375l-268 -358h-89z" />
    <glyph glyph-name="fraction" unicode="&#x2044;" horiz-adv-x="461" 
d="M-195 -8l-113 1l977 1469h108z" />
    <glyph glyph-name="uni2070" unicode="&#x2070;" horiz-adv-x="746" 
d="M373 732q-152 0 -234.5 120t-82.5 342q0 225 83.5 348.5t233.5 123.5q152 0 235 -123t83 -347q0 -221 -82.5 -342.5t-235.5 -121.5zM374 826q104 0 153.5 90.5t49.5 279.5q0 192 -50.5 285t-153.5 93t-154 -94t-51 -284q0 -187 51 -278.5t155 -91.5z" />
    <glyph glyph-name="uni2074" unicode="&#x2074;" horiz-adv-x="776" 
d="M473 745v238h-426v98l423 573h107v-576h152v-95h-152v-238h-104zM152 1078h319v428z" />
    <glyph glyph-name="uni2075" unicode="&#x2075;" horiz-adv-x="783" 
d="M403 731q-126 0 -220.5 67.5t-126.5 175.5l95 31q32 -83 95.5 -132.5t151.5 -49.5q101 0 160 59t59 158q0 96 -62 151.5t-147 55.5q-60 0 -108 -17t-100 -81q-4 0 -5 0.5t-4 1.5l-91 23l41 480h535l-3 -93h-440l-23 -297q42 38 94.5 57t120.5 19q79 0 148 -34t112 -100
t43 -163q0 -142 -89 -227t-236 -85z" />
    <glyph glyph-name="uni2076" unicode="&#x2076;" horiz-adv-x="759" 
d="M394 734q-158 0 -248 122t-90 331q0 229 92 355t257 126q75 0 137.5 -29t103.5 -81t51 -125h-101q-18 68 -68 105.5t-122 37.5q-123 0 -183.5 -100t-54.5 -287q30 67 94 107t142 40q138 0 219 -79t81 -213q0 -93 -38.5 -163t-108 -108.5t-163.5 -38.5zM394 824
q87 0 141.5 59.5t54.5 156.5q0 102 -53 154t-144 52q-54 0 -100.5 -25t-74.5 -65.5t-28 -87.5q-2 -109 55.5 -176.5t148.5 -67.5z" />
    <glyph glyph-name="uni2077" unicode="&#x2077;" horiz-adv-x="703" 
d="M208 747q15 84 58 218.5t115.5 291t174.5 306.5h-509v94h630v-92q-63 -87 -122.5 -199t-108.5 -229t-82 -219.5t-42 -170.5h-114z" />
    <glyph glyph-name="uni2078" unicode="&#x2078;" horiz-adv-x="820" 
d="M410 734q-155 0 -249.5 71t-94.5 189q0 52 25.5 100t66 83t85.5 47q-65 29 -101 77.5t-36 117.5q0 115 85 182t219 67t219 -67t85 -182q0 -69 -35.5 -117.5t-101.5 -77.5q47 -12 87 -47t65.5 -83t25.5 -100q0 -118 -95 -189t-250 -71zM410 822q105 0 167.5 47t62.5 125
q0 79 -63.5 128.5t-166.5 49.5t-166.5 -49.5t-63.5 -128.5q0 -78 62 -125t168 -47zM410 1270q91 0 142.5 40t51.5 113q0 74 -53 117.5t-141 43.5t-141 -44t-53 -117t51.5 -113t142.5 -40z" />
    <glyph glyph-name="uni2079" unicode="&#x2079;" horiz-adv-x="763" 
d="M354 734q-76 0 -140 29t-105.5 81.5t-51.5 122.5h103q17 -63 68.5 -102.5t122.5 -39.5q124 0 190 97t61 293q-28 -69 -91.5 -111t-146.5 -42q-137 0 -219 80t-82 215q0 94 38 164t107 108.5t162 38.5q158 0 247.5 -123t89.5 -331q0 -233 -93.5 -356.5t-259.5 -123.5z
M371 1155q54 0 100 25t74.5 66.5t29.5 88.5q1 108 -56.5 175.5t-148.5 67.5q-86 0 -139.5 -59t-53.5 -157q0 -102 51.5 -154.5t142.5 -52.5z" />
    <glyph glyph-name="colonmonetary" unicode="&#x20a1;" horiz-adv-x="1361" 
d="M715 -20q-193 0 -327.5 87.5t-205.5 254t-71 404.5t70.5 403t205.5 251t328 86q150 0 266 -63t186 -167t83 -226h-168q-17 87 -63.5 159t-123.5 115t-183 43q-140 0 -235.5 -65t-144 -198.5t-48.5 -339.5q0 -310 108.5 -457t319.5 -147q106 0 183 44.5t123.5 118
t63.5 160.5h168q-11 -89 -49.5 -172.5t-105 -149t-162 -103.5t-218.5 -38zM409 -122l320 1682h94l-320 -1682h-94zM623 -122l320 1682h94l-320 -1682h-94z" />
    <glyph glyph-name="franc" unicode="&#x20a3;" horiz-adv-x="1208" 
d="M180 0v1446h923l-1 -138h-744v-533h642v-136h-642v-639h-178zM-7 274v105l699 1v-105z" />
    <glyph glyph-name="lira" unicode="&#x20a4;" horiz-adv-x="1207" 
d="M28 0v137h77q72 -1 124.5 66.5t56.5 211.5q1 16 0.5 34.5t-1.5 42.5q-2 12 -17 12h-214v104h215l-31 189h-184v105h166l-7 56q-28 187 21 298.5t150 160.5t227 49q85 0 165 -29.5t140.5 -80t87.5 -114.5l-140 -52q-32 63 -86.5 100.5t-148.5 37.5q-71 0 -129.5 -28
t-92.5 -80.5t-34 -128.5q0 -25 6 -70t16 -101q3 -18 21 -18l327 2v-105l-329 -2l30 -189l299 2v-105h-293q2 -61 -9 -128.5t-37 -130t-69 -107.5h371q102 0 167 36t99 127l135 -38q-45 -131 -146.5 -197.5t-246.5 -66.5h-686z" />
    <glyph glyph-name="uni20A6" unicode="&#x20a6;" horiz-adv-x="1481" 
d="M221 0v1446h146l793 -1169v1169h156v-1446h-139l-800 1180v-1180h-156zM13 521v99l1456 2v-100zM13 872v99l1456 2v-100z" />
    <glyph glyph-name="uni20A9" unicode="&#x20a9;" horiz-adv-x="2009" 
d="M507 0l-413 1446h159l334 -1205l342 1205h127l339 -1205l342 1205h158l-420 -1446h-154l-330 1169l-335 -1169h-149zM28 618v105l1948 1v-104zM28 930v105l1948 1v-104z" />
    <glyph glyph-name="dong" unicode="&#x20ab;" horiz-adv-x="1002" 
d="M442 247q-99 0 -180 47.5t-129 142.5t-48 236q0 136 48 238t132.5 159t194.5 57q84 0 135 -27.5t91 -63.5q15 -12 20 -9t5 19v399h136v-1182h-132v120q-20 -22 -52.5 -54t-86 -57t-134.5 -25zM129 0v95h725v-95h-725zM487 352q64 0 113.5 28.5t77.5 71t28 85.5v381
q-47 48 -98 73.5t-115 25.5q-113 0 -186 -86t-73 -253q0 -114 34.5 -186t92 -106t126.5 -34zM435 1227v90h535v-90h-535z" />
    <glyph glyph-name="Euro" unicode="&#x20ac;" horiz-adv-x="1170" 
d="M743 -20q-141 0 -252.5 51t-190 147.5t-119.5 234.5t-41 311q0 232 72.5 398.5t205.5 255t317 88.5q101 0 193 -35.5t162 -99.5l-108 -104q-49 43 -106.5 72t-128.5 29q-136 0 -230.5 -67t-143.5 -201.5t-49 -336.5q0 -198 50 -331.5t148 -201t240 -67.5q72 0 136 27.5
t111 66.5l87 -105q-68 -58 -159 -95t-194 -37zM-25 515v105l777 2v-105zM-25 832v105l777 1v-104z" />
    <glyph glyph-name="uni20B9" unicode="&#x20b9;" horiz-adv-x="1137" 
d="M716 0l-248 684h-453v126h375q184 0 273 64.5t89 215.5q0 126 -78.5 188t-234.5 62h-424v106h442q228 0 355 -91.5t127 -266.5q0 -112 -43 -186.5t-108.5 -118.5t-134.5 -67q-14 -4 -8 -19l265 -697h-194zM18 1039v100l1082 1v-99zM18 1347v99l1082 2v-100z" />
    <glyph glyph-name="uni20BA" unicode="&#x20ba;" horiz-adv-x="1087" 
d="M227 0v1446h178v-1307h103q138 1 238.5 83.5t167.5 265.5l148 -34q-35 -106 -89.5 -189.5t-128.5 -143t-169 -90.5t-209 -31h-239zM78 392l-38 110l652 237l41 -109zM68 714l-38 110l653 237l41 -109z" />
    <glyph glyph-name="uni2113" unicode="&#x2113;" horiz-adv-x="976" 
d="M522 -14q-147 0 -225 92t-95 277l-103 -71l-51 101l156 113v516q0 155 45.5 255t123.5 148.5t174 48.5q93 0 154 -40.5t91 -110.5t30 -158q0 -110 -41.5 -208t-109 -186.5t-148.5 -168.5t-161 -152q0 -183 44.5 -258t139.5 -75q71 0 129.5 34.5t124.5 130.5l67 -54
q-25 -50 -57 -92.5t-73.5 -74.5t-94.5 -49.5t-120 -17.5zM362 592q52 47 111.5 109.5t111.5 138t85 161t33 176.5q0 83 -38 128t-111 45q-61 0 -103.5 -34.5t-65.5 -116.5t-23 -225v-382z" />
    <glyph glyph-name="uni2116" unicode="&#x2116;" horiz-adv-x="2307" 
d="M199 0v1446h146l793 -1169v1169h156v-1446h-139l-800 1180v-1180h-156zM1899 795q-97 0 -166 42.5t-105.5 117.5t-36.5 172q0 101 38 177t107.5 118.5t162.5 42.5q96 0 165.5 -43t107 -119t37.5 -176q0 -97 -36.5 -172t-106 -117.5t-167.5 -42.5zM1899 882q94 0 142 67
t48 183q0 112 -48 178t-142 66q-93 0 -140 -66t-47 -178q0 -116 47 -183t140 -67z" />
    <glyph glyph-name="uni2117" unicode="&#x2117;" horiz-adv-x="1626" 
d="M811 -20q-154 0 -289 57.5t-237 159.5t-159.5 237t-57.5 290q0 153 57.5 287.5t159.5 236.5t237 160t289 58q153 0 287.5 -58t237 -160t160.5 -236.5t58 -287.5q0 -155 -58 -290t-160.5 -237t-237 -159.5t-287.5 -57.5zM811 94q127 0 239 44.5t198.5 127t135.5 198.5
t49 260q0 142 -49 258t-135.5 199.5t-198.5 128.5t-239 45q-130 0 -243 -45t-198.5 -128.5t-133.5 -199.5t-48 -258q0 -144 48 -260t133.5 -198.5t198.5 -127t243 -44.5zM552 331v777h298q82 0 147 -22.5t103 -70.5t38 -123q0 -124 -78 -186.5t-199 -62.5h-192v-312h-117z
M669 737h183q70 0 118 34.5t48 106.5q0 79 -50 107.5t-123 28.5h-176v-277z" />
    <glyph glyph-name="uni2120" unicode="&#x2120;" horiz-adv-x="1950" 
d="M980 0v904h132l290 -774l295 774h130v-904h-101v741l-275 -741h-98l-272 734v-734h-101zM416 -13q-87 0 -161.5 28t-124 83.5t-60.5 136.5h103q17 -81 86 -122.5t161 -41.5t158.5 44t66.5 122q0 56 -35.5 91t-113.5 57l-190 50q-92 24 -150.5 76.5t-58.5 154.5
q0 75 41 130.5t112 87t160 31.5q105 0 176.5 -37t108 -96t35.5 -126h-101q-6 66 -38 104.5t-80 55t-104 16.5q-101 0 -154 -46.5t-53 -112.5q0 -60 37.5 -93.5t108.5 -52.5l189 -50q117 -29 163.5 -92.5t46.5 -141.5q0 -73 -40.5 -131t-114.5 -91.5t-174 -33.5z" />
    <glyph glyph-name="trademark" unicode="&#x2122;" horiz-adv-x="1803" 
d="M834 0v904h131l290 -774l295 774h131v-904h-102v741l-274 -741h-99l-272 734v-734h-100zM321 0v813h-297v91h674v-91h-279v-813h-98z" />
    <glyph glyph-name="uni2126" unicode="&#x2126;" horiz-adv-x="1531" 
d="M181 0v145h323q-20 16 -64.5 51.5t-98.5 91.5t-104 133t-82 177t-32 223q0 132 42 254.5t124.5 219t202.5 153t275 56.5q158 0 277.5 -57.5t200.5 -155t122 -219t41 -249.5q0 -106 -21 -193t-67 -165t-119.5 -155t-179.5 -165h329v-145h-511v138q52 37 118 94t127 137.5
t101 188t40 244.5q0 112 -29 213t-86 179.5t-142.5 123.5t-200.5 45q-114 0 -200 -45t-144 -123t-87.5 -179.5t-29.5 -215.5q0 -141 42.5 -255t128 -213.5t216.5 -193.5v-138h-512z" />
    <glyph glyph-name="uni2153" unicode="&#x2153;" horiz-adv-x="1732" 
d="M225 536v729h-178v77q119 -1 162 22.5t45 81.5h80v-910h-109zM318 -8l-113 1l977 1469h108zM1323 -14q-139 2 -225.5 77.5t-89.5 195.5h106q12 -86 70 -132.5t143 -46.5q103 0 164.5 46.5t61.5 121.5q0 81 -64 129t-174 49l-82 1v92l79 2q60 0 109 22.5t78 59t29 80.5
q0 57 -51.5 100.5t-148.5 43.5q-49 0 -95 -19.5t-76 -61t-30 -105.5h-106q0 84 40 146.5t109.5 97t157.5 34.5q93 0 163 -28t109.5 -80t39.5 -125q0 -68 -42 -121.5t-124 -84.5q88 -26 140.5 -84.5t52.5 -146.5q0 -82 -45 -141.5t-122.5 -91t-176.5 -30.5z" />
    <glyph glyph-name="uni2154" unicode="&#x2154;" horiz-adv-x="2031" 
d="M67 537v69v34q0 82 34.5 138.5t89 97.5t116 74t116 67.5t89 79t34.5 106.5q0 72 -50.5 116t-135.5 44q-89 0 -146 -50t-62 -140h-105q0 78 36.5 142.5t107.5 104t174 39.5q133 0 212 -70.5t79 -185.5q0 -82 -34 -138t-88 -96t-114.5 -72t-114.5 -65t-88 -76.5t-34 -106.5
v-16h480v-96h-596zM617 -8l-113 1l977 1469h108zM1622 -14q-139 2 -225.5 77.5t-89.5 195.5h106q12 -86 70 -132.5t143 -46.5q103 0 164.5 46.5t61.5 121.5q0 81 -64 129t-174 49l-82 1v92l79 2q60 0 109 22.5t78 59t29 80.5q0 57 -51.5 100.5t-148.5 43.5q-49 0 -95 -19.5
t-76 -61t-30 -105.5h-106q0 84 40 146.5t109.5 97t157.5 34.5q93 0 163 -28t109.5 -80t39.5 -125q0 -68 -42 -121.5t-124 -84.5q88 -26 140.5 -84.5t52.5 -146.5q0 -82 -45 -141.5t-122.5 -91t-176.5 -30.5z" />
    <glyph glyph-name="oneeighth" unicode="&#x215b;" horiz-adv-x="1762" 
d="M225 536v729h-178v77q119 -1 162 22.5t45 81.5h80v-910h-109zM318 -8l-113 1l977 1469h108zM1352 -11q-155 0 -249.5 71t-94.5 189q0 52 25.5 100t66 83t85.5 47q-65 29 -101 77.5t-36 117.5q0 115 85 182t219 67t219 -67t85 -182q0 -69 -35.5 -117.5t-101.5 -77.5
q47 -12 87 -47t65.5 -83t25.5 -100q0 -118 -95 -189t-250 -71zM1352 77q105 0 167.5 47t62.5 125q0 79 -63.5 128.5t-166.5 49.5t-166.5 -49.5t-63.5 -128.5q0 -78 62 -125t168 -47zM1352 525q91 0 142.5 40t51.5 113q0 74 -53 117.5t-141 43.5t-141 -44t-53 -117t51.5 -113
t142.5 -40z" />
    <glyph glyph-name="threeeighths" unicode="&#x215c;" horiz-adv-x="2014" 
d="M381 526q-139 2 -225.5 77.5t-89.5 195.5h106q12 -86 70 -132.5t143 -46.5q103 0 164.5 46.5t61.5 121.5q0 81 -64 129t-174 49l-82 1v92l79 2q60 0 109 22.5t78 59t29 80.5q0 57 -51.5 100.5t-148.5 43.5q-49 0 -95 -20t-76 -61t-30 -105h-106q0 84 40 146.5t109.5 97
t157.5 34.5q93 0 163 -28t109.5 -80t39.5 -125q0 -68 -42 -121.5t-124 -84.5q88 -26 140.5 -84.5t52.5 -146.5q0 -82 -45 -141.5t-122.5 -91t-176.5 -30.5zM570 -8l-113 1l977 1469h108zM1604 -11q-155 0 -249.5 71t-94.5 189q0 52 25.5 100t66 83t85.5 47q-65 29 -101 77.5
t-36 117.5q0 115 85 182t219 67t219 -67t85 -182q0 -69 -35.5 -117.5t-101.5 -77.5q47 -12 87 -47t65.5 -83t25.5 -100q0 -118 -95 -189t-250 -71zM1604 77q105 0 167.5 47t62.5 125q0 79 -63.5 128.5t-166.5 49.5t-166.5 -49.5t-63.5 -128.5q0 -78 62 -125t168 -47z
M1604 525q91 0 142.5 40t51.5 113q0 74 -53 117.5t-141 43.5t-141 -44t-53 -117t51.5 -113t142.5 -40z" />
    <glyph glyph-name="fiveeighths" unicode="&#x215d;" horiz-adv-x="2007" 
d="M403 523q-126 0 -220.5 67.5t-126.5 175.5l95 31q32 -83 95.5 -132.5t151.5 -49.5q101 0 160 59t59 158q0 96 -62 151.5t-147 55.5q-60 0 -108 -17t-100 -81q-4 0 -5 0.5t-4 1.5l-91 23l41 480h535l-3 -93h-440l-23 -297q42 38 94.5 57t120.5 19q79 0 148 -34t112 -100
t43 -163q0 -142 -89 -227t-236 -85zM563 -8l-113 1l977 1469h108zM1597 -11q-155 0 -249.5 71t-94.5 189q0 52 25.5 100t66 83t85.5 47q-65 29 -101 77.5t-36 117.5q0 115 85 182t219 67t219 -67t85 -182q0 -69 -35.5 -117.5t-101.5 -77.5q47 -12 87 -47t65.5 -83t25.5 -100
q0 -118 -95 -189t-250 -71zM1597 77q105 0 167.5 47t62.5 125q0 79 -63.5 128.5t-166.5 49.5t-166.5 -49.5t-63.5 -128.5q0 -78 62 -125t168 -47zM1597 525q91 0 142.5 40t51.5 113q0 74 -53 117.5t-141 43.5t-141 -44t-53 -117t51.5 -113t142.5 -40z" />
    <glyph glyph-name="seveneighths" unicode="&#x215e;" horiz-adv-x="1828" 
d="M208 537q15 84 58 218.5t115.5 291t174.5 306.5h-509v94h630v-92q-63 -87 -122.5 -199t-108.5 -229t-82 -219.5t-42 -170.5h-114zM384 -8l-113 1l977 1469h108zM1418 -11q-155 0 -249.5 71t-94.5 189q0 52 25.5 100t66 83t85.5 47q-65 29 -101 77.5t-36 117.5
q0 115 85 182t219 67t219 -67t85 -182q0 -69 -35.5 -117.5t-101.5 -77.5q47 -12 87 -47t65.5 -83t25.5 -100q0 -118 -95 -189t-250 -71zM1418 77q105 0 167.5 47t62.5 125q0 79 -63.5 128.5t-166.5 49.5t-166.5 -49.5t-63.5 -128.5q0 -78 62 -125t168 -47zM1418 525
q91 0 142.5 40t51.5 113q0 74 -53 117.5t-141 43.5t-141 -44t-53 -117t51.5 -113t142.5 -40z" />
    <glyph glyph-name="partialdiff" unicode="&#x2202;" horiz-adv-x="1172" 
d="M563 -20q-139 0 -243 61t-162 165.5t-58 235.5q0 129 57 227t164.5 152.5t257.5 54.5q71 0 121.5 -12t93 -34t88.5 -52q17 -10 22 -6.5t5 12.5q0 130 -26 232t-77.5 173t-128.5 107.5t-178 36.5q-99 0 -163.5 -30t-119.5 -68l-51 100q33 36 92 65.5t132.5 47.5t151.5 18
q162 0 280.5 -81.5t183.5 -245.5t65 -411q0 -236 -59 -403.5t-172 -256t-276 -88.5zM548 110h2q91 0 166 55t124 153.5t62 230.5q3 31 1 45t-13 25q-29 36 -79.5 66t-111.5 48t-122 18q-93 0 -164 -41.5t-111.5 -113t-40.5 -163.5q0 -91 38.5 -164t103.5 -116t145 -43z" />
    <glyph glyph-name="emptyset" unicode="&#x2205;" horiz-adv-x="1149" 
d="M183 288l-70 72l850 781l66 -71zM573 317q-113 0 -206 55.5t-148 149t-55 206.5t55 205.5t148 148.5t206 56t206.5 -56t149.5 -148.5t56 -205.5t-56 -206.5t-149.5 -149t-206.5 -55.5zM573 410q88 0 160 43t115 115t43 160q0 86 -43 158t-115 115t-160 43t-159.5 -43
t-114 -115t-42.5 -158q0 -88 42.5 -160t114 -115t159.5 -43z" />
    <glyph glyph-name="uni2206" unicode="&#x2206;" horiz-adv-x="1370" 
d="M38 0l651 1446l644 -1446h-1295zM270 143h832l-413 958z" />
    <glyph glyph-name="product" unicode="&#x220f;" horiz-adv-x="1289" 
d="M235 0v1308h-202v138h1219v-138h-205v-1308h-165v1308h-480v-1308h-167z" />
    <glyph glyph-name="summation" unicode="&#x2211;" horiz-adv-x="1034" 
d="M53 0v107l432 615l-405 608v116h868v-135h-652l386 -576l-419 -595h721v-140h-931z" />
    <glyph glyph-name="minus" unicode="&#x2212;" horiz-adv-x="1091" 
d="M125 664v124l841 2v-125z" />
    <glyph glyph-name="uni2215" unicode="&#x2215;" horiz-adv-x="1182" 
d="M211 -8l-112 1l876 1469h108z" />
    <glyph glyph-name="uni2219" unicode="&#x2219;" horiz-adv-x="617" 
d="M305 619q-48 0 -81.5 34t-33.5 82t33.5 81.5t81.5 33.5t81 -33.5t33 -81.5t-33 -82t-81 -34z" />
    <glyph glyph-name="radical" unicode="&#x221a;" horiz-adv-x="1237" 
d="M556 -322l-338 916l-149 -59l-39 106l287 107l317 -899l468 1802h140l-517 -1973h-169z" />
    <glyph glyph-name="infinity" unicode="&#x221e;" horiz-adv-x="1433" 
d="M397 220q-81 0 -149 39t-109 110t-41 167t41 167t113.5 110.5t165.5 39.5q69 0 117.5 -21.5t87.5 -57.5t80 -81q16 -14 24 -14t20 14q32 35 71.5 72t92.5 62.5t126 25.5q84 0 150.5 -37.5t105 -106t38.5 -162.5v-2q0 -104 -43 -176t-113.5 -110.5t-153.5 -38.5
q-69 0 -119 23.5t-90.5 63.5t-81.5 87q-9 12 -14.5 13.5t-17.5 -13.5q-12 -13 -36.5 -41t-61.5 -59t-88 -52.5t-115 -21.5zM404 343h6q47 0 90 23.5t77.5 57.5t57.5 66q19 27 18 40t-22 44q-49 76 -103.5 119t-125.5 43q-80 0 -131 -54t-51 -140q0 -88 54 -143.5t130 -55.5z
M1038 343q55 0 92.5 29.5t57 74.5t19.5 93q0 78 -47 137t-128 59h-2q-73 0 -129 -50.5t-101 -103.5q-20 -24 -16.5 -44.5t16.5 -35.5q50 -70 95.5 -104t82 -44.5t60.5 -10.5z" />
    <glyph glyph-name="integral" unicode="&#x222b;" horiz-adv-x="864" 
d="M241 -342q-54 0 -91 5t-68.5 17t-66.5 33l42 143q47 -25 83.5 -37t85.5 -12q68 0 118 51t50 169q0 156 -13 316.5t-30.5 320.5t-30.5 315.5t-13 302.5q0 129 39.5 215t109 130t161.5 44q55 0 92.5 -5.5t69 -17.5t65.5 -33l-40 -143q-47 25 -84.5 37t-86.5 12
q-71 0 -121.5 -51t-50.5 -167q0 -156 12.5 -316.5t29 -320.5t29.5 -315.5t13 -300.5q0 -130 -39 -217.5t-108 -131t-157 -43.5z" />
    <glyph glyph-name="approxequal" unicode="&#x2248;" horiz-adv-x="1122" 
d="M171 780l-46 94q52 50 111 87.5t147 37.5q56 0 102 -15.5t88.5 -35t85.5 -35t94 -15.5q75 0 121 32.5t76 71.5l47 -98q-31 -47 -93 -82t-151 -35q-56 0 -101 14.5t-86 34t-84 34.5t-96 15q-76 0 -127 -33t-88 -72zM171 389l-46 95q52 50 111 87t147 37q56 0 102 -15.5
t88.5 -35t85.5 -35t94 -15.5q75 0 121 33t76 71l47 -96q-31 -48 -93 -83.5t-151 -35.5q-59 0 -105 15t-86.5 34.5t-82.5 34.5t-93 15q-76 0 -127 -33t-88 -73z" />
    <glyph glyph-name="notequal" unicode="&#x2260;" horiz-adv-x="1091" 
d="M231 132l501 1119h94l-495 -1119h-100zM125 858v124l841 2v-125zM125 418v124l841 2v-125z" />
    <glyph glyph-name="lessequal" unicode="&#x2264;" horiz-adv-x="1091" 
d="M959 470l-821 324v148l822 326v-152l-629 -248l628 -248v-150zM125 127v124l841 -1v-124z" />
    <glyph glyph-name="greaterequal" unicode="&#x2265;" horiz-adv-x="1091" 
d="M132 470v150l630 248l-631 248v152l823 -326v-148zM125 126v124l841 1v-124z" />
    <glyph glyph-name="lozenge" unicode="&#x25ca;" horiz-adv-x="940" 
d="M404 0l-316 723l327 723h132l318 -719l-328 -727h-133zM478 128l244 595l-244 595l-246 -587z" />
    <glyph glyph-name="i.loclTRK" horiz-adv-x="471" 
d="M160 0v1034h151v-1034h-151zM155 1283v163h163v-163h-163z" />
    <glyph glyph-name="g.ss01" horiz-adv-x="1183" 
d="M579 -337q-84 0 -156 23t-127 64t-90 94.5t-46 114.5h151q24 -86 100 -129.5t167 -44.5q115 -2 185 37.5t103 102t33 130.5l2 134q-45 -88 -133 -126t-200 -38q-100 0 -183.5 36.5t-144.5 102.5t-95.5 156t-37.5 196q-3 105 25.5 201t86.5 172t143.5 119.5t196.5 43.5
q87 0 153.5 -31t110.5 -73t61 -75l3 159h146l7 -951q1 -135 -58 -228.5t-163.5 -141.5t-239.5 -48zM601 148q116 0 179 39t87 99.5t23 125.5l-3 258q-1 60 -41 120.5t-107 100.5t-148 40q-104 0 -176.5 -54t-110 -147.5t-37.5 -213.5q0 -107 41.5 -190t117 -130.5
t175.5 -47.5z" />
    <glyph glyph-name="l.ss01" horiz-adv-x="541" 
d="M193 0v1486h156v-1486h-156z" />
    <glyph glyph-name="zero.osf" horiz-adv-x="1206" 
d="M602 -22q-231 0 -367 185t-136 554q0 249 63 415.5t176 250t266 83.5q228 0 365.5 -187t137.5 -559q0 -370 -137 -556t-368 -186zM605 117q161 0 246 142t85 461q0 323 -86 466.5t-247 143.5q-160 0 -248 -144.5t-88 -465.5q0 -318 88 -460.5t250 -142.5z" />
    <glyph glyph-name="one.osf" horiz-adv-x="802" 
d="M380 0v1169h-285v110q131 0 202 17.5t99.5 55t30.5 94.5h115v-1446h-162z" />
    <glyph glyph-name="two.osf" horiz-adv-x="1171" 
d="M128 0v105v55q0 111 41.5 192.5t110 142t150.5 109t163.5 94.5t150 96.5t110 115t41.5 152.5q0 118 -82.5 190.5t-221.5 72.5q-151 0 -240 -84.5t-98 -220.5h-158q3 122 61 223t169 162t273 61q140 0 244 -50.5t161 -141.5t57 -212q0 -112 -41.5 -192.5t-109 -140
t-148 -106.5t-162 -91t-149 -93t-108.5 -112.5t-41 -151.5v-33h769v-142h-942z" />
    <glyph glyph-name="three.osf" horiz-adv-x="1242" 
d="M598 -14q-143 2 -253.5 55t-175.5 148.5t-70 225.5h159q20 -137 113 -214t235 -77q111 0 193.5 35.5t128.5 98.5t46 146q0 94 -52 158t-140 97t-196 34l-128 2v137l123 2q101 1 180.5 38.5t126 97.5t46.5 131q0 62 -38 116.5t-111 88.5t-179 34q-80 0 -154.5 -32.5
t-123 -99t-50.5 -169.5h-157q0 136 66 233.5t176.5 149.5t242.5 52q147 0 258.5 -44t175 -126.5t63.5 -198.5q0 -107 -70 -195t-210 -137q99 -27 171 -78.5t110.5 -124.5t38.5 -166q0 -96 -40 -174t-113 -133t-173 -83.5t-219 -27.5z" />
    <glyph glyph-name="four.osf" horiz-adv-x="1242" 
d="M780 0v383h-685v149l678 914h161v-922h244v-141h-244v-383h-154zM247 524h528v709z" />
    <glyph glyph-name="five.osf" horiz-adv-x="1262" 
d="M648 -22q-131 0 -243 48t-191.5 133.5t-114.5 198.5l141 49q34 -87 90.5 -153t134 -103.5t175.5 -37.5q161 0 258.5 94.5t97.5 261.5q0 103 -47 179t-124 117.5t-170 41.5q-62 0 -117 -11t-107 -44t-108 -99q-5 -2 -7 -2t-8 3l-140 35l65 757h845l-4 -138h-704l-39 -499
q70 72 159 103t193 31q127 0 236.5 -53t176.5 -157.5t67 -258.5q0 -150 -63.5 -261.5t-179.5 -173t-272 -61.5z" />
    <glyph glyph-name="six.osf" horiz-adv-x="1225" 
d="M636 -22q-163 0 -284 86.5t-187 248.5t-66 389q0 231 63 403t186.5 266.5t304.5 94.5q116 0 214 -43.5t163.5 -125t83.5 -196.5h-149q-29 105 -109.5 168.5t-200.5 63.5q-134 0 -224 -76t-131.5 -225t-30.5 -368q26 80 82.5 141t134 95t167.5 34q142 0 248 -55.5
t165.5 -159t59.5 -247.5q0 -146 -59 -257t-169 -174t-262 -63zM636 112q94 0 166.5 44t113.5 124t41 185q0 104 -36.5 179.5t-108.5 116.5t-178 41q-85 0 -161 -39.5t-124 -106t-48 -147.5q-1 -115 40.5 -204.5t117.5 -141t177 -51.5z" />
    <glyph glyph-name="seven.osf" horiz-adv-x="1187" 
d="M355 0q19 102 62.5 251t113.5 325.5t166.5 364t219.5 367.5h-822v138h997v-138q-79 -111 -156 -249t-146 -286.5t-124.5 -292t-92 -268t-48.5 -212.5h-170z" />
    <glyph glyph-name="eight.osf" horiz-adv-x="1283" 
d="M640 -22q-163 0 -285 51t-189 143.5t-67 216.5q0 84 43 162t110.5 133t142.5 69q-102 42 -167.5 122.5t-65.5 199.5q0 125 63 212.5t171.5 133t243.5 45.5q137 0 245 -45.5t170.5 -133t62.5 -212.5q0 -119 -63.5 -199.5t-167.5 -122.5q75 -14 143 -69t111 -133t43 -162
q0 -124 -67 -216.5t-189.5 -143.5t-287.5 -51zM640 108q171 0 273 76.5t102 203.5q0 84 -46.5 149.5t-130 103t-198.5 37.5q-112 0 -195.5 -37.5t-130 -103t-46.5 -149.5q0 -127 102 -203.5t270 -76.5zM640 822q142 0 229 67.5t87 190.5q0 122 -87.5 193t-228.5 71
q-139 0 -227 -71.5t-88 -192.5q0 -123 88 -190.5t227 -67.5z" />
    <glyph glyph-name="nine.osf" horiz-adv-x="1230" 
d="M571 -22q-116 0 -216 44t-168 125t-86 195h153q27 -103 110.5 -166.5t201.5 -63.5q135 0 230 71.5t141.5 220.5t35.5 381q-23 -83 -79 -145.5t-134.5 -98t-173.5 -35.5q-142 0 -249.5 55.5t-167.5 160t-60 250.5t58.5 257.5t167.5 174t261 62.5q163 0 283.5 -86t186 -248
t65.5 -390q0 -238 -64.5 -409.5t-189.5 -263t-306 -91.5zM598 642q85 0 161 39.5t124 106.5t48 148q1 115 -40.5 204.5t-117.5 141.5t-178 52q-93 0 -164.5 -44.5t-111.5 -124.5t-40 -185q0 -154 80 -246t239 -92z" />
    <glyph glyph-name="zero.tf" horiz-adv-x="1400" 
d="M699 -22q-231 0 -367 185t-136 554q0 249 63 415.5t176 250t266 83.5q228 0 365.5 -187t137.5 -559q0 -370 -137 -556t-368 -186zM702 117q161 0 246 142t85 461q0 323 -86 466.5t-247 143.5q-160 0 -248 -144.5t-88 -465.5q0 -318 88 -460.5t250 -142.5z" />
    <glyph glyph-name="one.tf" horiz-adv-x="1400" 
d="M654 2v1275l-424 -167v150l485 188h97v-1446h-158zM207 0v142h1043v-142h-1043z" />
    <glyph glyph-name="two.tf" horiz-adv-x="1400" 
d="M259 0v105v55q0 111 41.5 192.5t110 142t150.5 109t163.5 94.5t150 96.5t110 115t41.5 152.5q0 118 -82.5 190.5t-221.5 72.5q-151 0 -240 -84.5t-98 -220.5h-158q3 122 61 223t169 162t273 61q140 0 244 -50.5t161 -141.5t57 -212q0 -112 -41.5 -192.5t-109 -140
t-148 -106.5t-162 -91t-149 -93t-108.5 -112.5t-41 -151.5v-33h769v-142h-942z" />
    <glyph glyph-name="three.tf" horiz-adv-x="1400" 
d="M686 -22q-143 2 -253.5 55t-175.5 148.5t-70 225.5h159q20 -137 113 -214t235 -77q111 0 193.5 35.5t128.5 98.5t46 146q0 94 -52 158t-140 97t-196 34l-128 2v137l123 2q101 1 180.5 38.5t126 97.5t46.5 131q0 62 -38 116.5t-111 88.5t-179 34q-80 0 -154.5 -32.5
t-123 -99t-50.5 -169.5h-157q0 136 66 233.5t176.5 149.5t242.5 52q147 0 258.5 -44t175 -126.5t63.5 -198.5q0 -107 -70 -195t-210 -137q99 -27 171 -78.5t110.5 -124.5t38.5 -166q0 -96 -40 -174t-113 -133t-173 -83.5t-219 -27.5z" />
    <glyph glyph-name="four.tf" horiz-adv-x="1400" 
d="M842 0v383h-685v149l678 914h161v-922h244v-141h-244v-383h-154zM309 524h528v709z" />
    <glyph glyph-name="five.tf" horiz-adv-x="1400" 
d="M738 -22q-131 0 -243 48t-191.5 133.5t-114.5 198.5l141 49q34 -87 90.5 -153t134 -103.5t175.5 -37.5q161 0 258.5 94.5t97.5 261.5q0 103 -47 179t-124 117.5t-170 41.5q-62 0 -117 -11t-107 -44t-108 -99q-5 -2 -7 -2t-8 3l-140 35l65 757h845l-4 -138h-704l-39 -499
q70 72 159 103t193 31q127 0 236.5 -53t176.5 -157.5t67 -258.5q0 -150 -63.5 -261.5t-179.5 -173t-272 -61.5z" />
    <glyph glyph-name="six.tf" horiz-adv-x="1400" 
d="M725 -22q-163 0 -284 86.5t-187 248.5t-66 389q0 231 63 403t186.5 266.5t304.5 94.5q116 0 214 -43.5t163.5 -125t83.5 -196.5h-149q-29 105 -109.5 168.5t-200.5 63.5q-134 0 -224 -76t-131.5 -225t-30.5 -368q26 80 82.5 141t134 95t167.5 34q142 0 248 -55.5
t165.5 -159t59.5 -247.5q0 -146 -59 -257t-169 -174t-262 -63zM725 112q94 0 166.5 44t113.5 124t41 185q0 104 -36.5 179.5t-108.5 116.5t-178 41q-85 0 -161 -39.5t-124 -106t-48 -147.5q-1 -115 40.5 -204.5t117.5 -141t177 -51.5z" />
    <glyph glyph-name="seven.tf" horiz-adv-x="1400" 
d="M418 0q19 102 77.5 251t147.5 325.5t200 364t233 367.5h-922v138h1102v-138q-79 -111 -165.5 -249t-169.5 -286.5t-152 -292t-114.5 -268t-58.5 -212.5h-178z" />
    </font>
</defs>
</svg>
