<?xml version="1.0" standalone="no"?>
<!DOCTYPE svg PUBLIC "-//W3C//DTD SVG 1.1//EN" "http://www.w3.org/Graphics/SVG/1.1/DTD/svg11.dtd" >
<svg xmlns="http://www.w3.org/2000/svg" xmlns:xlink="http://www.w3.org/1999/xlink" version="1.1">
<metadata>
Created by FontForge 20200314 at Tue Feb 24 22:54:59 2015
 By www-data
(c) 2015 Connary Fagen
</metadata>
<defs>
<font id="VisbyCF-Bold" horiz-adv-x="579" >
  <font-face 
    font-family="Visby CF Bold"
    font-weight="700"
    font-stretch="normal"
    units-per-em="1000"
    panose-1="0 0 8 0 0 0 0 0 0 0"
    ascent="800"
    descent="-200"
    x-height="520"
    cap-height="700"
    bbox="-190 -239.492 1205 980"
    underline-thickness="50"
    underline-position="-100"
    unicode-range="U+0020-FB02"
  />
<missing-glyph horiz-adv-x="500" 
d="M0 0v700h500v-700h-500zM250 395l170 255h-340zM280 350l170 -255v510zM80 50h340l-170 255zM50 605v-510l170 255z" />
    <glyph glyph-name="fi" unicode="fi" horiz-adv-x="620" 
d="M259 707q48 0 91.5 -17.5t65.5 -42.5l-39 -76q-62 41 -118 41q-35 0 -52 -19t-17 -50v-23h119v-95h-119v-425h-110v425h-60v95h60v28q0 48 18 82t48 49.5t57 21.5t56 6zM550 520v-520h-110v520h110z" />
    <glyph glyph-name="fl" unicode="fl" horiz-adv-x="614" 
d="M539 700v-700h-112v571q-55 41 -136 41q-52 0 -81.5 -21t-29.5 -60v-11h129v-95h-129v-425h-110v425h-50v95h50v11q0 50 22 86.5t57.5 55t71 26.5t70.5 8q71 0 136 -31v24h112z" />
    <glyph glyph-name="f_f" unicode="ff" horiz-adv-x="806" 
d="M248 707q45 0 85 -17.5t60 -42.5l-39 -76q-55 41 -106 41q-34 0 -46 -18t-12 -51v-23h159v-95h-159v-425h-110v425h-60v95h60v28q0 48 16.5 82t44 49.5t53 21.5t54.5 6zM651 612q-34 0 -46 -18t-12 -51v-23h119v-95h-119v-425h-110v425h-60v95h60v28q0 48 16.5 82
t44 49.5t53 21.5t54.5 6q45 0 85 -17.5t60 -42.5l-39 -76q-55 41 -106 41z" />
    <glyph glyph-name=".notdef" horiz-adv-x="500" 
d="M0 0v700h500v-700h-500zM250 395l170 255h-340zM280 350l170 -255v510zM80 50h340l-170 255zM50 605v-510l170 255z" />
    <glyph glyph-name=".null" horiz-adv-x="0" 
 />
    <glyph glyph-name="nonmarkingreturn" horiz-adv-x="333" 
 />
    <glyph glyph-name="space" unicode=" " horiz-adv-x="300" 
 />
    <glyph glyph-name="exclam" unicode="!" horiz-adv-x="274" 
d="M76 210v490h123v-490h-123zM199 123v-123h-124v123h124z" />
    <glyph glyph-name="quotedbl" unicode="&#x22;" horiz-adv-x="407" 
d="M155 525v175h-110v-175h110zM362 525v175h-110v-175h110z" />
    <glyph glyph-name="numbersign" unicode="#" horiz-adv-x="550" 
d="M438 425l-10 -150h77v-95h-84l-13 -180h-110l13 180h-102l-13 -180h-110l13 180h-54v95h61l10 150h-71v95h78l13 180h110l-13 -180h102l13 180h110l-13 -180h60v-95h-67zM329 425h-102l-11 -150h102z" />
    <glyph glyph-name="dollar" unicode="$" horiz-adv-x="560" 
d="M520 191q0 -76 -53.5 -126t-129.5 -66v-89h-95v86q-66 11 -120 54.5t-77 106.5l92 37q16 -44 57.5 -74t86.5 -30q54 0 92.5 26t38.5 75q0 45 -29.5 72.5t-89.5 48.5l-50 17q-178 60 -178 196q0 70 51 118.5t126 60.5v86h95v-89q61 -13 105 -52t65 -91l-97 -22
q-12 33 -46.5 53.5t-81.5 20.5t-78 -23.5t-31 -61.5q0 -35 22 -56t74 -41l45 -16q106 -38 156 -91t50 -130z" />
    <glyph glyph-name="percent" unicode="%" horiz-adv-x="698" 
d="M158 459q-51 0 -87 36t-36 87q0 52 36 87.5t87 35.5q52 0 88 -35.5t36 -87.5q0 -51 -36 -87t-88 -36zM518 702l86 -55l-434 -647l-87 55zM158 543q15 0 26 11.5t11 27.5t-11 27t-26 11q-17 0 -28.5 -11t-11.5 -27t11.5 -27.5t28.5 -11.5zM539 -5q-51 0 -87 36t-36 87
q0 52 36 87.5t87 35.5q52 0 88 -35.5t36 -87.5q0 -51 -36 -87t-88 -36zM539 79q15 0 26 11.5t11 27.5t-11 27t-26 11q-17 0 -28.5 -11t-11.5 -27t11.5 -27.5t28.5 -11.5z" />
    <glyph glyph-name="ampersand" unicode="&#x26;" horiz-adv-x="729" 
d="M632 89q37 0 67 23v-95q-30 -23 -77 -23q-102 0 -102 105v14q-30 -57 -86 -90t-126 -33q-102 0 -177.5 61t-75.5 160q0 86 50 143t122 65l-146 281h450v-95h-296l133 -262q-19 1 -58 1q-74 0 -109.5 -38.5t-35.5 -94.5q0 -54 39 -90t104 -36q73 0 122.5 36t49.5 105v190
h159v-95h-49v-177q0 -33 10.5 -44t31.5 -11z" />
    <glyph glyph-name="quotesingle" unicode="'" horiz-adv-x="200" 
d="M155 525v175h-110v-175h110z" />
    <glyph glyph-name="parenleft" unicode="(" horiz-adv-x="301" 
d="M151 745h105q-101 -183 -101 -425q0 -256 101 -450h-105q-106 189 -106 450q0 248 106 425z" />
    <glyph glyph-name="parenright" unicode=")" horiz-adv-x="301" 
d="M45 745h105q106 -177 106 -425q0 -261 -106 -450h-105q101 194 101 450q0 242 -101 425z" />
    <glyph glyph-name="asterisk" unicode="*" horiz-adv-x="498" 
d="M321 527l69 -91l-79 -49l-62 88l-62 -88l-79 49l69 91l-102 28l22 91l109 -32l-3 114h90l-1 -114l109 32l22 -91zM249 551l3 2h-6z" />
    <glyph glyph-name="plus" unicode="+" horiz-adv-x="425" 
d="M380 232h-127v-118h-90v118h-118v90h118v127h90v-127h127v-90z" />
    <glyph glyph-name="comma" unicode="," horiz-adv-x="248" 
d="M139 -135l84 155h-148l-35 -155h99z" />
    <glyph glyph-name="hyphen" unicode="-" horiz-adv-x="400" 
d="M355 322v-90h-310v90h310z" />
    <glyph glyph-name="period" unicode="." horiz-adv-x="204" 
d="M164 123v-123h-124v123h124z" />
    <glyph glyph-name="slash" unicode="/" horiz-adv-x="542" 
d="M45 -130l340 875h112l-340 -875h-112z" />
    <glyph glyph-name="zero" unicode="0" horiz-adv-x="674" 
d="M337 707q124 0 208 -91t84 -253v-26q0 -162 -83.5 -253t-208.5 -91q-124 0 -208 91t-84 253v26q0 161 84 252.5t208 91.5zM519 337v26q0 67 -18 121.5t-60 91t-104 36.5t-104 -36.5t-60 -91t-18 -121.5v-26q0 -105 45.5 -177t136.5 -72t136.5 72t45.5 177z" />
    <glyph glyph-name="one" unicode="1" horiz-adv-x="348" 
d="M273 0h-110v605h-108v95h218v-700z" />
    <glyph glyph-name="two" unicode="2" horiz-adv-x="557" 
d="M48 31l175 205q30 35 67.5 76.5t52.5 58.5t31 40.5t21 41t5 40.5q0 59 -37 88t-84 29q-48 0 -85 -29t-37 -88v-18h-112v18q0 85 66 149.5t168 64.5q99 0 166 -64.5t67 -149.5q0 -61 -34 -114t-140 -177l-91 -107h256v-95h-455v31z" />
    <glyph glyph-name="three" unicode="3" horiz-adv-x="588" 
d="M548 700l-163 -273q63 -15 110 -71t47 -142q0 -98 -74 -161t-177 -63q-105 0 -175.5 63t-70.5 154l110 1q0 -57 43 -90t93 -33q52 0 96.5 31.5t44.5 97.5q0 73 -54 111.5t-149 31.5l146 248h-306v95h479z" />
    <glyph glyph-name="four" unicode="4" horiz-adv-x="574" 
d="M464 196v-196h-110v196h-319v20l389 484h40v-409h75v-95h-75zM354 470l-129 -179h129v179z" />
    <glyph glyph-name="five" unicode="5" 
d="M50 133l88 45q1 -2 10 -14.5t13.5 -18t15 -17t20.5 -17t24 -13t31.5 -10.5t37.5 -3q48 0 91 38.5t43 107.5q0 72 -42.5 108.5t-91.5 36.5q-39 0 -64.5 -8t-59.5 -33l-98 21l44 344h356v-95h-263l-19 -157q5 1 17 6t21.5 8t27.5 6t38 3q99 0 171.5 -67.5t72.5 -172.5
q0 -103 -71.5 -172t-172.5 -69q-168 0 -240 143z" />
    <glyph glyph-name="six" unicode="6" horiz-adv-x="555" 
d="M279 439q88 0 159.5 -68.5t71.5 -158.5q0 -92 -70.5 -157t-160.5 -65q-91 0 -162.5 65t-71.5 157q0 30 6.5 59t14 49.5t26 51t29 45t37 50t36.5 49.5l132 184h122l-193 -264q13 3 24 3zM278 86q52 0 89.5 36.5t37.5 89.5q0 51 -38 88t-89 37q-58 0 -93.5 -36t-35.5 -89
t38.5 -89.5t90.5 -36.5z" />
    <glyph glyph-name="seven" unicode="7" horiz-adv-x="526" 
d="M221 0h-116l234 605h-314v95h466z" />
    <glyph glyph-name="eight" unicode="8" horiz-adv-x="545" 
d="M413 396q92 -63 92 -182q0 -96 -71.5 -158.5t-160.5 -62.5t-161 62t-72 159q0 119 92 182q-52 54 -52 126q0 78 53.5 131.5t139.5 53.5t139 -53.5t53 -131.5q0 -71 -52 -126zM189 522q0 -34 24.5 -60t59.5 -26t59.5 26t24.5 60q0 35 -24 61t-60 26t-60 -26t-24 -61z
M273 92q46 0 81 35t35 87q0 56 -34.5 89.5t-81.5 33.5q-43 0 -79 -34t-36 -89q0 -53 33.5 -87.5t81.5 -34.5z" />
    <glyph glyph-name="nine" unicode="9" horiz-adv-x="555" 
d="M276 260q-88 0 -159.5 68.5t-71.5 158.5q0 92 70.5 157t160.5 65q91 0 162.5 -65t71.5 -157q0 -30 -6.5 -59t-14 -49.5t-26 -51t-29 -45t-37 -50t-36.5 -49.5l-132 -184h-122l193 264q-13 -3 -24 -3zM277 613q-52 0 -89.5 -36.5t-37.5 -89.5q0 -51 38 -88t89 -37
q58 0 93.5 36t35.5 89t-38.5 89.5t-90.5 36.5z" />
    <glyph glyph-name="colon" unicode=":" horiz-adv-x="236" 
d="M169 517v-123h-124v123h124zM169 123v-123h-124v123h124z" />
    <glyph glyph-name="semicolon" unicode=";" horiz-adv-x="265" 
d="M188 577v-123h-124v123h124zM109 -135l84 155h-148l-35 -155h99z" />
    <glyph glyph-name="less" unicode="&#x3c;" horiz-adv-x="497" 
d="M198 240l264 138v103l-417 -222v-37l417 -222v104z" />
    <glyph glyph-name="equal" unicode="=" horiz-adv-x="426" 
d="M381 402v-90h-335v90h335zM381 242v-90h-335v90h335z" />
    <glyph glyph-name="greater" unicode="&#x3e;" horiz-adv-x="497" 
d="M35 0l417 222v37l-417 222v-103l264 -138l-264 -136v-104z" />
    <glyph glyph-name="question" unicode="?" horiz-adv-x="543" 
d="M274 707q-92 0 -160.5 -60t-68.5 -161h110q0 54 30.5 90t88.5 36q61 0 87.5 -32.5t26.5 -78.5q0 -29 -16 -54t-38 -45.5t-44.5 -44t-38.5 -59.5t-16 -80v-11h114v11q0 37 15.5 66.5t37.5 50t43.5 42t37 53t15.5 71.5q0 92 -66 149t-158 57zM352 123v-123h-124v123h124z
" />
    <glyph glyph-name="at" unicode="@" horiz-adv-x="803" 
d="M560 521v-207q0 -32 10 -45.5t33 -13.5q44 0 44 92q0 112 -73.5 186.5t-168.5 74.5q-100 0 -174.5 -74.5t-74.5 -187.5q0 -108 75.5 -181.5t173.5 -73.5q77 0 143 49l103 -43q-104 -104 -246 -104q-66 0 -130 26.5t-113.5 72t-80.5 112.5t-31 142q0 155 108.5 258
t246.5 103q139 0 243.5 -102.5t104.5 -258.5q0 -88 -42.5 -138t-105.5 -50q-44 0 -71 18t-32 49q-11 -30 -41.5 -50t-70.5 -20q-64 0 -115.5 51.5t-51.5 140.5q0 86 52 136.5t115 50.5q28 0 52 -10.5t33 -28.5v26h85zM391 255q35 0 56 27.5t21 64.5q0 35 -21 61t-56 26
q-34 0 -54.5 -26t-20.5 -61q0 -37 20.5 -64.5t54.5 -27.5z" />
    <glyph glyph-name="A" unicode="A" horiz-adv-x="742" 
d="M503 196h-264l-87 -196h-122l331 700h20l331 -700h-122zM461 292l-90 203l-90 -203h180z" />
    <glyph glyph-name="B" unicode="B" horiz-adv-x="621" 
d="M432 387q70 -28 104.5 -75.5t34.5 -105.5q0 -96 -72.5 -151t-199.5 -55h-234v700h234q100 0 160.5 -47t60.5 -135q0 -97 -88 -131zM177 424h122q54 0 82.5 25t28.5 69q0 40 -31 63t-80 23h-122v-180zM177 96h122q76 0 119 30.5t43 79.5q0 52 -43.5 87t-118.5 35h-122
v-232z" />
    <glyph glyph-name="C" unicode="C" horiz-adv-x="648" 
d="M389 102q83 0 148 63l71 -85q-95 -87 -221 -87q-87 0 -166 44.5t-130 127.5t-51 184q0 153 106 255.5t241 102.5q126 0 221 -87l-71 -85q-63 63 -148 63q-90 0 -158 -72t-68 -176t68 -176t158 -72z" />
    <glyph glyph-name="D" unicode="D" horiz-adv-x="705" 
d="M75 700h225q144 0 247 -102t103 -246q0 -147 -102.5 -249.5t-247.5 -102.5h-225v700zM188 96h112q106 0 171.5 73t65.5 183q0 108 -66 180t-171 72h-112v-508z" />
    <glyph glyph-name="E" unicode="E" 
d="M524 99v-99h-469v700h459v-99h-343v-200h243v-99h-243v-203h353z" />
    <glyph glyph-name="F" unicode="F" horiz-adv-x="548" 
d="M170 601v-205h283v-100h-283v-296h-115v700h458v-99h-343z" />
    <glyph glyph-name="G" unicode="G" horiz-adv-x="754" 
d="M466 342h238q0 -155 -91 -252t-226 -97q-87 0 -166 44.5t-130 127.5t-51 185t51 185t130 127.5t166 44.5q79 0 143.5 -26.5t102.5 -70.5l-74 -78q-25 30 -70 48.5t-100 18.5q-89 0 -160.5 -72t-71.5 -176t72.5 -176.5t159.5 -72.5q64 0 114.5 37.5t73.5 102.5h-111v100z
" />
    <glyph glyph-name="H" unicode="H" horiz-adv-x="708" 
d="M638 700v-700h-113v298h-342v-298h-113v700h113v-305h342v305h113z" />
    <glyph glyph-name="I" unicode="I" horiz-adv-x="245" 
d="M65 0v700h115v-700h-115z" />
    <glyph glyph-name="J" unicode="J" horiz-adv-x="550" 
d="M45 75l73 73q44 -55 121 -55q31 0 52.5 6.5t42 25.5t31 59t10.5 102v414h110v-435q0 -140 -69.5 -206t-175.5 -66q-124 0 -195 82z" />
    <glyph glyph-name="K" unicode="K" horiz-adv-x="742" 
d="M567 0l-250 277l-133 -157v-120h-114v700h114v-424l356 424h134l-292 -345l320 -355h-135z" />
    <glyph glyph-name="L" unicode="L" horiz-adv-x="578" 
d="M528 95v-95h-458v700h113v-605h345z" />
    <glyph glyph-name="M" unicode="M" horiz-adv-x="888" 
d="M818 0h-115v381l-249 -371h-20l-249 371v-381h-115v700h21l353 -515l353 515h21v-700z" />
    <glyph glyph-name="N" unicode="N" horiz-adv-x="691" 
d="M621 0h-12l-424 434v-434h-115v700h11l425 -434v434h115v-700z" />
    <glyph glyph-name="O" unicode="O" horiz-adv-x="794" 
d="M397 707q138 0 242.5 -102t104.5 -255t-104.5 -255t-242.5 -102q-87 0 -166 44.5t-130 127.5t-51 185t51 185t130 127.5t166 44.5zM619 350q0 110 -63 179t-158 69q-91 0 -156.5 -69.5t-65.5 -178.5t65.5 -178.5t156.5 -69.5q95 0 158 69t63 179z" />
    <glyph glyph-name="P" unicode="P" horiz-adv-x="620" 
d="M70 700h245q115 0 185 -60.5t70 -153.5q0 -95 -69.5 -154.5t-185.5 -59.5h-132v-272h-113v700zM183 369h127q150 0 150 117q0 59 -40 88t-110 29h-127v-234z" />
    <glyph glyph-name="Q" unicode="Q" horiz-adv-x="794" 
d="M744 350q0 -148 -100 -251l97 -99h-130l-41 41q-81 -48 -173 -48q-87 0 -166 44.5t-130 127.5t-51 185t51 185t130 127.5t166 44.5q138 0 242.5 -102t104.5 -255zM398 102q51 0 93 21l-128 131h130l71 -73q55 66 55 169q0 110 -63 179t-158 69q-91 0 -156.5 -69.5
t-65.5 -178.5t65.5 -178.5t156.5 -69.5z" />
    <glyph glyph-name="R" unicode="R" horiz-adv-x="655" 
d="M464 0l-213 272h-68v-272h-113v700h245q115 0 185 -60.5t70 -153.5q0 -81 -52.5 -137.5t-142.5 -71.5l230 -277h-141zM183 369h127q150 0 150 117q0 59 -40 88t-110 29h-127v-234z" />
    <glyph glyph-name="S" unicode="S" 
d="M278 428l47 -16q110 -38 162 -91t52 -130q0 -91 -77.5 -144.5t-171.5 -53.5q-80 0 -149 45.5t-96 118.5l95 37q16 -44 60 -74t90 -30q56 0 96.5 26t40.5 75q0 45 -30.5 72.5t-93.5 48.5l-52 17q-88 29 -136.5 75.5t-48.5 120.5q0 79 67 130.5t158 51.5q85 0 147 -42.5
t88 -106.5l-101 -22q-13 33 -49 53.5t-85 20.5q-48 0 -80.5 -23.5t-32.5 -61.5q0 -35 23 -56t77 -41z" />
    <glyph glyph-name="T" unicode="T" horiz-adv-x="648" 
d="M588 598h-204v-598h-119v598h-205v102h528v-102z" />
    <glyph glyph-name="U" unicode="U" horiz-adv-x="686" 
d="M621 700v-445q0 -118 -81 -190t-197 -72q-117 0 -197.5 72t-80.5 190v445h110v-444q0 -83 47.5 -125.5t120.5 -42.5t120.5 42.5t47.5 125.5v444h110z" />
    <glyph glyph-name="V" unicode="V" horiz-adv-x="732" 
d="M707 700l-331 -700h-20l-331 700h123l218 -486l218 486h123z" />
    <glyph glyph-name="W" unicode="W" horiz-adv-x="1081" 
d="M772 0h-11l-220 478l-221 -478h-11l-269 700h121l163 -447l206 447h21l207 -447l162 447h121z" />
    <glyph glyph-name="X" unicode="X" horiz-adv-x="738" 
d="M552 0l-184 264l-185 -264h-128l248 357l-240 343h131l174 -249l173 249h131l-239 -342l250 -358h-131z" />
    <glyph glyph-name="Y" unicode="Y" horiz-adv-x="716" 
d="M413 0h-110v323l-263 377h125l193 -279l193 279h125l-263 -377v-323z" />
    <glyph glyph-name="Z" unicode="Z" horiz-adv-x="666" 
d="M631 0h-596l391 605h-365v95h566l-391 -605h395v-95z" />
    <glyph glyph-name="bracketleft" unicode="[" horiz-adv-x="280" 
d="M155 -35h80v-95h-190v875h190v-95h-80v-685z" />
    <glyph glyph-name="backslash" unicode="\" horiz-adv-x="542" 
d="M45 745h112l340 -875h-112z" />
    <glyph glyph-name="bracketright" unicode="]" horiz-adv-x="280" 
d="M45 650v95h190v-875h-190v95h80v685h-80z" />
    <glyph glyph-name="asciicircum" unicode="^" horiz-adv-x="489" 
d="M245 599l-120 -124h-80l167 225h65l167 -225h-80z" />
    <glyph glyph-name="underscore" unicode="_" horiz-adv-x="590" 
d="M545 0v-95h-500v95h500z" />
    <glyph glyph-name="grave" unicode="`" horiz-adv-x="209" 
d="M155 767h-155l111 -145h98z" />
    <glyph glyph-name="a" unicode="a" horiz-adv-x="612" 
d="M442 0v84q-3 -33 -50 -62t-107 -29q-43 0 -85 17t-78.5 48.5t-59 84t-22.5 117.5q0 64 22.5 116.5t59 84t78.5 48.5t85 17q109 0 157 -73v67h110v-520h-110zM299 88q61 0 104.5 43.5t43.5 128.5q0 86 -43.5 128.5t-104.5 42.5q-58 0 -103.5 -46t-45.5 -125t45.5 -125.5
t103.5 -46.5z" />
    <glyph glyph-name="b" unicode="b" horiz-adv-x="602" 
d="M327 526q43 0 85 -17t78.5 -48.5t59 -84t22.5 -116.5q0 -65 -22.5 -117.5t-59 -84t-78.5 -48.5t-85 -17q-60 0 -107 29t-50 62v-84h-110v700h110v-247q48 73 157 73zM313 88q58 0 103.5 46.5t45.5 125.5t-45.5 125t-103.5 46q-61 0 -104.5 -42.5t-43.5 -128.5
q0 -85 43.5 -128.5t104.5 -43.5z" />
    <glyph glyph-name="c" unicode="c" horiz-adv-x="551" 
d="M300 89q80 0 118 61l98 -41q-36 -56 -96 -86t-120 -30q-95 0 -177 71t-83 195q0 65 24.5 117.5t64 84t84 48.5t87.5 17q60 0 120 -30t96 -86l-98 -41q-38 61 -118 61q-59 0 -104.5 -45t-45.5 -126q0 -80 45.5 -125t104.5 -45z" />
    <glyph glyph-name="d" unicode="d" horiz-adv-x="612" 
d="M547 700v-700h-110v84q-3 -33 -50 -62t-107 -29q-43 0 -85 17t-78.5 48.5t-59 84t-22.5 117.5q0 64 22.5 116.5t59 84t78.5 48.5t85 17q109 0 157 -73v247h110zM294 88q61 0 104.5 43.5t43.5 128.5q0 86 -43.5 128.5t-104.5 42.5q-58 0 -103.5 -46t-45.5 -125
t45.5 -125.5t103.5 -46.5z" />
    <glyph glyph-name="e" unicode="e" horiz-adv-x="595" 
d="M552 217h-398q8 -60 52 -94t94 -34q72 0 116 47l93 -50q-39 -46 -94.5 -69.5t-114.5 -23.5q-43 0 -87 16.5t-83.5 48t-64.5 84t-25 117.5q0 64 25 117t64.5 84.5t83.5 48.5t87 17q58 0 114.5 -28t98.5 -91t42 -148q0 -23 -3 -42zM155 308h287q-10 58 -52 90t-90 32
q-49 0 -92 -32t-53 -90z" />
    <glyph glyph-name="f" unicode="f" horiz-adv-x="403" 
d="M248 612q-34 0 -46 -18t-12 -51v-23h119v-95h-119v-425h-110v425h-60v95h60v28q0 48 16.5 82t44 49.5t53 21.5t54.5 6q45 0 85 -17.5t60 -42.5l-39 -76q-55 41 -106 41z" />
    <glyph glyph-name="g" unicode="g" horiz-adv-x="592" 
d="M547 520v-520q0 -55 -24 -96.5t-62 -64t-78 -33.5t-78 -11q-86 0 -154 41v96q67 -42 154 -42q59 0 95.5 30.5t36.5 79.5v84q-3 -33 -50 -62t-107 -29q-43 0 -85 17t-78.5 48.5t-59 84t-22.5 117.5q0 64 22.5 116.5t59 84t78.5 48.5t85 17q109 0 157 -73v67h110zM294 88
q61 0 104.5 43.5t43.5 128.5q0 86 -43.5 128.5t-104.5 42.5q-58 0 -103.5 -46t-45.5 -125t45.5 -125.5t103.5 -46.5z" />
    <glyph glyph-name="h" unicode="h" horiz-adv-x="603" 
d="M333 525q94 0 154.5 -56.5t60.5 -171.5v-297h-110v291q0 139 -117 139q-61 0 -102.5 -46.5t-48.5 -87.5v-296h-110v700h110v-291q5 36 49 76t114 40z" />
    <glyph glyph-name="i" unicode="i" horiz-adv-x="242" 
d="M177 700v-100h-112v100h112zM177 520v-520h-112v520h112z" />
    <glyph glyph-name="j" unicode="j" horiz-adv-x="253" 
d="M183 700v-100h-110v100h110zM-60 -180v108q67 -23 89 -23q44 0 44 70v545h110v-575q0 -150 -141 -150q-44 0 -102 25z" />
    <glyph glyph-name="k" unicode="k" horiz-adv-x="598" 
d="M228 211l-55 -57v-154h-110v700h110v-403l210 223h139l-229 -240l275 -280h-135z" />
    <glyph glyph-name="l" unicode="l" horiz-adv-x="227" 
d="M55 0v700h112v-700h-112z" />
    <glyph glyph-name="m" unicode="m" horiz-adv-x="966" 
d="M693 525q96 0 157 -57.5t61 -184.5v-283h-111v284q0 71 -32 109t-81 38q-107 0 -147 -122l1 -26v-283h-111v284q0 71 -32.5 109t-82.5 38q-110 0 -144 -145v-286h-111v520h111v-117q0 38 42 80t108 42q151 0 200 -122q11 45 58 83.5t114 38.5z" />
    <glyph glyph-name="n" unicode="n" horiz-adv-x="603" 
d="M333 525q94 0 154.5 -56.5t60.5 -171.5v-297h-110v291q0 139 -117 139q-61 0 -102.5 -46.5t-48.5 -87.5v-296h-110v520h110v-111q5 36 49 76t114 40z" />
    <glyph glyph-name="o" unicode="o" horiz-adv-x="600" 
d="M300 526q43 0 87 -17t83.5 -48.5t64.5 -84.5t25 -117q0 -65 -25 -117.5t-64.5 -84t-83.5 -48t-87 -16.5t-87 16.5t-83.5 48t-64.5 84t-25 117.5q0 64 25 117t64.5 84.5t83.5 48.5t87 17zM450 259q0 81 -46 126t-104 45t-104 -45t-46 -126q0 -80 46 -125t104 -45t104 45
t46 125z" />
    <glyph glyph-name="p" unicode="p" horiz-adv-x="602" 
d="M327 526q43 0 85 -17t78.5 -48.5t59 -84t22.5 -116.5q0 -65 -22.5 -117.5t-59 -84t-78.5 -48.5t-85 -17q-60 0 -107 29t-50 62v-274h-110v710h110v-67q48 73 157 73zM313 88q58 0 103.5 46.5t45.5 125.5t-45.5 125t-103.5 46q-61 0 -104.5 -42.5t-43.5 -128.5
q0 -85 43.5 -128.5t104.5 -43.5z" />
    <glyph glyph-name="q" unicode="q" horiz-adv-x="617" 
d="M552 520v-710h-110v274q-3 -33 -50 -62t-107 -29q-43 0 -85 17t-78.5 48.5t-59 84t-22.5 117.5q0 64 22.5 116.5t59 84t78.5 48.5t85 17q109 0 157 -73v67h110zM299 88q61 0 104.5 43.5t43.5 128.5q0 86 -43.5 128.5t-104.5 42.5q-58 0 -103.5 -46t-45.5 -125
t45.5 -125.5t103.5 -46.5z" />
    <glyph glyph-name="r" unicode="r" horiz-adv-x="427" 
d="M353 525q23 0 49 -3v-101q-21 1 -50 1q-65 0 -118.5 -49.5t-63.5 -127.5v-245h-110v520h110v-163q9 71 58.5 119.5t124.5 48.5z" />
    <glyph glyph-name="s" unicode="s" horiz-adv-x="487" 
d="M225 321l72 -20q74 -20 113.5 -53t39.5 -100q0 -69 -63.5 -112t-142.5 -43q-71 0 -131 36.5t-76 98.5l97 29q11 -33 43 -51t67 -18q37 0 64 17t27 41q0 46 -62 64l-72 20q-75 21 -111 56t-36 93q0 64 57.5 105.5t130.5 41.5q137 0 193 -121l-102 -30q-29 57 -91 57
q-33 0 -53 -14.5t-20 -37.5q0 -44 56 -59z" />
    <glyph glyph-name="t" unicode="t" horiz-adv-x="365" 
d="M257 89q34 0 68 14v-91q-36 -18 -95 -18q-58 0 -91.5 30t-33.5 110v291h-70v95h70v90h110v-90h109v-95h-109v-287q0 -49 42 -49z" />
    <glyph glyph-name="u" unicode="u" horiz-adv-x="607" 
d="M542 520v-520h-110v116q-10 -39 -56.5 -81t-113.5 -42q-88 0 -145 55.5t-57 169.5v302h110v-296q0 -70 28.5 -103t74.5 -33q60 0 105.5 49t53.5 97v286h110z" />
    <glyph glyph-name="v" unicode="v" horiz-adv-x="592" 
d="M305 0h-18l-262 520h116l155 -328l155 328h116z" />
    <glyph glyph-name="w" unicode="w" horiz-adv-x="902" 
d="M637 0h-13l-173 339l-173 -339h-13l-235 520h111l139 -313l163 313h16l163 -313l139 313h111z" />
    <glyph glyph-name="x" unicode="x" horiz-adv-x="586" 
d="M435 0l-142 191l-142 -191h-121l203 272l-185 248h121l124 -167l124 167h121l-184 -248l202 -272h-121z" />
    <glyph glyph-name="y" unicode="y" horiz-adv-x="588" 
d="M563 520l-288 -710h-108l83 205l-220 505h109l163 -376l152 376h109z" />
    <glyph glyph-name="z" unicode="z" horiz-adv-x="549" 
d="M504 95v-95h-469l279 425h-269v95h459l-279 -425h279z" />
    <glyph glyph-name="braceleft" unicode="{" horiz-adv-x="315" 
d="M150 306l50 -66v-243q0 -32 35 -32h35v-95h-82q-40 0 -69 23t-29 76v266l-45 71l45 73v267q0 52 29.5 75.5t68.5 23.5h82v-95h-35q-35 0 -35 -32v-244z" />
    <glyph glyph-name="bar" unicode="|" horiz-adv-x="245" 
d="M170 800v-990h-95v990h95z" />
    <glyph glyph-name="braceright" unicode="}" horiz-adv-x="315" 
d="M115 374v244q0 32 -35 32h-35v95h82q39 0 68.5 -23.5t29.5 -75.5v-267l45 -73l-45 -71v-266q0 -53 -29 -76t-69 -23h-82v95h35q35 0 35 32v243l50 66z" />
    <glyph glyph-name="asciitilde" unicode="~" horiz-adv-x="506" 
d="M416 326h45q0 -52 -31 -84.5t-87 -32.5q-44 0 -105 38.5t-92 38.5q-26 0 -42 -12t-15 -27h-44q0 52 31.5 84.5t88.5 32.5q45 0 104.5 -34.5t87.5 -34.5q27 0 43 9t16 22z" />
    <glyph glyph-name="exclamdown" unicode="&#xa1;" horiz-adv-x="226" 
d="M75 520h124v-123h-124v123zM199 -180h-123v490h123v-490z" />
    <glyph glyph-name="cent" unicode="&#xa2;" horiz-adv-x="536" 
d="M339 491v-324q52 13 79 55l98 -40q-60 -91 -177 -111v-111h-95v115q-83 19 -143 85t-61 169t59.5 169t144.5 85v117h95v-113q117 -20 177 -110l-98 -40q-28 42 -79 54zM150 329q0 -59 26.5 -98.5t67.5 -57.5v312q-41 -17 -67.5 -57t-26.5 -99z" />
    <glyph glyph-name="sterling" unicode="&#xa3;" horiz-adv-x="598" 
d="M443 480v18q0 50 -31 82t-91 32q-61 0 -90.5 -31.5t-29.5 -80.5q0 -27 8 -54.5t14 -39.5t22 -42h133v-84h-97q4 -15 4 -36q0 -74 -61 -151h319v-95h-498v18q77 95 101.5 139.5t24.5 88.5q0 14 -4 36h-77v84h39q-41 78 -41 136q0 92 70.5 149.5t162.5 57.5t162 -58
t70 -151v-18h-110z" />
    <glyph glyph-name="currency" unicode="&#xa4;" horiz-adv-x="541" 
d="M468 476q0 -59 -28 -109l46 -46l-71 -70l-42 42q-57 -41 -129 -41q-69 0 -127 40l-41 -41l-71 70l44 44q-29 53 -29 111q0 62 31 113l-46 46l71 70l43 -43q57 38 125 38q71 0 127 -39l44 44l71 -70l-48 -48q30 -51 30 -111zM244 343q62 0 98 42.5t36 90.5t-36 90.5
t-98 42.5t-97.5 -42.5t-35.5 -90.5t35.5 -90.5t97.5 -42.5z" />
    <glyph glyph-name="yen" unicode="&#xa5;" horiz-adv-x="736" 
d="M413 310h100v-84h-100v-47h100v-84h-100v-95h-110v95h-78v84h78v47h-78v84h78v13l-263 377h125l193 -279l193 279h125l-263 -377v-13z" />
    <glyph glyph-name="brokenbar" unicode="&#xa6;" horiz-adv-x="245" 
d="M170 800v-280h-95v280h95zM170 90v-280h-95v280h95z" />
    <glyph glyph-name="section" unicode="&#xa7;" horiz-adv-x="601" 
d="M557 214q0 -52 -32 -98q32 -48 32 -108q0 -61 -39 -108.5t-96 -71t-118 -23.5q-97 0 -167.5 58t-91.5 151l112 35q10 -60 49.5 -96.5t97.5 -36.5q56 0 95.5 25t39.5 67q0 43 -26.5 67t-73.5 40l-90 30q-171 55 -171 194q0 51 33 103q-33 50 -33 107q0 84 67.5 139.5
t161.5 55.5q100 0 168.5 -58t85.5 -138l-118 -34q3 44 -35.5 81.5t-100.5 37.5q-50 0 -80.5 -23.5t-30.5 -60.5q0 -35 21 -56t65 -35l73 -25q202 -63 202 -219zM282 250l73 -25q53 -17 84 -34v23q0 76 -100 110l-90 28q-15 5 -47 19q-6 -13 -6 -32q0 -65 86 -89z" />
    <glyph glyph-name="dieresis" unicode="&#xa8;" horiz-adv-x="368" 
d="M119 710v-119h-119v119h119zM368 710v-119h-119v119h119z" />
    <glyph glyph-name="copyright" unicode="&#xa9;" horiz-adv-x="798" 
d="M399 707q138 0 243.5 -102t105.5 -255t-105.5 -255t-243.5 -102q-135 0 -242 102.5t-107 254.5t107 254.5t242 102.5zM626 350q0 110 -65 178.5t-161 68.5q-91 0 -159 -69.5t-68 -177.5t68 -177.5t159 -69.5q96 0 161 68.5t65 178.5zM410 253q34 0 62 26l67 -71
q-51 -56 -128 -56t-135 56t-58 142q0 85 58.5 141.5t134.5 56.5q75 0 128 -55l-67 -73q-26 26 -62 26q-34 0 -59.5 -27t-25.5 -69t25 -69.5t60 -27.5z" />
    <glyph glyph-name="ordfeminine" unicode="&#xaa;" horiz-adv-x="419" 
d="M333 558v-96q0 -30 5.5 -45t20.5 -37h-77q-11 11 -17 42q-36 -44 -95 -44t-94.5 26t-35.5 77q0 47 38 73.5t95 31.5l81 7q0 27 -18 40.5t-45 13.5q-51 0 -95 -46l-46 45q20 30 57.5 48t83.5 18q142 0 142 -154zM170 442q31 0 53 17.5t31 38.5v31q-22 -4 -81 -9
q-28 -2 -42.5 -12.5t-14.5 -26.5t13.5 -27.5t40.5 -11.5z" />
    <glyph glyph-name="guillemotleft" unicode="&#xab;" horiz-adv-x="433" 
d="M76 309l104 -99v-91l-155 90v199l155 90v-91zM284 309l104 -99v-91l-155 90v199l155 90v-91z" />
    <glyph glyph-name="logicalnot" unicode="&#xac;" horiz-adv-x="505" 
d="M460 302v-174h-110v84h-305v90h415z" />
    <glyph glyph-name="softhyphen" unicode="&#xad;" horiz-adv-x="400" 
d="M355 322v-90h-310v90h310z" />
    <glyph glyph-name="registered" unicode="&#xae;" horiz-adv-x="798" 
d="M399 707q138 0 243.5 -102t105.5 -255t-105.5 -255t-243.5 -102q-135 0 -242 102.5t-107 254.5t107 254.5t242 102.5zM626 350q0 110 -65 178.5t-161 68.5q-91 0 -159 -69.5t-68 -177.5t68 -177.5t159 -69.5q96 0 161 68.5t65 178.5zM358 309h-3v-136h-85v361h120
q61 0 100 -31.5t39 -80.5q0 -92 -85 -111l97 -138h-100zM354 383h41q47 0 47 39q0 18 -12.5 29t-34.5 11h-41v-79z" />
    <glyph glyph-name="macron" unicode="&#xaf;" horiz-adv-x="372" 
d="M372 700v-95h-372v95h372z" />
    <glyph glyph-name="degree" unicode="&#xb0;" horiz-adv-x="386" 
d="M193 425q-61 0 -104.5 43.5t-43.5 104.5q0 60 43.5 103t104.5 43t104.5 -43t43.5 -103q0 -61 -43.5 -104.5t-104.5 -43.5zM193 505q32 0 49 22t17 46q0 23 -17 44.5t-49 21.5t-49 -21.5t-17 -44.5q0 -24 17 -46t49 -22z" />
    <glyph glyph-name="plusminus" unicode="&#xb1;" horiz-adv-x="425" 
d="M380 332v-90h-127v-118h-90v118h-118v90h118v127h90v-127h127zM45 91h335v-90h-335v90z" />
    <glyph glyph-name="twosuperior" unicode="&#xb2;" horiz-adv-x="261" 
d="M48 472l68 69q28 29 36.5 38.5t15.5 22.5t7 27q0 18 -14 31t-32 13q-19 0 -33 -13t-14 -37v-14h-37v14q0 35 24.5 58t59.5 23q34 0 59 -22.5t25 -52.5q0 -26 -14.5 -47t-53.5 -61l-47 -49h118v-32h-168v32z" />
    <glyph glyph-name="threesuperior" unicode="&#xb3;" horiz-adv-x="273" 
d="M186 582q42 -18 42 -66q0 -34 -27.5 -57t-64.5 -23q-41 0 -67.5 27t-23.5 64h38q-4 -23 12 -41t41 -18q22 0 38 13.5t16 34.5q0 55 -74 45v31q63 3 63 43q0 15 -12.5 26t-30.5 11q-22 0 -35 -15.5t-11 -41.5h-38q-3 38 22 63t62 25q32 0 56 -20.5t24 -47.5q0 -32 -30 -53
z" />
    <glyph glyph-name="acute" unicode="&#xb4;" horiz-adv-x="209" 
d="M98 622l111 145h-155l-54 -145h98z" />
    <glyph glyph-name="paragraph" unicode="&#xb6;" horiz-adv-x="840" 
d="M567 700v-700h-113v272h-132q-116 0 -185.5 59.5t-69.5 154.5q0 93 70 153.5t185 60.5h245zM770 700v-700h-110v700h110zM454 603h-127q-70 0 -110 -29t-40 -88q0 -117 150 -117h127v234z" />
    <glyph glyph-name="periodcentered" unicode="&#xb7;" horiz-adv-x="226" 
d="M164 342v-123h-124v123h124z" />
    <glyph glyph-name="cedilla" unicode="&#xb8;" horiz-adv-x="207" 
d="M169 1l-49 -52q38 -6 63.5 -31.5t25.5 -61.5q0 -54 -55 -77.5t-138 -14.5l14 36q92 3 92 56q0 26 -22 36t-47 -14l-27 46l46 77h97z" />
    <glyph glyph-name="onesuperior" unicode="&#xb9;" horiz-adv-x="202" 
d="M127 440h-37v221l-17 -11l-18 31l35 20h37v-261z" />
    <glyph glyph-name="ordmasculine" unicode="&#xba;" horiz-adv-x="408" 
d="M204 705q58 0 106 -44.5t48 -117.5t-48 -118t-106 -45t-106 45t-48 118t48 117.5t106 44.5zM284 544q0 37 -25 62t-55 25q-31 0 -56 -25t-25 -62q0 -38 25 -63.5t56 -25.5q30 0 55 25t25 64z" />
    <glyph glyph-name="guillemotright" unicode="&#xbb;" horiz-adv-x="433" 
d="M45 498l155 -90v-199l-155 -90v91l104 99l-104 98v91zM253 498l155 -90v-199l-155 -90v91l104 99l-104 98v91z" />
    <glyph glyph-name="onequarter" unicode="&#xbc;" horiz-adv-x="569" 
d="M100 440h-37v221l-17 -11l-18 31l35 20h37v-261zM25 0l436 700h42l-430 -700h-48zM517 76v-76h-37v76h-132l132 185h37v-154h27v-31h-27zM480 202l-65 -95h65v95z" />
    <glyph glyph-name="onehalf" unicode="&#xbd;" horiz-adv-x="544" 
d="M100 440h-37v221l-17 -11l-18 31l35 20h37v-261zM25 0l436 700h42l-430 -700h-48zM351 32l68 69q28 29 36.5 38.5t15.5 22.5t7 27q0 18 -14 31t-32 13q-19 0 -33 -13t-14 -37v-14h-37v14q0 35 24.5 58t59.5 23q34 0 59 -22.5t25 -52.5q0 -26 -14.5 -47t-53.5 -61l-47 -49
h118v-32h-168v32z" />
    <glyph glyph-name="threequarters" unicode="&#xbe;" horiz-adv-x="587" 
d="M166 582q42 -18 42 -66q0 -34 -27.5 -57t-64.5 -23q-41 0 -67.5 27t-23.5 64h38q-4 -23 12 -41t41 -18q22 0 38 13.5t16 34.5q0 55 -74 45v31q63 3 63 43q0 15 -12.5 26t-30.5 11q-22 0 -35 -15.5t-11 -41.5h-38q-3 38 22 63t62 25q32 0 56 -20.5t24 -47.5q0 -32 -30 -53
zM53 0l436 700h42l-430 -700h-48zM535 76v-76h-37v76h-132l132 185h37v-154h27v-31h-27zM498 202l-65 -95h65v95z" />
    <glyph glyph-name="questiondown" unicode="&#xbf;" horiz-adv-x="543" 
d="M191 397v123h124v-123h-124zM269 -187q92 0 160.5 60t68.5 161h-110q0 -54 -30.5 -90t-88.5 -36q-61 0 -87.5 32.5t-26.5 78.5q0 29 16 54t38 45.5t44.5 44t38.5 59.5t16 80v11h-114v-11q0 -37 -15.5 -66.5t-37.5 -50t-43.5 -42t-37 -53t-15.5 -71.5q0 -92 66 -149
t158 -57z" />
    <glyph glyph-name="Agrave" unicode="&#xc0;" horiz-adv-x="742" 
d="M326 802l-111 145h155l54 -145h-98zM503 196h-264l-87 -196h-122l331 700h20l331 -700h-122zM461 292l-90 203l-90 -203h180z" />
    <glyph glyph-name="Aacute" unicode="&#xc1;" horiz-adv-x="742" 
d="M414 802h-98l54 145h155zM503 196h-264l-87 -196h-122l331 700h20l331 -700h-122zM461 292l-90 203l-90 -203h180z" />
    <glyph glyph-name="Acircumflex" unicode="&#xc2;" horiz-adv-x="742" 
d="M272 792h-91l90 155h199l90 -155h-91l-98 104zM503 196h-264l-87 -196h-122l331 700h20l331 -700h-122zM461 292l-90 203l-90 -203h180z" />
    <glyph glyph-name="Atilde" unicode="&#xc3;" horiz-adv-x="742" 
d="M274 840q-20 0 -34 -12t-13 -27h-44q0 51 30 84t80 33q40 0 94.5 -34.5t77.5 -34.5q20 0 34.5 9.5t14.5 21.5h45q0 -51 -29.5 -84t-78.5 -33q-39 0 -95 38.5t-82 38.5zM503 196h-264l-87 -196h-122l331 700h20l331 -700h-122zM461 292l-90 203l-90 -203h180z" />
    <glyph glyph-name="Adieresis" unicode="&#xc4;" horiz-adv-x="742" 
d="M306 771h-119v119h119v-119zM555 771h-119v119h119v-119zM503 196h-264l-87 -196h-122l331 700h20l331 -700h-122zM461 292l-90 203l-90 -203h180z" />
    <glyph glyph-name="Aring" unicode="&#xc5;" horiz-adv-x="742" 
d="M372 779q-43 0 -73 29.5t-30 70.5q0 42 30 71.5t73 29.5q41 0 70.5 -30t29.5 -71t-30 -70.5t-70 -29.5zM370 912q-13 0 -22 -9.5t-9 -22.5t9 -22t22 -9t22.5 9t9.5 22t-9.5 22.5t-22.5 9.5zM503 196h-264l-87 -196h-122l331 700h20l331 -700h-122zM461 292l-90 203
l-90 -203h180z" />
    <glyph glyph-name="AE" unicode="&#xc6;" horiz-adv-x="1033" 
d="M978 99v-99h-469v201h-219l-137 -201h-123l479 700h459v-99h-343v-200h243v-99h-243v-203h353zM509 296v225l-154 -225h154z" />
    <glyph glyph-name="Ccedilla" unicode="&#xc7;" horiz-adv-x="648" 
d="M537 165l71 -85q-81 -74 -188 -85l-43 -46q38 -6 63.5 -31.5t25.5 -61.5q0 -54 -55 -77.5t-138 -14.5l14 36q92 3 92 56q0 26 -22 36t-47 -14l-27 46l45 75q-119 23 -203.5 119.5t-84.5 230.5q0 153 106 255.5t241 102.5q126 0 221 -87l-71 -85q-63 63 -148 63
q-90 0 -158 -72t-68 -176t68 -176t158 -72q83 0 148 63z" />
    <glyph glyph-name="Egrave" unicode="&#xc8;" 
d="M250 802l-111 145h155l54 -145h-98zM524 99v-99h-469v700h459v-99h-343v-200h243v-99h-243v-203h353z" />
    <glyph glyph-name="Eacute" unicode="&#xc9;" 
d="M338 802h-98l54 145h155zM524 99v-99h-469v700h459v-99h-343v-200h243v-99h-243v-203h353z" />
    <glyph glyph-name="Ecircumflex" unicode="&#xca;" 
d="M196 792h-91l90 155h199l90 -155h-91l-98 104zM524 99v-99h-469v700h459v-99h-343v-200h243v-99h-243v-203h353z" />
    <glyph glyph-name="Edieresis" unicode="&#xcb;" 
d="M230 771h-119v119h119v-119zM479 771h-119v119h119v-119zM524 99v-99h-469v700h459v-99h-343v-200h243v-99h-243v-203h353z" />
    <glyph glyph-name="Igrave" unicode="&#xcc;" horiz-adv-x="245" 
d="M120 947h-155l111 -145h98zM65 0v700h115v-700h-115z" />
    <glyph glyph-name="Iacute" unicode="&#xcd;" horiz-adv-x="245" 
d="M164 802l111 145h-155l-54 -145h98zM65 0v700h115v-700h-115z" />
    <glyph glyph-name="Icircumflex" unicode="&#xce;" horiz-adv-x="245" 
d="M121 896l-99 -104h-91l90 155h199l90 -155h-91zM65 0v700h115v-700h-115z" />
    <glyph glyph-name="Idieresis" unicode="&#xcf;" horiz-adv-x="245" 
d="M56 890v-119h-119v119h119zM305 890v-119h-119v119h119zM65 0v700h115v-700h-115z" />
    <glyph glyph-name="Eth" unicode="&#xd0;" horiz-adv-x="792" 
d="M148 700h225q144 0 247 -102t103 -246q0 -147 -102.5 -249.5t-247.5 -102.5h-225v300h-73v90h73v310zM261 96h112q106 0 171.5 73t65.5 183q0 108 -66 180t-171 72h-112v-214h124v-90h-124v-204z" />
    <glyph glyph-name="Ntilde" unicode="&#xd1;" horiz-adv-x="691" 
d="M489 880h45q0 -51 -29.5 -84t-78.5 -33q-39 0 -95 38.5t-82 38.5q-20 0 -34 -12t-13 -27h-44q0 51 30 84t80 33q40 0 94.5 -34.5t77.5 -34.5q20 0 34.5 9.5t14.5 21.5zM621 0h-12l-424 434v-434h-115v700h11l425 -434v434h115v-700z" />
    <glyph glyph-name="Ograve" unicode="&#xd2;" horiz-adv-x="794" 
d="M396 947h-155l111 -145h98zM397 707q138 0 242.5 -102t104.5 -255t-104.5 -255t-242.5 -102q-87 0 -166 44.5t-130 127.5t-51 185t51 185t130 127.5t166 44.5zM619 350q0 110 -63 179t-158 69q-91 0 -156.5 -69.5t-65.5 -178.5t65.5 -178.5t156.5 -69.5q95 0 158 69
t63 179z" />
    <glyph glyph-name="Oacute" unicode="&#xd3;" horiz-adv-x="794" 
d="M440 802l111 145h-155l-54 -145h98zM397 707q138 0 242.5 -102t104.5 -255t-104.5 -255t-242.5 -102q-87 0 -166 44.5t-130 127.5t-51 185t51 185t130 127.5t166 44.5zM619 350q0 110 -63 179t-158 69q-91 0 -156.5 -69.5t-65.5 -178.5t65.5 -178.5t156.5 -69.5
q95 0 158 69t63 179z" />
    <glyph glyph-name="Ocircumflex" unicode="&#xd4;" horiz-adv-x="794" 
d="M397 896l-99 -104h-91l90 155h199l90 -155h-91zM397 707q138 0 242.5 -102t104.5 -255t-104.5 -255t-242.5 -102q-87 0 -166 44.5t-130 127.5t-51 185t51 185t130 127.5t166 44.5zM619 350q0 110 -63 179t-158 69q-91 0 -156.5 -69.5t-65.5 -178.5t65.5 -178.5
t156.5 -69.5q95 0 158 69t63 179z" />
    <glyph glyph-name="Otilde" unicode="&#xd5;" horiz-adv-x="794" 
d="M540 880h45q0 -51 -29.5 -84t-78.5 -33q-39 0 -95 38.5t-82 38.5q-20 0 -34 -12t-13 -27h-44q0 51 30 84t80 33q40 0 94.5 -34.5t77.5 -34.5q20 0 34.5 9.5t14.5 21.5zM397 707q138 0 242.5 -102t104.5 -255t-104.5 -255t-242.5 -102q-87 0 -166 44.5t-130 127.5t-51 185
t51 185t130 127.5t166 44.5zM619 350q0 110 -63 179t-158 69q-91 0 -156.5 -69.5t-65.5 -178.5t65.5 -178.5t156.5 -69.5q95 0 158 69t63 179z" />
    <glyph glyph-name="Odieresis" unicode="&#xd6;" horiz-adv-x="794" 
d="M332 890v-119h-119v119h119zM581 890v-119h-119v119h119zM397 707q138 0 242.5 -102t104.5 -255t-104.5 -255t-242.5 -102q-87 0 -166 44.5t-130 127.5t-51 185t51 185t130 127.5t166 44.5zM619 350q0 110 -63 179t-158 69q-91 0 -156.5 -69.5t-65.5 -178.5t65.5 -178.5
t156.5 -69.5q95 0 158 69t63 179z" />
    <glyph glyph-name="multiply" unicode="&#xd7;" horiz-adv-x="391" 
d="M255 282l90 -90l-63 -64l-90 91l-84 -84l-64 63l84 84l-84 84l64 63l84 -83l90 90l63 -64z" />
    <glyph glyph-name="Oslash" unicode="&#xd8;" horiz-adv-x="794" 
d="M640 745l-48 -100q69 -48 110.5 -125t41.5 -170q0 -153 -104.5 -255t-242.5 -102q-57 0 -108 19l-29 -62h-122l54 114q-65 49 -103.5 123t-38.5 163q0 102 51 185t130 127.5t166 44.5q48 0 96 -14l25 52h122zM176 350q0 -110 67 -180l202 423q-25 5 -47 5
q-91 0 -156.5 -69.5t-65.5 -178.5zM398 102q95 0 158 69t63 179q0 122 -76 192l-206 -431q30 -9 61 -9z" />
    <glyph glyph-name="Ugrave" unicode="&#xd9;" horiz-adv-x="686" 
d="M342 947h-155l111 -145h98zM621 700v-445q0 -118 -81 -190t-197 -72q-117 0 -197.5 72t-80.5 190v445h110v-444q0 -83 47.5 -125.5t120.5 -42.5t120.5 42.5t47.5 125.5v444h110z" />
    <glyph glyph-name="Uacute" unicode="&#xda;" horiz-adv-x="686" 
d="M386 802l111 145h-155l-54 -145h98zM621 700v-445q0 -118 -81 -190t-197 -72q-117 0 -197.5 72t-80.5 190v445h110v-444q0 -83 47.5 -125.5t120.5 -42.5t120.5 42.5t47.5 125.5v444h110z" />
    <glyph glyph-name="Ucircumflex" unicode="&#xdb;" horiz-adv-x="686" 
d="M343 896l-99 -104h-91l90 155h199l90 -155h-91zM621 700v-445q0 -118 -81 -190t-197 -72q-117 0 -197.5 72t-80.5 190v445h110v-444q0 -83 47.5 -125.5t120.5 -42.5t120.5 42.5t47.5 125.5v444h110z" />
    <glyph glyph-name="Udieresis" unicode="&#xdc;" horiz-adv-x="686" 
d="M278 890v-119h-119v119h119zM527 890v-119h-119v119h119zM621 700v-445q0 -118 -81 -190t-197 -72q-117 0 -197.5 72t-80.5 190v445h110v-444q0 -83 47.5 -125.5t120.5 -42.5t120.5 42.5t47.5 125.5v444h110z" />
    <glyph glyph-name="Yacute" unicode="&#xdd;" horiz-adv-x="716" 
d="M401 802l111 145h-155l-54 -145h98zM413 0h-110v323l-263 377h125l193 -279l193 279h125l-263 -377v-323z" />
    <glyph glyph-name="Thorn" unicode="&#xde;" horiz-adv-x="672" 
d="M185 565h150q124 0 198 -59t74 -154q0 -101 -73 -157t-199 -56h-150v-139h-110v700h110v-135zM185 234h152q38 0 63 3.5t49.5 15t36 36t11.5 63.5q0 67 -42 92.5t-118 25.5h-152v-236z" />
    <glyph glyph-name="germandbls" unicode="&#xdf;" horiz-adv-x="687" 
d="M463 384q63 -8 106 -57.5t43 -113.5q0 -213 -277 -213h-65v95h67q165 0 165 118q0 61 -48.5 89t-126.5 28h-57v95h57q72 0 103.5 20.5t31.5 69.5q0 44 -39.5 67t-99.5 23q-71 0 -102 -27.5t-31 -91.5v-486h-110v486q0 98 68.5 156t174.5 58q103 0 176 -51t73 -134
q0 -53 -32.5 -89.5t-76.5 -41.5z" />
    <glyph glyph-name="agrave" unicode="&#xe0;" horiz-adv-x="612" 
d="M322 767h-155l111 -145h98zM442 0v84q-3 -33 -50 -62t-107 -29q-43 0 -85 17t-78.5 48.5t-59 84t-22.5 117.5q0 64 22.5 116.5t59 84t78.5 48.5t85 17q109 0 157 -73v67h110v-520h-110zM299 88q61 0 104.5 43.5t43.5 128.5q0 86 -43.5 128.5t-104.5 42.5
q-58 0 -103.5 -46t-45.5 -125t45.5 -125.5t103.5 -46.5z" />
    <glyph glyph-name="aacute" unicode="&#xe1;" horiz-adv-x="612" 
d="M366 622l111 145h-155l-54 -145h98zM442 0v84q-3 -33 -50 -62t-107 -29q-43 0 -85 17t-78.5 48.5t-59 84t-22.5 117.5q0 64 22.5 116.5t59 84t78.5 48.5t85 17q109 0 157 -73v67h110v-520h-110zM299 88q61 0 104.5 43.5t43.5 128.5q0 86 -43.5 128.5t-104.5 42.5
q-58 0 -103.5 -46t-45.5 -125t45.5 -125.5t103.5 -46.5z" />
    <glyph glyph-name="acircumflex" unicode="&#xe2;" horiz-adv-x="612" 
d="M323 716l-99 -104h-91l90 155h199l90 -155h-91zM442 0v84q-3 -33 -50 -62t-107 -29q-43 0 -85 17t-78.5 48.5t-59 84t-22.5 117.5q0 64 22.5 116.5t59 84t78.5 48.5t85 17q109 0 157 -73v67h110v-520h-110zM299 88q61 0 104.5 43.5t43.5 128.5q0 86 -43.5 128.5
t-104.5 42.5q-58 0 -103.5 -46t-45.5 -125t45.5 -125.5t103.5 -46.5z" />
    <glyph glyph-name="atilde" unicode="&#xe3;" horiz-adv-x="612" 
d="M466 700h45q0 -51 -29.5 -84t-78.5 -33q-39 0 -95 38.5t-82 38.5q-20 0 -34 -12t-13 -27h-44q0 51 30 84t80 33q40 0 94.5 -34.5t77.5 -34.5q20 0 34.5 9.5t14.5 21.5zM442 0v84q-3 -33 -50 -62t-107 -29q-43 0 -85 17t-78.5 48.5t-59 84t-22.5 117.5q0 64 22.5 116.5
t59 84t78.5 48.5t85 17q109 0 157 -73v67h110v-520h-110zM299 88q61 0 104.5 43.5t43.5 128.5q0 86 -43.5 128.5t-104.5 42.5q-58 0 -103.5 -46t-45.5 -125t45.5 -125.5t103.5 -46.5z" />
    <glyph glyph-name="adieresis" unicode="&#xe4;" horiz-adv-x="612" 
d="M258 710v-119h-119v119h119zM507 710v-119h-119v119h119zM442 0v84q-3 -33 -50 -62t-107 -29q-43 0 -85 17t-78.5 48.5t-59 84t-22.5 117.5q0 64 22.5 116.5t59 84t78.5 48.5t85 17q109 0 157 -73v67h110v-520h-110zM299 88q61 0 104.5 43.5t43.5 128.5q0 86 -43.5 128.5
t-104.5 42.5q-58 0 -103.5 -46t-45.5 -125t45.5 -125.5t103.5 -46.5z" />
    <glyph glyph-name="aring" unicode="&#xe5;" horiz-adv-x="612" 
d="M324 599q-43 0 -73 29.5t-30 70.5q0 42 30 71.5t73 29.5q41 0 70.5 -30t29.5 -71t-30 -70.5t-70 -29.5zM322 669q13 0 22.5 9t9.5 22t-9.5 22.5t-22.5 9.5t-22 -9.5t-9 -22.5t9 -22t22 -9zM442 0v84q-3 -33 -50 -62t-107 -29q-43 0 -85 17t-78.5 48.5t-59 84t-22.5 117.5
q0 64 22.5 116.5t59 84t78.5 48.5t85 17q109 0 157 -73v67h110v-520h-110zM299 88q61 0 104.5 43.5t43.5 128.5q0 86 -43.5 128.5t-104.5 42.5q-58 0 -103.5 -46t-45.5 -125t45.5 -125.5t103.5 -46.5z" />
    <glyph glyph-name="ae" unicode="&#xe6;" horiz-adv-x="1002" 
d="M962 259q0 -23 -3 -42h-398q8 -60 52 -94t94 -34q72 0 116 47l93 -50q-39 -46 -94.5 -69.5t-114.5 -23.5q-84 0 -155 53v-46h-110v84q-3 -33 -50 -62t-107 -29q-43 0 -85 17t-78.5 48.5t-59 84t-22.5 117.5q0 64 22.5 116.5t59 84t78.5 48.5t85 17q109 0 157 -73v67h110
v-47q73 53 155 53q58 0 114.5 -28t98.5 -91t42 -148zM299 88q61 0 104.5 43.5t43.5 128.5q0 86 -43.5 128.5t-104.5 42.5q-58 0 -103.5 -46t-45.5 -125t45.5 -125.5t103.5 -46.5zM562 308h287q-10 58 -52 90t-90 32q-49 0 -92 -32t-53 -90z" />
    <glyph glyph-name="ccedilla" unicode="&#xe7;" horiz-adv-x="551" 
d="M300 89q80 0 118 61l98 -41q-29 -46 -76 -74.5t-98 -37.5l-45 -48q38 -6 63.5 -31.5t25.5 -61.5q0 -54 -55 -77.5t-138 -14.5l14 36q92 3 92 56q0 26 -22 36t-47 -14l-27 46l45 75q-84 19 -145.5 86t-62.5 174q0 65 24.5 117.5t64 84t84 48.5t87.5 17q60 0 120 -30
t96 -86l-98 -41q-38 61 -118 61q-59 0 -104.5 -45t-45.5 -126q0 -80 45.5 -125t104.5 -45z" />
    <glyph glyph-name="egrave" unicode="&#xe8;" horiz-adv-x="595" 
d="M297 767h-155l111 -145h98zM552 217h-398q8 -60 52 -94t94 -34q72 0 116 47l93 -50q-39 -46 -94.5 -69.5t-114.5 -23.5q-43 0 -87 16.5t-83.5 48t-64.5 84t-25 117.5q0 64 25 117t64.5 84.5t83.5 48.5t87 17q58 0 114.5 -28t98.5 -91t42 -148q0 -23 -3 -42zM155 308h287
q-10 58 -52 90t-90 32q-49 0 -92 -32t-53 -90z" />
    <glyph glyph-name="eacute" unicode="&#xe9;" horiz-adv-x="595" 
d="M341 622l111 145h-155l-54 -145h98zM552 217h-398q8 -60 52 -94t94 -34q72 0 116 47l93 -50q-39 -46 -94.5 -69.5t-114.5 -23.5q-43 0 -87 16.5t-83.5 48t-64.5 84t-25 117.5q0 64 25 117t64.5 84.5t83.5 48.5t87 17q58 0 114.5 -28t98.5 -91t42 -148q0 -23 -3 -42z
M155 308h287q-10 58 -52 90t-90 32q-49 0 -92 -32t-53 -90z" />
    <glyph glyph-name="ecircumflex" unicode="&#xea;" horiz-adv-x="595" 
d="M298 716l-99 -104h-91l90 155h199l90 -155h-91zM552 217h-398q8 -60 52 -94t94 -34q72 0 116 47l93 -50q-39 -46 -94.5 -69.5t-114.5 -23.5q-43 0 -87 16.5t-83.5 48t-64.5 84t-25 117.5q0 64 25 117t64.5 84.5t83.5 48.5t87 17q58 0 114.5 -28t98.5 -91t42 -148
q0 -23 -3 -42zM155 308h287q-10 58 -52 90t-90 32q-49 0 -92 -32t-53 -90z" />
    <glyph glyph-name="edieresis" unicode="&#xeb;" horiz-adv-x="595" 
d="M233 710v-119h-119v119h119zM482 710v-119h-119v119h119zM552 217h-398q8 -60 52 -94t94 -34q72 0 116 47l93 -50q-39 -46 -94.5 -69.5t-114.5 -23.5q-43 0 -87 16.5t-83.5 48t-64.5 84t-25 117.5q0 64 25 117t64.5 84.5t83.5 48.5t87 17q58 0 114.5 -28t98.5 -91
t42 -148q0 -23 -3 -42zM155 308h287q-10 58 -52 90t-90 32q-49 0 -92 -32t-53 -90z" />
    <glyph glyph-name="igrave" unicode="&#xec;" horiz-adv-x="260" 
d="M129 767h-155l111 -145h98zM185 520v-520h-110v520h110z" />
    <glyph glyph-name="iacute" unicode="&#xed;" horiz-adv-x="260" 
d="M173 622l111 145h-155l-54 -145h98zM185 520v-520h-110v520h110z" />
    <glyph glyph-name="icircumflex" unicode="&#xee;" horiz-adv-x="260" 
d="M130 716l-99 -104h-91l90 155h199l90 -155h-91zM185 520v-520h-110v520h110z" />
    <glyph glyph-name="idieresis" unicode="&#xef;" horiz-adv-x="260" 
d="M65 710v-119h-119v119h119zM314 710v-119h-119v119h119zM185 520v-520h-110v520h110z" />
    <glyph glyph-name="eth" unicode="&#xf0;" horiz-adv-x="624" 
d="M483 578l-22 -3q56 -80 79.5 -155t23.5 -168q0 -125 -73 -193.5t-182 -68.5q-101 0 -172.5 68.5t-71.5 193.5q0 129 66 198.5t178 69.5q61 0 87 -23l-45 62l-79 -12v94l16 2l-42 57h122l30 -40l85 12v-94zM309 85q56 0 100.5 42.5t44.5 124.5q0 89 -39 130.5t-106 41.5
q-61 0 -97.5 -41.5t-36.5 -130.5q0 -81 43 -124t91 -43z" />
    <glyph glyph-name="ntilde" unicode="&#xf1;" horiz-adv-x="603" 
d="M206 660q-20 0 -34 -12t-13 -27h-44q0 51 30 84t80 33q40 0 94.5 -34.5t77.5 -34.5q20 0 34.5 9.5t14.5 21.5h45q0 -51 -29.5 -84t-78.5 -33q-39 0 -95 38.5t-82 38.5zM333 525q94 0 154.5 -56.5t60.5 -171.5v-297h-110v291q0 139 -117 139q-61 0 -102.5 -46.5
t-48.5 -87.5v-296h-110v520h110v-111q5 36 49 76t114 40z" />
    <glyph glyph-name="ograve" unicode="&#xf2;" horiz-adv-x="600" 
d="M299 767h-155l111 -145h98zM300 526q43 0 87 -17t83.5 -48.5t64.5 -84.5t25 -117q0 -65 -25 -117.5t-64.5 -84t-83.5 -48t-87 -16.5t-87 16.5t-83.5 48t-64.5 84t-25 117.5q0 64 25 117t64.5 84.5t83.5 48.5t87 17zM450 259q0 81 -46 126t-104 45t-104 -45t-46 -126
q0 -80 46 -125t104 -45t104 45t46 125z" />
    <glyph glyph-name="oacute" unicode="&#xf3;" horiz-adv-x="600" 
d="M343 622l111 145h-155l-54 -145h98zM300 526q43 0 87 -17t83.5 -48.5t64.5 -84.5t25 -117q0 -65 -25 -117.5t-64.5 -84t-83.5 -48t-87 -16.5t-87 16.5t-83.5 48t-64.5 84t-25 117.5q0 64 25 117t64.5 84.5t83.5 48.5t87 17zM450 259q0 81 -46 126t-104 45t-104 -45
t-46 -126q0 -80 46 -125t104 -45t104 45t46 125z" />
    <glyph glyph-name="ocircumflex" unicode="&#xf4;" horiz-adv-x="600" 
d="M300 716l-99 -104h-91l90 155h199l90 -155h-91zM300 526q43 0 87 -17t83.5 -48.5t64.5 -84.5t25 -117q0 -65 -25 -117.5t-64.5 -84t-83.5 -48t-87 -16.5t-87 16.5t-83.5 48t-64.5 84t-25 117.5q0 64 25 117t64.5 84.5t83.5 48.5t87 17zM450 259q0 81 -46 126t-104 45
t-104 -45t-46 -126q0 -80 46 -125t104 -45t104 45t46 125z" />
    <glyph glyph-name="otilde" unicode="&#xf5;" horiz-adv-x="600" 
d="M443 700h45q0 -51 -29.5 -84t-78.5 -33q-39 0 -95 38.5t-82 38.5q-20 0 -34 -12t-13 -27h-44q0 51 30 84t80 33q40 0 94.5 -34.5t77.5 -34.5q20 0 34.5 9.5t14.5 21.5zM300 526q43 0 87 -17t83.5 -48.5t64.5 -84.5t25 -117q0 -65 -25 -117.5t-64.5 -84t-83.5 -48
t-87 -16.5t-87 16.5t-83.5 48t-64.5 84t-25 117.5q0 64 25 117t64.5 84.5t83.5 48.5t87 17zM450 259q0 81 -46 126t-104 45t-104 -45t-46 -126q0 -80 46 -125t104 -45t104 45t46 125z" />
    <glyph glyph-name="odieresis" unicode="&#xf6;" horiz-adv-x="600" 
d="M235 710v-119h-119v119h119zM484 710v-119h-119v119h119zM300 526q43 0 87 -17t83.5 -48.5t64.5 -84.5t25 -117q0 -65 -25 -117.5t-64.5 -84t-83.5 -48t-87 -16.5t-87 16.5t-83.5 48t-64.5 84t-25 117.5q0 64 25 117t64.5 84.5t83.5 48.5t87 17zM450 259q0 81 -46 126
t-104 45t-104 -45t-46 -126q0 -80 46 -125t104 -45t104 45t46 125z" />
    <glyph glyph-name="divide" unicode="&#xf7;" horiz-adv-x="425" 
d="M274 495v-123h-124v123h124zM380 322v-90h-335v90h335zM274 188v-123h-124v123h124z" />
    <glyph glyph-name="oslash" unicode="&#xf8;" horiz-adv-x="598" 
d="M506 578l-51 -106q105 -77 105 -213q0 -65 -25 -117.5t-64.5 -84t-83.5 -48t-87 -16.5q-36 0 -69 10l-26 -53h-112l47 99q-100 77 -100 210q0 64 25 117t64.5 84.5t83.5 48.5t87 17q30 0 65 -9l29 61h112zM150 259q0 -68 36 -114l136 283q-14 2 -22 2q-58 0 -104 -45
t-46 -126zM300 89q58 0 104 45t46 125q0 72 -40 119l-137 -286q13 -3 27 -3z" />
    <glyph glyph-name="ugrave" unicode="&#xf9;" horiz-adv-x="607" 
d="M256 622l-111 145h155l54 -145h-98zM542 520v-520h-110v116q-10 -39 -56.5 -81t-113.5 -42q-88 0 -145 55.5t-57 169.5v302h110v-296q0 -70 28.5 -103t74.5 -33q60 0 105.5 49t53.5 97v286h110z" />
    <glyph glyph-name="uacute" unicode="&#xfa;" horiz-adv-x="607" 
d="M344 622h-98l54 145h155zM542 520v-520h-110v116q-10 -39 -56.5 -81t-113.5 -42q-88 0 -145 55.5t-57 169.5v302h110v-296q0 -70 28.5 -103t74.5 -33q60 0 105.5 49t53.5 97v286h110z" />
    <glyph glyph-name="ucircumflex" unicode="&#xfb;" horiz-adv-x="607" 
d="M202 612h-91l90 155h199l90 -155h-91l-98 104zM542 520v-520h-110v116q-10 -39 -56.5 -81t-113.5 -42q-88 0 -145 55.5t-57 169.5v302h110v-296q0 -70 28.5 -103t74.5 -33q60 0 105.5 49t53.5 97v286h110z" />
    <glyph glyph-name="udieresis" unicode="&#xfc;" horiz-adv-x="607" 
d="M236 591h-119v119h119v-119zM485 591h-119v119h119v-119zM542 520v-520h-110v116q-10 -39 -56.5 -81t-113.5 -42q-88 0 -145 55.5t-57 169.5v302h110v-296q0 -70 28.5 -103t74.5 -33q60 0 105.5 49t53.5 97v286h110z" />
    <glyph glyph-name="yacute" unicode="&#xfd;" horiz-adv-x="588" 
d="M345 622h-98l54 145h155zM563 520l-288 -710h-108l83 205l-220 505h109l163 -376l152 376h109z" />
    <glyph glyph-name="thorn" unicode="&#xfe;" horiz-adv-x="601" 
d="M331 526q43 0 85 -17t78.5 -48.5t59 -84t22.5 -116.5q0 -65 -22.5 -117.5t-59 -84t-78.5 -48.5t-85 -17h-2h-2q-53 0 -96.5 23t-56.5 53v-69h-4v-190h-110v710h4v180h110v-241q51 67 153 67h2h2zM169 260q0 -85 43 -128t103 -44q57 1 102 47t45 125q0 78 -45 124t-102 47
q-61 -1 -103.5 -43.5t-42.5 -127.5z" />
    <glyph glyph-name="ydieresis" unicode="&#xff;" horiz-adv-x="588" 
d="M237 591h-119v119h119v-119zM486 591h-119v119h119v-119zM563 520l-288 -710h-108l83 205l-220 505h109l163 -376l152 376h109z" />
    <glyph glyph-name="Amacron" unicode="&#x100;" horiz-adv-x="742" 
d="M557 785h-372v95h372v-95zM503 196h-264l-87 -196h-122l331 700h20l331 -700h-122zM461 292l-90 203l-90 -203h180z" />
    <glyph glyph-name="amacron" unicode="&#x101;" horiz-adv-x="612" 
d="M509 700v-95h-372v95h372zM442 0v84q-3 -33 -50 -62t-107 -29q-43 0 -85 17t-78.5 48.5t-59 84t-22.5 117.5q0 64 22.5 116.5t59 84t78.5 48.5t85 17q109 0 157 -73v67h110v-520h-110zM299 88q61 0 104.5 43.5t43.5 128.5q0 86 -43.5 128.5t-104.5 42.5q-58 0 -103.5 -46
t-45.5 -125t45.5 -125.5t103.5 -46.5z" />
    <glyph glyph-name="Abreve" unicode="&#x102;" horiz-adv-x="742" 
d="M370 768q-75 0 -124 56t-50 123h85q5 -33 29 -55.5t61 -22.5t60.5 22.5t28.5 55.5h85q-1 -69 -47.5 -124t-127.5 -55zM503 196h-264l-87 -196h-122l331 700h20l331 -700h-122zM461 292l-90 203l-90 -203h180z" />
    <glyph glyph-name="abreve" unicode="&#x103;" horiz-adv-x="612" 
d="M412 767h85q-1 -69 -47.5 -124t-127.5 -55q-75 0 -124 56t-50 123h85q5 -33 29 -55.5t61 -22.5t60.5 22.5t28.5 55.5zM442 0v84q-3 -33 -50 -62t-107 -29q-43 0 -85 17t-78.5 48.5t-59 84t-22.5 117.5q0 64 22.5 116.5t59 84t78.5 48.5t85 17q109 0 157 -73v67h110v-520
h-110zM299 88q61 0 104.5 43.5t43.5 128.5q0 86 -43.5 128.5t-104.5 42.5q-58 0 -103.5 -46t-45.5 -125t45.5 -125.5t103.5 -46.5z" />
    <glyph glyph-name="Aogonek" unicode="&#x104;" horiz-adv-x="742" 
d="M712 0h-20q-75 -29 -103 -51t-28 -51q0 -31 26.5 -44.5t54.5 -2.5l24 -49q-22 -12 -57 -13.5t-69 7.5t-58.5 33t-24.5 59q0 45 36 74t96 38h1l-87 196h-264l-87 -196h-122l331 700h20zM461 292l-90 203l-90 -203h180z" />
    <glyph glyph-name="aogonek" unicode="&#x105;" horiz-adv-x="612" 
d="M552 520v-520h-7q-75 -29 -103 -51t-28 -51q0 -31 26.5 -44.5t54.5 -2.5l24 -49q-22 -12 -57 -13.5t-69 7.5t-58.5 33t-24.5 59q0 45 36 74t96 38v84q-3 -33 -50 -62t-107 -29q-43 0 -85 17t-78.5 48.5t-59 84t-22.5 117.5q0 64 22.5 116.5t59 84t78.5 48.5t85 17
q109 0 157 -73v67h110zM299 88q61 0 104.5 43.5t43.5 128.5q0 86 -43.5 128.5t-104.5 42.5q-58 0 -103.5 -46t-45.5 -125t45.5 -125.5t103.5 -46.5z" />
    <glyph glyph-name="Cacute" unicode="&#x106;" horiz-adv-x="648" 
d="M407 802l111 145h-155l-54 -145h98zM389 102q83 0 148 63l71 -85q-95 -87 -221 -87q-87 0 -166 44.5t-130 127.5t-51 184q0 153 106 255.5t241 102.5q126 0 221 -87l-71 -85q-63 63 -148 63q-90 0 -158 -72t-68 -176t68 -176t158 -72z" />
    <glyph glyph-name="cacute" unicode="&#x107;" horiz-adv-x="551" 
d="M321 622l111 145h-155l-54 -145h98zM300 89q80 0 118 61l98 -41q-36 -56 -96 -86t-120 -30q-95 0 -177 71t-83 195q0 65 24.5 117.5t64 84t84 48.5t87.5 17q60 0 120 -30t96 -86l-98 -41q-38 61 -118 61q-59 0 -104.5 -45t-45.5 -126q0 -80 45.5 -125t104.5 -45z" />
    <glyph glyph-name="Cdotaccent" unicode="&#x10a;" horiz-adv-x="648" 
d="M420 937v-112h-112v112h112zM389 102q83 0 148 63l71 -85q-95 -87 -221 -87q-87 0 -166 44.5t-130 127.5t-51 184q0 153 106 255.5t241 102.5q126 0 221 -87l-71 -85q-63 63 -148 63q-90 0 -158 -72t-68 -176t68 -176t158 -72z" />
    <glyph glyph-name="cdotaccent" unicode="&#x10b;" horiz-adv-x="551" 
d="M334 757v-112h-112v112h112zM300 89q80 0 118 61l98 -41q-36 -56 -96 -86t-120 -30q-95 0 -177 71t-83 195q0 65 24.5 117.5t64 84t84 48.5t87.5 17q60 0 120 -30t96 -86l-98 -41q-38 61 -118 61q-59 0 -104.5 -45t-45.5 -126q0 -80 45.5 -125t104.5 -45z" />
    <glyph glyph-name="Ccaron" unicode="&#x10c;" horiz-adv-x="648" 
d="M553 957l-90 -155h-199l-90 155h91l99 -104l98 104h91zM389 102q83 0 148 63l71 -85q-95 -87 -221 -87q-87 0 -166 44.5t-130 127.5t-51 184q0 153 106 255.5t241 102.5q126 0 221 -87l-71 -85q-63 63 -148 63q-90 0 -158 -72t-68 -176t68 -176t158 -72z" />
    <glyph glyph-name="ccaron" unicode="&#x10d;" horiz-adv-x="551" 
d="M467 777l-90 -155h-199l-90 155h91l99 -104l98 104h91zM300 89q80 0 118 61l98 -41q-36 -56 -96 -86t-120 -30q-95 0 -177 71t-83 195q0 65 24.5 117.5t64 84t84 48.5t87.5 17q60 0 120 -30t96 -86l-98 -41q-38 61 -118 61q-59 0 -104.5 -45t-45.5 -126q0 -80 45.5 -125
t104.5 -45z" />
    <glyph glyph-name="Dcaron" unicode="&#x10e;" horiz-adv-x="705" 
d="M255 802l-90 155h91l99 -104l98 104h91l-90 -155h-199zM75 700h225q144 0 247 -102t103 -246q0 -147 -102.5 -249.5t-247.5 -102.5h-225v700zM188 96h112q106 0 171.5 73t65.5 183q0 108 -66 180t-171 72h-112v-508z" />
    <glyph glyph-name="dcaron" unicode="&#x10f;" horiz-adv-x="874" 
d="M437 700h110v-700h-110v84q-3 -33 -50 -62t-107 -29q-43 0 -85 17t-78.5 48.5t-59 84t-22.5 117.5q0 64 22.5 116.5t59 84t78.5 48.5t85 17q109 0 157 -73v247zM814 700l-111 -145h-98l54 145h155zM294 88q61 0 104.5 43.5t43.5 128.5q0 86 -43.5 128.5t-104.5 42.5
q-58 0 -103.5 -46t-45.5 -125t45.5 -125.5t103.5 -46.5z" />
    <glyph glyph-name="Dcroat" unicode="&#x110;" horiz-adv-x="792" 
d="M148 700h225q144 0 247 -102t103 -246q0 -147 -102.5 -249.5t-247.5 -102.5h-225v300h-73v90h73v310zM261 96h112q106 0 171.5 73t65.5 183q0 108 -66 180t-171 72h-112v-214h124v-90h-124v-204z" />
    <glyph glyph-name="dcroat" unicode="&#x111;" horiz-adv-x="682" 
d="M622 541h-75v-541h-110v84q-3 -33 -50 -62t-107 -29q-43 0 -85 17t-78.5 48.5t-59 84t-22.5 117.5q0 64 22.5 116.5t59 84t78.5 48.5t85 17q109 0 157 -73v88h-187v95h187v64h110v-64h75v-95zM294 88q61 0 104.5 43.5t43.5 128.5q0 86 -43.5 128.5t-104.5 42.5
q-58 0 -103.5 -46t-45.5 -125t45.5 -125.5t103.5 -46.5z" />
    <glyph glyph-name="Emacron" unicode="&#x112;" 
d="M481 785h-372v95h372v-95zM524 99v-99h-469v700h459v-99h-343v-200h243v-99h-243v-203h353z" />
    <glyph glyph-name="emacron" unicode="&#x113;" horiz-adv-x="595" 
d="M484 700v-95h-372v95h372zM552 217h-398q8 -60 52 -94t94 -34q72 0 116 47l93 -50q-39 -46 -94.5 -69.5t-114.5 -23.5q-43 0 -87 16.5t-83.5 48t-64.5 84t-25 117.5q0 64 25 117t64.5 84.5t83.5 48.5t87 17q58 0 114.5 -28t98.5 -91t42 -148q0 -23 -3 -42zM155 308h287
q-10 58 -52 90t-90 32q-49 0 -92 -32t-53 -90z" />
    <glyph glyph-name="Edotaccent" unicode="&#x116;" 
d="M351 825h-112v112h112v-112zM524 99v-99h-469v700h459v-99h-343v-200h243v-99h-243v-203h353z" />
    <glyph glyph-name="edotaccent" unicode="&#x117;" horiz-adv-x="595" 
d="M354 757v-112h-112v112h112zM552 217h-398q8 -60 52 -94t94 -34q72 0 116 47l93 -50q-39 -46 -94.5 -69.5t-114.5 -23.5q-43 0 -87 16.5t-83.5 48t-64.5 84t-25 117.5q0 64 25 117t64.5 84.5t83.5 48.5t87 17q58 0 114.5 -28t98.5 -91t42 -148q0 -23 -3 -42zM155 308h287
q-10 58 -52 90t-90 32q-49 0 -92 -32t-53 -90z" />
    <glyph glyph-name="Eogonek" unicode="&#x118;" 
d="M524 99v-99q-75 -29 -103 -51t-28 -51q0 -31 26.5 -44.5t54.5 -2.5l24 -49q-22 -12 -57 -13.5t-69 7.5t-58.5 33t-24.5 59q0 45 36 74t96 38h-366v700h459v-99h-343v-200h243v-99h-243v-203h353z" />
    <glyph glyph-name="eogonek" unicode="&#x119;" horiz-adv-x="595" 
d="M555 259q0 -23 -3 -42h-398q8 -60 52 -94t94 -34q72 0 116 47l93 -50q-56 -66 -146 -86h12q-75 -29 -103 -51t-28 -51q0 -31 26.5 -44.5t54.5 -2.5l24 -49q-22 -12 -57 -13.5t-69 7.5t-58.5 33t-24.5 59q0 42 32 70t85 39q-87 16 -152 84t-65 178q0 64 25 117t64.5 84.5
t83.5 48.5t87 17q58 0 114.5 -28t98.5 -91t42 -148zM155 308h287q-10 58 -52 90t-90 32q-49 0 -92 -32t-53 -90z" />
    <glyph glyph-name="Ecaron" unicode="&#x11a;" 
d="M195 802l-90 155h91l99 -104l98 104h91l-90 -155h-199zM524 99v-99h-469v700h459v-99h-343v-200h243v-99h-243v-203h353z" />
    <glyph glyph-name="ecaron" unicode="&#x11b;" horiz-adv-x="595" 
d="M487 777l-90 -155h-199l-90 155h91l99 -104l98 104h91zM552 217h-398q8 -60 52 -94t94 -34q72 0 116 47l93 -50q-39 -46 -94.5 -69.5t-114.5 -23.5q-43 0 -87 16.5t-83.5 48t-64.5 84t-25 117.5q0 64 25 117t64.5 84.5t83.5 48.5t87 17q58 0 114.5 -28t98.5 -91t42 -148
q0 -23 -3 -42zM155 308h287q-10 58 -52 90t-90 32q-49 0 -92 -32t-53 -90z" />
    <glyph glyph-name="Gbreve" unicode="&#x11e;" horiz-adv-x="754" 
d="M386 768q-75 0 -124 56t-50 123h85q5 -33 29 -55.5t61 -22.5t60.5 22.5t28.5 55.5h85q-1 -69 -47.5 -124t-127.5 -55zM466 342h238q0 -155 -91 -252t-226 -97q-87 0 -166 44.5t-130 127.5t-51 185t51 185t130 127.5t166 44.5q79 0 143.5 -26.5t102.5 -70.5l-74 -78
q-25 30 -70 48.5t-100 18.5q-89 0 -160.5 -72t-71.5 -176t72.5 -176.5t159.5 -72.5q64 0 114.5 37.5t73.5 102.5h-111v100z" />
    <glyph glyph-name="gbreve" unicode="&#x11f;" horiz-adv-x="592" 
d="M293 588q-75 0 -124 56t-50 123h85q5 -33 29 -55.5t61 -22.5t60.5 22.5t28.5 55.5h85q-1 -69 -47.5 -124t-127.5 -55zM547 520v-520q0 -55 -24 -96.5t-62 -64t-78 -33.5t-78 -11q-86 0 -154 41v96q67 -42 154 -42q59 0 95.5 30.5t36.5 79.5v84q-3 -33 -50 -62t-107 -29
q-43 0 -85 17t-78.5 48.5t-59 84t-22.5 117.5q0 64 22.5 116.5t59 84t78.5 48.5t85 17q109 0 157 -73v67h110zM294 88q61 0 104.5 43.5t43.5 128.5q0 86 -43.5 128.5t-104.5 42.5q-58 0 -103.5 -46t-45.5 -125t45.5 -125.5t103.5 -46.5z" />
    <glyph glyph-name="Gdotaccent" unicode="&#x120;" horiz-adv-x="754" 
d="M443 825h-112v112h112v-112zM466 342h238q0 -155 -91 -252t-226 -97q-87 0 -166 44.5t-130 127.5t-51 185t51 185t130 127.5t166 44.5q79 0 143.5 -26.5t102.5 -70.5l-74 -78q-25 30 -70 48.5t-100 18.5q-89 0 -160.5 -72t-71.5 -176t72.5 -176.5t159.5 -72.5
q64 0 114.5 37.5t73.5 102.5h-111v100z" />
    <glyph glyph-name="gdotaccent" unicode="&#x121;" horiz-adv-x="592" 
d="M350 645h-112v112h112v-112zM547 520v-520q0 -55 -24 -96.5t-62 -64t-78 -33.5t-78 -11q-86 0 -154 41v96q67 -42 154 -42q59 0 95.5 30.5t36.5 79.5v84q-3 -33 -50 -62t-107 -29q-43 0 -85 17t-78.5 48.5t-59 84t-22.5 117.5q0 64 22.5 116.5t59 84t78.5 48.5t85 17
q109 0 157 -73v67h110zM294 88q61 0 104.5 43.5t43.5 128.5q0 86 -43.5 128.5t-104.5 42.5q-58 0 -103.5 -46t-45.5 -125t45.5 -125.5t103.5 -46.5z" />
    <glyph glyph-name="Gcommaaccent" unicode="&#x122;" horiz-adv-x="754" 
d="M466 342h238q0 -155 -91 -252t-226 -97q-87 0 -166 44.5t-130 127.5t-51 185t51 185t130 127.5t166 44.5q79 0 143.5 -26.5t102.5 -70.5l-74 -78q-25 30 -70 48.5t-100 18.5q-89 0 -160.5 -72t-71.5 -176t72.5 -176.5t159.5 -72.5q64 0 114.5 37.5t73.5 102.5h-111v100z
M285 -60h148l-84 -155h-99z" />
    <glyph glyph-name="gcommaaccent" unicode="&#x123;" horiz-adv-x="616" 
d="M362 578h-148l84 155h99zM547 520v-520q0 -55 -24 -96.5t-62 -64t-78 -33.5t-78 -11q-86 0 -154 41v96q67 -42 154 -42q59 0 95.5 30.5t36.5 79.5v84q-3 -33 -50 -62t-107 -29q-43 0 -85 17t-78.5 48.5t-59 84t-22.5 117.5q0 64 22.5 116.5t59 84t78.5 48.5t85 17
q109 0 157 -73v67h110zM294 88q61 0 104.5 43.5t43.5 128.5q0 86 -43.5 128.5t-104.5 42.5q-58 0 -103.5 -46t-45.5 -125t45.5 -125.5t103.5 -46.5z" />
    <glyph glyph-name="Hbar" unicode="&#x126;" horiz-adv-x="718" 
d="M638 700v-700h-113v298h-342v-298h-113v700h113v-140h342v140h113zM525 395v75h-342v-75h342z" />
    <glyph glyph-name="hbar" unicode="&#x127;" horiz-adv-x="657" 
d="M379 525q94 0 154.5 -56.5t60.5 -171.5v-297h-110v291q0 139 -117 139q-61 0 -102.5 -46.5t-48.5 -87.5v-296h-110v524h-61v90h61v86h110v-86h99v-90h-99v-115q5 36 49 76t114 40z" />
    <glyph glyph-name="Imacron" unicode="&#x12a;" horiz-adv-x="245" 
d="M307 880v-95h-372v95h372zM65 0v700h115v-700h-115z" />
    <glyph glyph-name="imacron" unicode="&#x12b;" horiz-adv-x="260" 
d="M316 700v-95h-372v95h372zM185 520v-520h-110v520h110z" />
    <glyph glyph-name="Iogonek" unicode="&#x12e;" horiz-adv-x="245" 
d="M180 700v-700h-4q-75 -29 -103 -51t-28 -51q0 -31 26.5 -44.5t54.5 -2.5l24 -49q-22 -12 -57 -13.5t-69 7.5t-58.5 33t-24.5 59q0 45 36 74t96 38h-8v700h115z" />
    <glyph glyph-name="iogonek" unicode="&#x12f;" horiz-adv-x="260" 
d="M186 757v-112h-112v112h112zM75 520h110v-520q-75 -29 -103 -51t-28 -51q0 -31 26.5 -44.5t54.5 -2.5l24 -49q-22 -12 -57 -13.5t-69 7.5t-58.5 33t-24.5 59q0 45 36 74t96 38h-7v520z" />
    <glyph glyph-name="Idotaccent" unicode="&#x130;" horiz-adv-x="245" 
d="M177 937v-112h-112v112h112zM65 0v700h115v-700h-115z" />
    <glyph glyph-name="dotlessi" unicode="&#x131;" horiz-adv-x="260" 
d="M185 520v-520h-110v520h110z" />
    <glyph glyph-name="IJ" unicode="&#x132;" horiz-adv-x="795" 
d="M65 0v700h115v-700h-115zM290 75l73 73q44 -55 121 -55q31 0 52.5 6.5t42 25.5t31 59t10.5 102v414h110v-435q0 -140 -69.5 -206t-175.5 -66q-124 0 -195 82z" />
    <glyph glyph-name="ij" unicode="&#x133;" horiz-adv-x="495" 
d="M177 700v-100h-112v100h112zM425 700v-100h-110v100h110zM177 520v-520h-112v520h112zM182 -180v108q67 -23 89 -23q44 0 44 70v545h110v-575q0 -150 -141 -150q-44 0 -102 25z" />
    <glyph glyph-name="Kcommaaccent" unicode="&#x136;" horiz-adv-x="742" 
d="M702 0h-135l-250 277l-133 -157v-120h-114v700h114v-424l356 424h134l-292 -345zM284 -60h148l-84 -155h-99z" />
    <glyph glyph-name="kcommaaccent" unicode="&#x137;" horiz-adv-x="598" 
d="M568 0h-135l-205 211l-55 -57v-154h-110v700h110v-403l210 223h139l-229 -240zM211 -60h148l-84 -155h-99z" />
    <glyph glyph-name="Lacute" unicode="&#x139;" horiz-adv-x="623" 
d="M180 800h-98l54 145h155zM528 95v-95h-458v700h113v-605h345z" />
    <glyph glyph-name="lacute" unicode="&#x13a;" horiz-adv-x="227" 
d="M154 802l111 145h-155l-54 -145h98zM55 0v700h112v-700h-112z" />
    <glyph glyph-name="Lcommaaccent" unicode="&#x13b;" horiz-adv-x="578" 
d="M528 95v-95h-458v700h113v-605h345zM220 -60h148l-84 -155h-99z" />
    <glyph glyph-name="lcommaaccent" unicode="&#x13c;" horiz-adv-x="227" 
d="M55 0v700h112v-700h-112zM88 -215l84 155h-148l-35 -155h99z" />
    <glyph glyph-name="Lcaron" unicode="&#x13d;" horiz-adv-x="623" 
d="M528 95v-95h-458v700h113v-605h345zM383 545h-99l35 155h148z" />
    <glyph glyph-name="lcaron" unicode="&#x13e;" horiz-adv-x="469" 
d="M55 0v700h112v-700h-112zM335 545l84 155h-148l-35 -155h99z" />
    <glyph glyph-name="Ldot" unicode="&#x13f;" horiz-adv-x="578" 
d="M528 95v-95h-458v700h113v-605h345zM435 306h-124v123h124v-123z" />
    <glyph glyph-name="ldot" unicode="&#x140;" horiz-adv-x="423" 
d="M55 0v700h112v-700h-112zM363 427v-123h-124v123h124z" />
    <glyph glyph-name="Lslash" unicode="&#x141;" horiz-adv-x="679" 
d="M584 95v-95h-458v225l-71 -75v116l71 75v359h113v-240l93 98h1v-115l-94 -99v-249h345z" />
    <glyph glyph-name="lslash" unicode="&#x142;" horiz-adv-x="391" 
d="M326 435l-83 -87v-348h-112v230l-66 -70v116l66 70v354h112v-236l82 86h1v-115z" />
    <glyph glyph-name="Nacute" unicode="&#x143;" horiz-adv-x="691" 
d="M389 802l111 145h-155l-54 -145h98zM621 0h-12l-424 434v-434h-115v700h11l425 -434v434h115v-700z" />
    <glyph glyph-name="nacute" unicode="&#x144;" horiz-adv-x="603" 
d="M346 622h-98l54 145h155zM333 525q94 0 154.5 -56.5t60.5 -171.5v-297h-110v291q0 139 -117 139q-61 0 -102.5 -46.5t-48.5 -87.5v-296h-110v520h110v-111q5 36 49 76t114 40z" />
    <glyph glyph-name="Ncommaaccent" unicode="&#x145;" horiz-adv-x="691" 
d="M621 0h-12l-424 434v-434h-115v700h11l425 -434v434h115v-700zM323 -215l84 155h-148l-35 -155h99z" />
    <glyph glyph-name="ncommaaccent" unicode="&#x146;" horiz-adv-x="603" 
d="M333 525q94 0 154.5 -56.5t60.5 -171.5v-297h-110v291q0 139 -117 139q-61 0 -102.5 -46.5t-48.5 -87.5v-296h-110v520h110v-111q5 36 49 76t114 40zM216 -60h148l-84 -155h-99z" />
    <glyph glyph-name="Ncaron" unicode="&#x147;" horiz-adv-x="691" 
d="M535 957l-90 -155h-199l-90 155h91l99 -104l98 104h91zM621 0h-12l-424 434v-434h-115v700h11l425 -434v434h115v-700z" />
    <glyph glyph-name="ncaron" unicode="&#x148;" horiz-adv-x="603" 
d="M203 622l-90 155h91l99 -104l98 104h91l-90 -155h-199zM333 525q94 0 154.5 -56.5t60.5 -171.5v-297h-110v291q0 139 -117 139q-61 0 -102.5 -46.5t-48.5 -87.5v-296h-110v520h110v-111q5 36 49 76t114 40z" />
    <glyph glyph-name="Eng" unicode="&#x14a;" horiz-adv-x="691" 
d="M621 700v-633q0 -140 -69.5 -206t-175.5 -66q-124 0 -195 82l73 73q44 -55 121 -55q31 0 52.5 6.5t42 25.5t31 59t10.5 102v12l-326 334v-434h-115v700h11l425 -434v434h115z" />
    <glyph glyph-name="eng" unicode="&#x14b;" horiz-adv-x="603" 
d="M333 525q94 0 154.5 -56.5t60.5 -171.5v-352q0 -150 -141 -150q-44 0 -102 25v108q67 -23 89 -23q44 0 44 70v316q0 139 -117 139q-61 0 -102.5 -46.5t-48.5 -87.5v-296h-110v520h110v-111q5 36 49 76t114 40z" />
    <glyph glyph-name="Omacron" unicode="&#x14c;" horiz-adv-x="794" 
d="M583 880v-95h-372v95h372zM397 707q138 0 242.5 -102t104.5 -255t-104.5 -255t-242.5 -102q-87 0 -166 44.5t-130 127.5t-51 185t51 185t130 127.5t166 44.5zM619 350q0 110 -63 179t-158 69q-91 0 -156.5 -69.5t-65.5 -178.5t65.5 -178.5t156.5 -69.5q95 0 158 69
t63 179z" />
    <glyph glyph-name="omacron" unicode="&#x14d;" horiz-adv-x="600" 
d="M486 700v-95h-372v95h372zM300 526q43 0 87 -17t83.5 -48.5t64.5 -84.5t25 -117q0 -65 -25 -117.5t-64.5 -84t-83.5 -48t-87 -16.5t-87 16.5t-83.5 48t-64.5 84t-25 117.5q0 64 25 117t64.5 84.5t83.5 48.5t87 17zM450 259q0 81 -46 126t-104 45t-104 -45t-46 -126
q0 -80 46 -125t104 -45t104 45t46 125z" />
    <glyph glyph-name="Ohungarumlaut" unicode="&#x150;" horiz-adv-x="794" 
d="M368 802l111 145h-155l-54 -145h98zM553 802l111 145h-155l-54 -145h98zM397 707q138 0 242.5 -102t104.5 -255t-104.5 -255t-242.5 -102q-87 0 -166 44.5t-130 127.5t-51 185t51 185t130 127.5t166 44.5zM619 350q0 110 -63 179t-158 69q-91 0 -156.5 -69.5
t-65.5 -178.5t65.5 -178.5t156.5 -69.5q95 0 158 69t63 179z" />
    <glyph glyph-name="ohungarumlaut" unicode="&#x151;" horiz-adv-x="600" 
d="M271 622l111 145h-155l-54 -145h98zM456 622l111 145h-155l-54 -145h98zM300 526q43 0 87 -17t83.5 -48.5t64.5 -84.5t25 -117q0 -65 -25 -117.5t-64.5 -84t-83.5 -48t-87 -16.5t-87 16.5t-83.5 48t-64.5 84t-25 117.5q0 64 25 117t64.5 84.5t83.5 48.5t87 17zM450 259
q0 81 -46 126t-104 45t-104 -45t-46 -126q0 -80 46 -125t104 -45t104 45t46 125z" />
    <glyph glyph-name="OE" unicode="&#x152;" horiz-adv-x="1149" 
d="M1094 99v-99h-469v81q-99 -88 -228 -88q-87 0 -166 44.5t-130 127.5t-51 185t51 185t130 127.5t166 44.5q129 0 228 -88v81h459v-99h-343v-200h243v-99h-243v-203h353zM398 102q95 0 158 69t63 179t-63 179t-158 69q-91 0 -156.5 -69.5t-65.5 -178.5t65.5 -178.5
t156.5 -69.5z" />
    <glyph glyph-name="oe" unicode="&#x153;" horiz-adv-x="1005" 
d="M965 259q0 -23 -3 -42h-398q8 -60 52 -94t94 -34q72 0 116 47l93 -50q-39 -46 -94.5 -69.5t-114.5 -23.5q-54 0 -110 26t-95 74q-39 -48 -95 -74t-110 -26q-43 0 -87 16.5t-83.5 48t-64.5 84t-25 117.5q0 64 25 117t64.5 84.5t83.5 48.5t87 17q54 0 110 -26.5t95 -75.5
q39 49 95 75.5t110 26.5q58 0 114.5 -28t98.5 -91t42 -148zM300 89q58 0 104 45t46 125q0 81 -46 126t-104 45t-104 -45t-46 -126q0 -80 46 -125t104 -45zM565 308h287q-10 58 -52 90t-90 32q-49 0 -92 -32t-53 -90z" />
    <glyph glyph-name="Racute" unicode="&#x154;" horiz-adv-x="655" 
d="M336 802h-98l54 145h155zM464 0l-213 272h-68v-272h-113v700h245q115 0 185 -60.5t70 -153.5q0 -81 -52.5 -137.5t-142.5 -71.5l230 -277h-141zM183 369h127q150 0 150 117q0 59 -40 88t-110 29h-127v-234z" />
    <glyph glyph-name="racute" unicode="&#x155;" horiz-adv-x="427" 
d="M255 622h-98l54 145h155zM353 525q23 0 49 -3v-101q-21 1 -50 1q-65 0 -118.5 -49.5t-63.5 -127.5v-245h-110v520h110v-163q9 71 58.5 119.5t124.5 48.5z" />
    <glyph glyph-name="Rcommaaccent" unicode="&#x156;" horiz-adv-x="655" 
d="M605 0h-141l-213 272h-68v-272h-113v700h245q115 0 185 -60.5t70 -153.5q0 -81 -52.5 -137.5t-142.5 -71.5zM183 369h127q150 0 150 117q0 59 -40 88t-110 29h-127v-234zM206 -60h148l-84 -155h-99z" />
    <glyph glyph-name="rcommaaccent" unicode="&#x157;" horiz-adv-x="427" 
d="M353 525q23 0 49 -3v-101q-21 1 -50 1q-65 0 -118.5 -49.5t-63.5 -127.5v-245h-110v520h110v-163q9 71 58.5 119.5t124.5 48.5zM26 -60h148l-84 -155h-99z" />
    <glyph glyph-name="Rcaron" unicode="&#x158;" horiz-adv-x="655" 
d="M193 802l-90 155h91l99 -104l98 104h91l-90 -155h-199zM464 0l-213 272h-68v-272h-113v700h245q115 0 185 -60.5t70 -153.5q0 -81 -52.5 -137.5t-142.5 -71.5l230 -277h-141zM183 369h127q150 0 150 117q0 59 -40 88t-110 29h-127v-234z" />
    <glyph glyph-name="rcaron" unicode="&#x159;" horiz-adv-x="427" 
d="M112 622l-90 155h91l99 -104l98 104h91l-90 -155h-199zM353 525q23 0 49 -3v-101q-21 1 -50 1q-65 0 -118.5 -49.5t-63.5 -127.5v-245h-110v520h110v-163q9 71 58.5 119.5t124.5 48.5z" />
    <glyph glyph-name="Sacute" unicode="&#x15a;" 
d="M336 802l111 145h-155l-54 -145h98zM278 428l47 -16q110 -38 162 -91t52 -130q0 -91 -77.5 -144.5t-171.5 -53.5q-80 0 -149 45.5t-96 118.5l95 37q16 -44 60 -74t90 -30q56 0 96.5 26t40.5 75q0 45 -30.5 72.5t-93.5 48.5l-52 17q-88 29 -136.5 75.5t-48.5 120.5
q0 79 67 130.5t158 51.5q85 0 147 -42.5t88 -106.5l-101 -22q-13 33 -49 53.5t-85 20.5q-48 0 -80.5 -23.5t-32.5 -61.5q0 -35 23 -56t77 -41z" />
    <glyph glyph-name="sacute" unicode="&#x15b;" horiz-adv-x="487" 
d="M283 622l111 145h-155l-54 -145h98zM225 321l72 -20q74 -20 113.5 -53t39.5 -100q0 -69 -63.5 -112t-142.5 -43q-71 0 -131 36.5t-76 98.5l97 29q11 -33 43 -51t67 -18q37 0 64 17t27 41q0 46 -62 64l-72 20q-75 21 -111 56t-36 93q0 64 57.5 105.5t130.5 41.5
q137 0 193 -121l-102 -30q-29 57 -91 57q-33 0 -53 -14.5t-20 -37.5q0 -44 56 -59z" />
    <glyph glyph-name="Scedilla" unicode="&#x15e;" 
d="M539 191q0 -78 -57.5 -128.5t-139.5 -64.5l-46 -49q38 -6 63.5 -31.5t25.5 -61.5q0 -54 -55 -77.5t-138 -14.5l14 36q92 3 92 56q0 26 -22 36t-47 -14l-27 46l44 73q-68 11 -122.5 54.5t-78.5 105.5l95 37q16 -44 60 -74t90 -30q56 0 96.5 26t40.5 75q0 45 -30.5 72.5
t-93.5 48.5l-52 17q-88 29 -136.5 75.5t-48.5 120.5q0 79 67 130.5t158 51.5q85 0 147 -42.5t88 -106.5l-101 -22q-13 33 -49 53.5t-85 20.5q-48 0 -80.5 -23.5t-32.5 -61.5q0 -35 23 -56t77 -41l47 -16q110 -38 162 -91t52 -130z" />
    <glyph glyph-name="scedilla" unicode="&#x15f;" horiz-adv-x="487" 
d="M450 148q0 -57 -43.5 -96t-107.5 -53l-47 -50q38 -6 63.5 -31.5t25.5 -61.5q0 -54 -55 -77.5t-138 -14.5l14 36q92 3 92 56q0 26 -22 36t-47 -14l-27 46l43 73q-59 9 -104.5 43.5t-59.5 87.5l97 29q11 -33 43 -51t67 -18q37 0 64 17t27 41q0 46 -62 64l-72 20
q-75 21 -111 56t-36 93q0 64 57.5 105.5t130.5 41.5q137 0 193 -121l-102 -30q-29 57 -91 57q-33 0 -53 -14.5t-20 -37.5q0 -44 56 -59l72 -20q74 -20 113.5 -53t39.5 -100z" />
    <glyph glyph-name="Scaron" unicode="&#x160;" 
d="M482 957l-90 -155h-199l-90 155h91l99 -104l98 104h91zM278 428l47 -16q110 -38 162 -91t52 -130q0 -91 -77.5 -144.5t-171.5 -53.5q-80 0 -149 45.5t-96 118.5l95 37q16 -44 60 -74t90 -30q56 0 96.5 26t40.5 75q0 45 -30.5 72.5t-93.5 48.5l-52 17q-88 29 -136.5 75.5
t-48.5 120.5q0 79 67 130.5t158 51.5q85 0 147 -42.5t88 -106.5l-101 -22q-13 33 -49 53.5t-85 20.5q-48 0 -80.5 -23.5t-32.5 -61.5q0 -35 23 -56t77 -41z" />
    <glyph glyph-name="scaron" unicode="&#x161;" horiz-adv-x="487" 
d="M429 777l-90 -155h-199l-90 155h91l99 -104l98 104h91zM225 321l72 -20q74 -20 113.5 -53t39.5 -100q0 -69 -63.5 -112t-142.5 -43q-71 0 -131 36.5t-76 98.5l97 29q11 -33 43 -51t67 -18q37 0 64 17t27 41q0 46 -62 64l-72 20q-75 21 -111 56t-36 93q0 64 57.5 105.5
t130.5 41.5q137 0 193 -121l-102 -30q-29 57 -91 57q-33 0 -53 -14.5t-20 -37.5q0 -44 56 -59z" />
    <glyph glyph-name="Tcedilla" unicode="&#x162;" horiz-adv-x="648" 
d="M376 0l-49 -52q38 -6 63.5 -31.5t25.5 -61.5q0 -54 -55 -77.5t-138 -14.5l14 36q92 3 92 56q0 26 -22 36t-47 -14l-27 46l46 77h-14v598h-205v102h528v-102h-204v-598h-8z" />
    <glyph glyph-name="tcedilla" unicode="&#x163;" horiz-adv-x="365" 
d="M230 -6h-2l-42 -45q38 -6 63.5 -31.5t25.5 -61.5q0 -54 -55 -77.5t-138 -14.5l14 36q92 3 92 56q0 26 -22 36t-47 -14l-27 46l46 77h39q-72 22 -72 133v291h-70v95h70v90h110v-90h109v-95h-109v-287q0 -49 42 -49q34 0 68 14v-91q-36 -18 -95 -18z" />
    <glyph glyph-name="Tcaron" unicode="&#x164;" horiz-adv-x="648" 
d="M224 802l-90 155h91l99 -104l98 104h91l-90 -155h-199zM588 598h-204v-598h-119v598h-205v102h528v-102z" />
    <glyph glyph-name="tcaron" unicode="&#x165;" horiz-adv-x="486" 
d="M456 700l-111 -145h-98l54 145h155zM215 425v-287q0 -49 42 -49q34 0 68 14v-91q-36 -18 -95 -18q-58 0 -91.5 30t-33.5 110v291h-70v95h70v90h110v-90h109v-95h-109z" />
    <glyph glyph-name="Tbar" unicode="&#x166;" horiz-adv-x="648" 
d="M384 598v-78h126v-95h-126v-425h-119v425h-127v95h127v78h-205v102h528v-102h-204z" />
    <glyph glyph-name="tbar" unicode="&#x167;" horiz-adv-x="410" 
d="M282 89q34 0 68 14v-91q-36 -18 -95 -18q-58 0 -91.5 30t-33.5 110v125h-70v95h70v71h-70v95h70v90h110v-90h109v-95h-109v-71h108v-95h-108v-121q0 -49 42 -49z" />
    <glyph glyph-name="Umacron" unicode="&#x16a;" horiz-adv-x="686" 
d="M529 880v-95h-372v95h372zM621 700v-445q0 -118 -81 -190t-197 -72q-117 0 -197.5 72t-80.5 190v445h110v-444q0 -83 47.5 -125.5t120.5 -42.5t120.5 42.5t47.5 125.5v444h110z" />
    <glyph glyph-name="umacron" unicode="&#x16b;" horiz-adv-x="607" 
d="M487 605h-372v95h372v-95zM542 520v-520h-110v116q-10 -39 -56.5 -81t-113.5 -42q-88 0 -145 55.5t-57 169.5v302h110v-296q0 -70 28.5 -103t74.5 -33q60 0 105.5 49t53.5 97v286h110z" />
    <glyph glyph-name="Ubreve" unicode="&#x16c;" horiz-adv-x="686" 
d="M432 947h85q-1 -69 -47.5 -124t-127.5 -55q-75 0 -124 56t-50 123h85q5 -33 29 -55.5t61 -22.5t60.5 22.5t28.5 55.5zM621 700v-445q0 -118 -81 -190t-197 -72q-117 0 -197.5 72t-80.5 190v445h110v-444q0 -83 47.5 -125.5t120.5 -42.5t120.5 42.5t47.5 125.5v444h110z
" />
    <glyph glyph-name="ubreve" unicode="&#x16d;" horiz-adv-x="607" 
d="M300 588q-75 0 -124 56t-50 123h85q5 -33 29 -55.5t61 -22.5t60.5 22.5t28.5 55.5h85q-1 -69 -47.5 -124t-127.5 -55zM542 520v-520h-110v116q-10 -39 -56.5 -81t-113.5 -42q-88 0 -145 55.5t-57 169.5v302h110v-296q0 -70 28.5 -103t74.5 -33q60 0 105.5 49t53.5 97v286
h110z" />
    <glyph glyph-name="Uring" unicode="&#x16e;" horiz-adv-x="686" 
d="M344 779q-43 0 -73 29.5t-30 70.5q0 42 30 71.5t73 29.5q41 0 70.5 -30t29.5 -71t-30 -70.5t-70 -29.5zM342 849q13 0 22.5 9t9.5 22t-9.5 22.5t-22.5 9.5t-22 -9.5t-9 -22.5t9 -22t22 -9zM621 700v-445q0 -118 -81 -190t-197 -72q-117 0 -197.5 72t-80.5 190v445h110
v-444q0 -83 47.5 -125.5t120.5 -42.5t120.5 42.5t47.5 125.5v444h110z" />
    <glyph glyph-name="uring" unicode="&#x16f;" horiz-adv-x="607" 
d="M302 599q-43 0 -73 29.5t-30 70.5q0 42 30 71.5t73 29.5q41 0 70.5 -30t29.5 -71t-30 -70.5t-70 -29.5zM300 732q-13 0 -22 -9.5t-9 -22.5t9 -22t22 -9t22.5 9t9.5 22t-9.5 22.5t-22.5 9.5zM542 520v-520h-110v116q-10 -39 -56.5 -81t-113.5 -42q-88 0 -145 55.5
t-57 169.5v302h110v-296q0 -70 28.5 -103t74.5 -33q60 0 105.5 49t53.5 97v286h110z" />
    <glyph glyph-name="Uhungarumlaut" unicode="&#x170;" horiz-adv-x="686" 
d="M314 802l111 145h-155l-54 -145h98zM499 802l111 145h-155l-54 -145h98zM621 700v-445q0 -118 -81 -190t-197 -72q-117 0 -197.5 72t-80.5 190v445h110v-444q0 -83 47.5 -125.5t120.5 -42.5t120.5 42.5t47.5 125.5v444h110z" />
    <glyph glyph-name="uhungarumlaut" unicode="&#x171;" horiz-adv-x="607" 
d="M272 622h-98l54 145h155zM359 622l54 145h155l-111 -145h-98zM432 520h110v-520h-110v116q-10 -39 -56.5 -81t-113.5 -42q-88 0 -145 55.5t-57 169.5v302h110v-296q0 -70 28.5 -103t74.5 -33q60 0 105.5 49t53.5 97v286z" />
    <glyph glyph-name="Uogonek" unicode="&#x172;" horiz-adv-x="686" 
d="M621 700v-445q0 -101 -60.5 -169t-155.5 -87q-73 -28 -100.5 -50t-27.5 -51q0 -31 26.5 -44.5t54.5 -2.5l24 -49q-22 -12 -57 -13.5t-69 7.5t-58.5 33t-24.5 59q0 42 32 70t85 39q-99 16 -162 85t-63 173v445h110v-444q0 -83 47.5 -125.5t120.5 -42.5t120.5 42.5
t47.5 125.5v444h110z" />
    <glyph glyph-name="uogonek" unicode="&#x173;" horiz-adv-x="607" 
d="M542 520v-520q-75 -29 -103 -51t-28 -51q0 -31 26.5 -44.5t54.5 -2.5l24 -49q-22 -12 -57 -13.5t-69 7.5t-58.5 33t-24.5 59q0 45 36 74t96 38h-7v116q-10 -39 -56.5 -81t-113.5 -42q-88 0 -145 55.5t-57 169.5v302h110v-296q0 -70 28.5 -103t74.5 -33q60 0 105.5 49
t53.5 97v286h110z" />
    <glyph glyph-name="Wcircumflex" unicode="&#x174;" horiz-adv-x="1081" 
d="M541 896l-99 -104h-91l90 155h199l90 -155h-91zM772 0h-11l-220 478l-221 -478h-11l-269 700h121l163 -447l206 447h21l207 -447l162 447h121z" />
    <glyph glyph-name="wcircumflex" unicode="&#x175;" horiz-adv-x="902" 
d="M451 716l-99 -104h-91l90 155h199l90 -155h-91zM637 0h-13l-173 339l-173 -339h-13l-235 520h111l139 -313l163 313h16l163 -313l139 313h111z" />
    <glyph glyph-name="Ycircumflex" unicode="&#x176;" horiz-adv-x="716" 
d="M358 896l-99 -104h-91l90 155h199l90 -155h-91zM413 0h-110v323l-263 377h125l193 -279l193 279h125l-263 -377v-323z" />
    <glyph glyph-name="ycircumflex" unicode="&#x177;" horiz-adv-x="588" 
d="M203 612h-91l90 155h199l90 -155h-91l-98 104zM563 520l-288 -710h-108l83 205l-220 505h109l163 -376l152 376h109z" />
    <glyph glyph-name="Ydieresis" unicode="&#x178;" horiz-adv-x="716" 
d="M293 890v-119h-119v119h119zM542 890v-119h-119v119h119zM413 0h-110v323l-263 377h125l193 -279l193 279h125l-263 -377v-323z" />
    <glyph glyph-name="Zacute" unicode="&#x179;" horiz-adv-x="666" 
d="M376 802l111 145h-155l-54 -145h98zM631 0h-596l391 605h-365v95h566l-391 -605h395v-95z" />
    <glyph glyph-name="zacute" unicode="&#x17a;" horiz-adv-x="549" 
d="M318 622l111 145h-155l-54 -145h98zM504 95v-95h-469l279 425h-269v95h459l-279 -425h279z" />
    <glyph glyph-name="Zdotaccent" unicode="&#x17b;" horiz-adv-x="666" 
d="M389 937v-112h-112v112h112zM631 0h-596l391 605h-365v95h566l-391 -605h395v-95z" />
    <glyph glyph-name="zdotaccent" unicode="&#x17c;" horiz-adv-x="549" 
d="M331 757v-112h-112v112h112zM504 95v-95h-469l279 425h-269v95h459l-279 -425h279z" />
    <glyph glyph-name="Zcaron" unicode="&#x17d;" horiz-adv-x="666" 
d="M522 957l-90 -155h-199l-90 155h91l99 -104l98 104h91zM631 0h-596l391 605h-365v95h566l-391 -605h395v-95z" />
    <glyph glyph-name="zcaron" unicode="&#x17e;" horiz-adv-x="549" 
d="M464 777l-90 -155h-199l-90 155h91l99 -104l98 104h91zM504 95v-95h-469l279 425h-269v95h459l-279 -425h279z" />
    <glyph glyph-name="florin" unicode="&#x192;" horiz-adv-x="295" 
d="M280 700v-95q-44 0 -58.5 -19t-16.5 -66h75v-95h-75v-440q0 -175 -185 -175v95q47 0 61 22.5t14 77.5v420h-64v95h64v5q0 175 185 175z" />
    <glyph glyph-name="Acaron" unicode="&#x1cd;" horiz-adv-x="742" 
d="M271 802l-90 155h91l99 -104l98 104h91l-90 -155h-199zM503 196h-264l-87 -196h-122l331 700h20l331 -700h-122zM461 292l-90 203l-90 -203h180z" />
    <glyph glyph-name="acaron" unicode="&#x1ce;" horiz-adv-x="612" 
d="M512 777l-90 -155h-199l-90 155h91l99 -104l98 104h91zM442 0v84q-3 -33 -50 -62t-107 -29q-43 0 -85 17t-78.5 48.5t-59 84t-22.5 117.5q0 64 22.5 116.5t59 84t78.5 48.5t85 17q109 0 157 -73v67h110v-520h-110zM299 88q61 0 104.5 43.5t43.5 128.5q0 86 -43.5 128.5
t-104.5 42.5q-58 0 -103.5 -46t-45.5 -125t45.5 -125.5t103.5 -46.5z" />
    <glyph glyph-name="Icaron" unicode="&#x1cf;" horiz-adv-x="245" 
d="M310 957l-90 -155h-199l-90 155h91l99 -104l98 104h91zM65 0v700h115v-700h-115z" />
    <glyph glyph-name="icaron" unicode="&#x1d0;" horiz-adv-x="260" 
d="M319 777l-90 -155h-199l-90 155h91l99 -104l98 104h91zM185 520v-520h-110v520h110z" />
    <glyph glyph-name="Ocaron" unicode="&#x1d1;" horiz-adv-x="794" 
d="M586 957l-90 -155h-199l-90 155h91l99 -104l98 104h91zM397 707q138 0 242.5 -102t104.5 -255t-104.5 -255t-242.5 -102q-87 0 -166 44.5t-130 127.5t-51 185t51 185t130 127.5t166 44.5zM619 350q0 110 -63 179t-158 69q-91 0 -156.5 -69.5t-65.5 -178.5t65.5 -178.5
t156.5 -69.5q95 0 158 69t63 179z" />
    <glyph glyph-name="ocaron" unicode="&#x1d2;" horiz-adv-x="600" 
d="M489 777l-90 -155h-199l-90 155h91l99 -104l98 104h91zM300 526q43 0 87 -17t83.5 -48.5t64.5 -84.5t25 -117q0 -65 -25 -117.5t-64.5 -84t-83.5 -48t-87 -16.5t-87 16.5t-83.5 48t-64.5 84t-25 117.5q0 64 25 117t64.5 84.5t83.5 48.5t87 17zM450 259q0 81 -46 126
t-104 45t-104 -45t-46 -126q0 -80 46 -125t104 -45t104 45t46 125z" />
    <glyph glyph-name="Ucaron" unicode="&#x1d3;" horiz-adv-x="686" 
d="M532 957l-90 -155h-199l-90 155h91l99 -104l98 104h91zM621 700v-445q0 -118 -81 -190t-197 -72q-117 0 -197.5 72t-80.5 190v445h110v-444q0 -83 47.5 -125.5t120.5 -42.5t120.5 42.5t47.5 125.5v444h110z" />
    <glyph glyph-name="ucaron" unicode="&#x1d4;" horiz-adv-x="607" 
d="M201 622l-90 155h91l99 -104l98 104h91l-90 -155h-199zM542 520v-520h-110v116q-10 -39 -56.5 -81t-113.5 -42q-88 0 -145 55.5t-57 169.5v302h110v-296q0 -70 28.5 -103t74.5 -33q60 0 105.5 49t53.5 97v286h110z" />
    <glyph glyph-name="Oogonek" unicode="&#x1ea;" horiz-adv-x="794" 
d="M452 -2q-74 -29 -102 -51t-28 -51q0 -31 26.5 -44.5t54.5 -2.5l24 -49q-22 -12 -57 -13.5t-69 7.5t-58.5 33t-24.5 59q0 44 35 73t93 38q-121 20 -208.5 118t-87.5 235q0 102 51 185t130 127.5t166 44.5q138 0 242.5 -102t104.5 -255q0 -137 -85 -234.5t-207 -117.5z
M176 350q0 -109 65.5 -178.5t156.5 -69.5q95 0 158 69t63 179t-63 179t-158 69q-91 0 -156.5 -69.5t-65.5 -178.5z" />
    <glyph glyph-name="oogonek" unicode="&#x1eb;" horiz-adv-x="598" 
d="M348 -2q-71 -28 -98.5 -50t-27.5 -50q0 -31 26.5 -44.5t54.5 -2.5l24 -49q-22 -12 -57 -13.5t-69 7.5t-58.5 33t-24.5 59q0 44 35 73t93 38q-84 20 -145 87t-61 173q0 64 25 117t64.5 84.5t83.5 48.5t87 17t87 -17t83.5 -48.5t64.5 -84.5t25 -117q0 -108 -63 -175.5
t-149 -85.5zM150 259q0 -80 46 -125t104 -45t104 45t46 125q0 81 -46 126t-104 45t-104 -45t-46 -126z" />
    <glyph glyph-name="Scommaaccent" unicode="&#x218;" 
d="M278 428l47 -16q110 -38 162 -91t52 -130q0 -91 -77.5 -144.5t-171.5 -53.5q-80 0 -149 45.5t-96 118.5l95 37q16 -44 60 -74t90 -30q56 0 96.5 26t40.5 75q0 45 -30.5 72.5t-93.5 48.5l-52 17q-88 29 -136.5 75.5t-48.5 120.5q0 79 67 130.5t158 51.5q85 0 147 -42.5
t88 -106.5l-101 -22q-13 33 -49 53.5t-85 20.5q-48 0 -80.5 -23.5t-32.5 -61.5q0 -35 23 -56t77 -41zM270 -215l84 155h-148l-35 -155h99z" />
    <glyph glyph-name="scommaaccent" unicode="&#x219;" horiz-adv-x="487" 
d="M225 321l72 -20q74 -20 113.5 -53t39.5 -100q0 -69 -63.5 -112t-142.5 -43q-71 0 -131 36.5t-76 98.5l97 29q11 -33 43 -51t67 -18q37 0 64 17t27 41q0 46 -62 64l-72 20q-75 21 -111 56t-36 93q0 64 57.5 105.5t130.5 41.5q137 0 193 -121l-102 -30q-29 57 -91 57
q-33 0 -53 -14.5t-20 -37.5q0 -44 56 -59zM226 -215l84 155h-148l-35 -155h99z" />
    <glyph glyph-name="uni021A" unicode="&#x21a;" horiz-adv-x="648" 
d="M588 700v-102h-204v-598h-119v598h-205v102h528zM237 -61h148l-84 -155h-99z" />
    <glyph glyph-name="uni021B" unicode="&#x21b;" horiz-adv-x="365" 
d="M257 89q34 0 68 14v-91q-36 -18 -95 -18q-58 0 -91.5 30t-33.5 110v291h-70v95h70v90h110v-90h109v-95h-109v-287q0 -49 42 -49zM96 -60h148l-84 -155h-99z" />
    <glyph glyph-name="dotlessj" unicode="&#x237;" horiz-adv-x="259" 
d="M-64 -180v108q67 -23 89 -23q44 0 44 70v545h110v-575q0 -150 -141 -150q-44 0 -102 25z" />
    <glyph glyph-name="circumflex" unicode="&#x2c6;" horiz-adv-x="379" 
d="M190 716l-99 -104h-91l90 155h199l90 -155h-91z" />
    <glyph glyph-name="caron" unicode="&#x2c7;" horiz-adv-x="379" 
d="M379 777l-90 -155h-199l-90 155h91l99 -104l98 104h91z" />
    <glyph glyph-name="breve" unicode="&#x2d8;" horiz-adv-x="349" 
d="M264 767h85q-1 -69 -47.5 -124t-127.5 -55q-75 0 -124 56t-50 123h85q5 -33 29 -55.5t61 -22.5t60.5 22.5t28.5 55.5z" />
    <glyph glyph-name="dotaccent" unicode="&#x2d9;" horiz-adv-x="122" 
d="M117 757v-112h-112v112h112z" />
    <glyph glyph-name="ring" unicode="&#x2da;" horiz-adv-x="203" 
d="M103 599q-43 0 -73 29.5t-30 70.5q0 42 30 71.5t73 29.5q41 0 70.5 -30t29.5 -71t-29.5 -70.5t-70.5 -29.5zM101 669q13 0 22.5 9t9.5 22t-9.5 22.5t-22.5 9.5t-22 -9.5t-9 -22.5t9 -22t22 -9z" />
    <glyph glyph-name="ogonek" unicode="&#x2db;" horiz-adv-x="235" 
d="M185 -149l24 -49q-22 -12 -57 -13.5t-69 7.5t-58.5 33t-24.5 59q0 45 36 74t96 38h103q-75 -29 -103 -51t-28 -51q0 -31 26.5 -44.5t54.5 -2.5z" />
    <glyph glyph-name="tilde" unicode="&#x2dc;" horiz-adv-x="376" 
d="M331 700h45q0 -51 -29.5 -84t-78.5 -33q-39 0 -95 38.5t-82 38.5q-20 0 -34 -12t-13 -27h-44q0 51 30 84t80 33q40 0 94.5 -34.5t77.5 -34.5q20 0 34.5 9.5t14.5 21.5z" />
    <glyph glyph-name="hungarumlaut" unicode="&#x2dd;" horiz-adv-x="394" 
d="M98 622l111 145h-155l-54 -145h98zM283 622l111 145h-155l-54 -145h98z" />
    <glyph glyph-name="uni0326" unicode="&#x326;" horiz-adv-x="0" 
d="M74 -215l84 155h-148l-35 -155h99z" />
    <glyph glyph-name="Delta" unicode="&#x394;" horiz-adv-x="733" 
d="M50 0l303 700h27l303 -700h-633zM367 520l-177 -425h353z" />
    <glyph glyph-name="Omega" unicode="&#x3a9;" horiz-adv-x="794" 
d="M744 356q0 -144 -115 -251h90v-105h-220v136l36 28q97 77 97 192q0 109 -70 176t-165 67t-164.5 -67t-69.5 -176q0 -116 96 -192l36 -28v-136h-220v105h90q-115 107 -115 251q0 99 51 181t130 126t166 44t166 -44t130 -126t51 -181z" />
    <glyph glyph-name="mu" unicode="&#x3bc;" horiz-adv-x="607" 
d="M542 520v-520h-110v116q-10 -39 -56.5 -81t-113.5 -42q-50 0 -92 18v-201h-110v710h110v-296q0 -70 28.5 -103t74.5 -33q60 0 105.5 49t53.5 97v286h110z" />
    <glyph glyph-name="pi" unicode="&#x3c0;" horiz-adv-x="703" 
d="M590 89q32 0 68 18v-95q-36 -18 -98 -18q-48 0 -85 24t-37 76v331h-178v-425h-110v425h-100v95h597v-95h-99v-281q0 -33 9.5 -44t32.5 -11z" />
    <glyph glyph-name="uni0401" unicode="&#x401;" 
d="M230 771h-119v119h119v-119zM479 771h-119v119h119v-119zM524 99v-99h-469v700h459v-99h-343v-200h243v-99h-243v-203h353z" />
    <glyph glyph-name="uni0404" unicode="&#x404;" horiz-adv-x="648" 
d="M389 102q83 0 148 63l71 -85q-95 -87 -221 -87q-87 0 -166 44.5t-130 127.5t-51 184q0 153 106 255.5t241 102.5q126 0 221 -87l-71 -85q-63 63 -148 63q-79 0 -142.5 -56.5t-79.5 -143.5h151v-95h-151q16 -88 79 -144.5t143 -56.5z" />
    <glyph glyph-name="uni0407" unicode="&#x407;" horiz-adv-x="245" 
d="M56 890v-119h-119v119h119zM305 890v-119h-119v119h119zM65 0v700h115v-700h-115z" />
    <glyph glyph-name="uni0410" unicode="&#x410;" horiz-adv-x="742" 
d="M503 196h-264l-87 -196h-122l331 700h20l331 -700h-122zM461 292l-90 203l-90 -203h180z" />
    <glyph glyph-name="uni0411" unicode="&#x411;" horiz-adv-x="662" 
d="M183 428h132q116 0 185.5 -59.5t69.5 -154.5q0 -93 -70 -153.5t-185 -60.5h-245v700h421v-95h-308v-177zM183 97h127q70 0 110 29t40 88q0 117 -150 117h-127v-234z" />
    <glyph glyph-name="uni0412" unicode="&#x412;" horiz-adv-x="621" 
d="M432 387q70 -28 104.5 -75.5t34.5 -105.5q0 -96 -72.5 -151t-199.5 -55h-234v700h234q100 0 160.5 -47t60.5 -135q0 -97 -88 -131zM177 424h122q54 0 82.5 25t28.5 69q0 40 -31 63t-80 23h-122v-180zM177 96h122q76 0 119 30.5t43 79.5q0 52 -43.5 87t-118.5 35h-122
v-232z" />
    <glyph glyph-name="uni0413" unicode="&#x413;" horiz-adv-x="591" 
d="M521 605h-341v-605h-110v700h451v-95z" />
    <glyph glyph-name="uni0414" unicode="&#x414;" horiz-adv-x="889" 
d="M834 95v-164h-110v69h-559v-69h-110v164h87q18 44 27 121t10.5 142.5t1.5 201.5v140h548v-605h105zM619 95v510h-328v-45q0 -136 -1.5 -201.5t-11 -142.5t-28.5 -121h369z" />
    <glyph glyph-name="uni0415" unicode="&#x415;" 
d="M524 99v-99h-469v700h459v-99h-343v-200h243v-99h-243v-203h353z" />
    <glyph glyph-name="uni0416" unicode="&#x416;" horiz-adv-x="1231" 
d="M1056 0l-250 277l-133 -157v-120h-115v120l-133 157l-250 -277h-135l320 355l-292 345h134l356 -424v424h115v-424l356 424h134l-292 -345l320 -355h-135z" />
    <glyph glyph-name="uni0417" unicode="&#x417;" horiz-adv-x="602" 
d="M396 368q58 -4 109.5 -49.5t51.5 -114.5q0 -94 -76.5 -154t-183.5 -60q-110 0 -183.5 61t-73.5 150l116 1q0 -57 44 -87t97 -30q25 0 48 5.5t45.5 18t36.5 37t14 58.5q0 51 -42.5 81t-130.5 32v90q85 6 112 31.5t27 79.5q0 41 -36 67.5t-74 26.5q-46 0 -82.5 -25.5
t-36.5 -87.5l-116 1q0 92 68 149.5t167 57.5q91 0 158 -56.5t67 -132.5q0 -56 -36 -96.5t-90 -53.5z" />
    <glyph glyph-name="uni0418" unicode="&#x418;" horiz-adv-x="725" 
d="M219 700v-434l425 434h11v-700h-115v434l-424 -434h-12v700h115z" />
    <glyph glyph-name="uni0419" unicode="&#x419;" horiz-adv-x="725" 
d="M472 947h85q-1 -69 -47.5 -124t-127.5 -55q-75 0 -124 56t-50 123h85q5 -33 29 -55.5t61 -22.5t60.5 22.5t28.5 55.5zM219 700v-434l425 434h11v-700h-115v434l-424 -434h-12v700h115z" />
    <glyph glyph-name="uni041A" unicode="&#x41a;" horiz-adv-x="742" 
d="M567 0l-250 277l-133 -157v-120h-114v700h114v-424l356 424h134l-292 -345l320 -355h-135z" />
    <glyph glyph-name="uni041B" unicode="&#x41b;" horiz-adv-x="738" 
d="M698 700v-700h-110v605h-348v-471q0 -80 -33.5 -110t-91.5 -30q-59 0 -95 18v95q36 -18 68 -18q21 0 31.5 14.5t10.5 34.5v562h568z" />
    <glyph glyph-name="uni041C" unicode="&#x41c;" horiz-adv-x="888" 
d="M818 0h-115v381l-249 -371h-20l-249 371v-381h-115v700h21l353 -515l353 515h21v-700z" />
    <glyph glyph-name="uni041D" unicode="&#x41d;" horiz-adv-x="708" 
d="M638 700v-700h-113v298h-342v-298h-113v700h113v-305h342v305h113z" />
    <glyph glyph-name="uni041E" unicode="&#x41e;" horiz-adv-x="794" 
d="M397 707q138 0 242.5 -102t104.5 -255t-104.5 -255t-242.5 -102q-87 0 -166 44.5t-130 127.5t-51 185t51 185t130 127.5t166 44.5zM619 350q0 110 -63 179t-158 69q-91 0 -156.5 -69.5t-65.5 -178.5t65.5 -178.5t156.5 -69.5q95 0 158 69t63 179z" />
    <glyph glyph-name="uni041F" unicode="&#x41f;" horiz-adv-x="708" 
d="M638 700v-700h-110v605h-348v-605h-110v700h568z" />
    <glyph glyph-name="uni0420" unicode="&#x420;" horiz-adv-x="620" 
d="M70 700h245q115 0 185 -60.5t70 -153.5q0 -95 -69.5 -154.5t-185.5 -59.5h-132v-272h-113v700zM183 369h127q150 0 150 117q0 59 -40 88t-110 29h-127v-234z" />
    <glyph glyph-name="uni0421" unicode="&#x421;" horiz-adv-x="648" 
d="M389 102q83 0 148 63l71 -85q-95 -87 -221 -87q-87 0 -166 44.5t-130 127.5t-51 184q0 153 106 255.5t241 102.5q126 0 221 -87l-71 -85q-63 63 -148 63q-90 0 -158 -72t-68 -176t68 -176t158 -72z" />
    <glyph glyph-name="uni0422" unicode="&#x422;" horiz-adv-x="648" 
d="M588 598h-204v-598h-119v598h-205v102h528v-102z" />
    <glyph glyph-name="uni0423" unicode="&#x423;" horiz-adv-x="730" 
d="M680 700l-383 -700h-115l125 230l-257 470h116l199 -364l199 364h116z" />
    <glyph glyph-name="uni0424" unicode="&#x424;" horiz-adv-x="910" 
d="M855 350q0 -121 -98.5 -201t-252.5 -84v-65h-110v65q-154 4 -251.5 84t-97.5 201t97.5 201t251.5 84v65h110v-65q154 -4 252.5 -84t98.5 -201zM504 540v-380q125 3 183 58t58 132t-58 132t-183 58zM155 350q0 -77 57.5 -131.5t181.5 -58.5v380q-124 -4 -181.5 -58.5
t-57.5 -131.5z" />
    <glyph glyph-name="uni0425" unicode="&#x425;" horiz-adv-x="738" 
d="M552 0l-184 264l-185 -264h-128l248 357l-240 343h131l174 -249l173 249h131l-239 -342l250 -358h-131z" />
    <glyph glyph-name="uni0426" unicode="&#x426;" horiz-adv-x="807" 
d="M747 95v-164h-109v69h-568v700h110v-605h348v605h110v-605h109z" />
    <glyph glyph-name="uni0427" unicode="&#x427;" horiz-adv-x="641" 
d="M576 700v-700h-110v318q-13 -31 -60 -62t-115 -31q-101 0 -163.5 51t-62.5 160v264h110v-264q0 -60 38 -88t96 -28t97.5 33.5t59.5 75.5v271h110z" />
    <glyph glyph-name="uni0428" unicode="&#x428;" horiz-adv-x="1166" 
d="M1096 700v-700h-1026v700h110v-605h348v605h110v-605h348v605h110z" />
    <glyph glyph-name="uni0429" unicode="&#x429;" horiz-adv-x="1265" 
d="M1205 95v-164h-109v69h-1026v700h110v-605h348v605h110v-605h348v605h110v-605h109z" />
    <glyph glyph-name="uni042A" unicode="&#x42a;" horiz-adv-x="793" 
d="M314 428h132q116 0 185.5 -59.5t69.5 -154.5q0 -93 -70 -153.5t-185 -60.5h-245v605h-151v95h264v-272zM314 97h127q70 0 110 29t40 88q0 117 -150 117h-127v-234z" />
    <glyph glyph-name="uni042B" unicode="&#x42b;" horiz-adv-x="885" 
d="M183 428h132q116 0 185.5 -59.5t69.5 -154.5q0 -93 -70 -153.5t-185 -60.5h-245v700h113v-272zM810 700v-700h-115v700h115zM183 97h127q70 0 110 29t40 88q0 117 -150 117h-127v-234z" />
    <glyph glyph-name="uni042C" unicode="&#x42c;" horiz-adv-x="642" 
d="M183 428h132q116 0 185.5 -59.5t69.5 -154.5q0 -93 -70 -153.5t-185 -60.5h-245v700h113v-272zM183 97h127q70 0 110 29t40 88q0 117 -150 117h-127v-234z" />
    <glyph glyph-name="uni042D" unicode="&#x42d;" horiz-adv-x="648" 
d="M261 707q135 0 241 -102.5t106 -255.5q0 -101 -51 -184t-130 -127.5t-166 -44.5q-126 0 -221 87l71 85q65 -63 148 -63q80 0 143 56.5t79 144.5h-151v95h151q-16 87 -79.5 143.5t-142.5 56.5q-85 0 -148 -63l-71 85q95 87 221 87z" />
    <glyph glyph-name="uni042E" unicode="&#x42e;" horiz-adv-x="990" 
d="M593 707q138 0 242.5 -102t104.5 -255t-104.5 -255t-242.5 -102q-123 0 -224.5 87.5t-119.5 222.5h-69v-303h-115v700h115v-302h69q12 90 64 161.5t126 109.5t154 38zM594 102q95 0 158 69t63 179t-63 179t-158 69q-91 0 -156.5 -69.5t-65.5 -178.5t65.5 -178.5
t156.5 -69.5z" />
    <glyph glyph-name="uni042F" unicode="&#x42f;" horiz-adv-x="655" 
d="M585 700v-700h-113v272h-68l-213 -272h-141l230 277q-90 15 -142.5 71.5t-52.5 137.5q0 93 70 153.5t185 60.5h245zM472 603h-127q-70 0 -110 -29t-40 -88q0 -117 150 -117h127v234z" />
    <glyph glyph-name="uni0430" unicode="&#x430;" horiz-adv-x="612" 
d="M442 0v84q-3 -33 -50 -62t-107 -29q-43 0 -85 17t-78.5 48.5t-59 84t-22.5 117.5q0 64 22.5 116.5t59 84t78.5 48.5t85 17q109 0 157 -73v67h110v-520h-110zM299 88q61 0 104.5 43.5t43.5 128.5q0 86 -43.5 128.5t-104.5 42.5q-58 0 -103.5 -46t-45.5 -125t45.5 -125.5
t103.5 -46.5z" />
    <glyph glyph-name="uni0431" unicode="&#x431;" horiz-adv-x="591" 
d="M321 526q43 0 85 -17t78.5 -48.5t59 -84t22.5 -116.5q0 -65 -22.5 -117.5t-59 -84t-78.5 -48.5t-85 -17q-60 0 -107 29t-50 62v-84h-110v520h1q0 92 50 136t153 44h78q51 0 77 20h105q-31 -56 -70.5 -85.5t-101.5 -29.5h-88q-53 0 -73 -19t-20 -66v-66q47 72 156 72z
M307 88q58 0 103.5 46.5t45.5 125.5t-45.5 125t-103.5 46q-61 0 -104.5 -42.5t-43.5 -128.5q0 -85 43.5 -128.5t104.5 -43.5z" />
    <glyph glyph-name="uni0432" unicode="&#x432;" horiz-adv-x="597" 
d="M420 288q107 -39 107 -134q0 -77 -59.5 -115.5t-165.5 -38.5h-257v520h257q85 0 135 -36t50 -100q0 -74 -67 -96zM155 328h147q75 0 75 53q0 13 -3.5 22t-21.5 18t-50 9h-147v-102zM155 90h147q115 0 115 64q0 80 -115 80h-147v-144z" />
    <glyph glyph-name="uni0433" unicode="&#x433;" horiz-adv-x="558" 
d="M488 425h-308v-425h-110v520h418v-95z" />
    <glyph glyph-name="uni0434" unicode="&#x434;" horiz-adv-x="728" 
d="M673 95v-154h-110v59h-398v-59h-110v154h53q20 28 29.5 80.5t11 98.5t1.5 146v100h478v-425h45zM518 95v330h-258v-5q0 -100 -1.5 -146t-11.5 -98.5t-31 -80.5h302z" />
    <glyph glyph-name="uni0435" unicode="&#x435;" horiz-adv-x="595" 
d="M552 217h-398q8 -60 52 -94t94 -34q72 0 116 47l93 -50q-39 -46 -94.5 -69.5t-114.5 -23.5q-43 0 -87 16.5t-83.5 48t-64.5 84t-25 117.5q0 64 25 117t64.5 84.5t83.5 48.5t87 17q58 0 114.5 -28t98.5 -91t42 -148q0 -23 -3 -42zM155 308h287q-10 58 -52 90t-90 32
q-49 0 -92 -32t-53 -90z" />
    <glyph glyph-name="uni0436" unicode="&#x436;" horiz-adv-x="930" 
d="M747 0l-190 197l-37 -38v-159h-110v159l-37 38l-190 -197h-143l263 269l-243 251h141l209 -214v214h110v-214l209 214h141l-243 -251l263 -269h-143z" />
    <glyph glyph-name="uni0437" unicode="&#x437;" horiz-adv-x="555" 
d="M358 278q152 -14 152 -125q0 -71 -71 -115.5t-166 -44.5q-99 0 -163.5 48.5t-64.5 122.5l110 1q0 -32 36.5 -54.5t81.5 -22.5q49 0 88 17t39 48q0 34 -38 55.5t-107 20.5v92q113 2 113 63q0 23 -27 34.5t-68 11.5q-42 0 -69.5 -14.5t-27.5 -37.5h-110q0 60 60.5 103.5
t146.5 43.5q83 0 144 -42t61 -99q0 -52 -30 -73t-90 -33z" />
    <glyph glyph-name="uni0438" unicode="&#x438;" horiz-adv-x="623" 
d="M553 0h-110v293l-362 -293h-11v520h110v-293l362 293h11v-520z" />
    <glyph glyph-name="uni0439" unicode="&#x439;" horiz-adv-x="623" 
d="M401 767h85q-1 -69 -47.5 -124t-127.5 -55q-75 0 -124 56t-50 123h85q5 -33 29 -55.5t61 -22.5t60.5 22.5t28.5 55.5zM553 0h-110v293l-362 -293h-11v520h110v-293l362 293h11v-520z" />
    <glyph glyph-name="uni043A" unicode="&#x43a;" horiz-adv-x="590" 
d="M407 0l-190 197l-37 -38v-159h-110v520h110v-214l209 214h141l-243 -251l263 -269h-143z" />
    <glyph glyph-name="uni043B" unicode="&#x43b;" horiz-adv-x="696" 
d="M626 520v-520h-110v425h-276v-291q0 -80 -33.5 -110t-91.5 -30q-59 0 -95 18v95q36 -18 68 -18q21 0 31.5 14.5t10.5 34.5v382h496z" />
    <glyph glyph-name="uni043C" unicode="&#x43c;" horiz-adv-x="762" 
d="M687 0h-110v223l-188 -223h-16l-188 223v-223h-110v520h16l290 -348l290 348h16v-520z" />
    <glyph glyph-name="uni043D" unicode="&#x43d;" horiz-adv-x="608" 
d="M538 520v-520h-110v213h-248v-213h-110v520h110v-212h248v212h110z" />
    <glyph glyph-name="uni043E" unicode="&#x43e;" horiz-adv-x="600" 
d="M300 526q43 0 87 -17t83.5 -48.5t64.5 -84.5t25 -117q0 -65 -25 -117.5t-64.5 -84t-83.5 -48t-87 -16.5t-87 16.5t-83.5 48t-64.5 84t-25 117.5q0 64 25 117t64.5 84.5t83.5 48.5t87 17zM450 259q0 81 -46 126t-104 45t-104 -45t-46 -126q0 -80 46 -125t104 -45t104 45
t46 125z" />
    <glyph glyph-name="uni043F" unicode="&#x43f;" horiz-adv-x="618" 
d="M548 520v-520h-110v425h-258v-425h-110v520h478z" />
    <glyph glyph-name="uni0440" unicode="&#x440;" horiz-adv-x="602" 
d="M327 526q43 0 85 -17t78.5 -48.5t59 -84t22.5 -116.5q0 -65 -22.5 -117.5t-59 -84t-78.5 -48.5t-85 -17q-60 0 -107 29t-50 62v-274h-110v710h110v-67q48 73 157 73zM313 88q58 0 103.5 46.5t45.5 125.5t-45.5 125t-103.5 46q-61 0 -104.5 -42.5t-43.5 -128.5
q0 -85 43.5 -128.5t104.5 -43.5z" />
    <glyph glyph-name="uni0441" unicode="&#x441;" horiz-adv-x="551" 
d="M300 89q80 0 118 61l98 -41q-36 -56 -96 -86t-120 -30q-95 0 -177 71t-83 195q0 65 24.5 117.5t64 84t84 48.5t87.5 17q60 0 120 -30t96 -86l-98 -41q-38 61 -118 61q-59 0 -104.5 -45t-45.5 -126q0 -80 45.5 -125t104.5 -45z" />
    <glyph glyph-name="uni0442" unicode="&#x442;" horiz-adv-x="528" 
d="M468 425h-149v-425h-110v425h-149v95h408v-95z" />
    <glyph glyph-name="uni0443" unicode="&#x443;" horiz-adv-x="588" 
d="M563 520l-288 -710h-108l83 205l-220 505h109l163 -376l152 376h109z" />
    <glyph glyph-name="uni0444" unicode="&#x444;" horiz-adv-x="979" 
d="M704 526q43 0 85 -17t78.5 -48.5t59 -84t22.5 -116.5q0 -65 -22.5 -117.5t-59 -84t-78.5 -48.5t-85 -17q-60 0 -107 29t-50 62v-274h-110v257q-48 -73 -157 -73q-43 0 -85 17t-78.5 48.5t-59 84t-22.5 116.5q0 65 22.5 117.5t59 84t78.5 48.5t85 17q60 0 107 -29t50 -62
v274h110v-257q48 73 157 73zM294 89q51 0 90.5 29.5t52.5 90.5v102q-13 60 -53 90.5t-90 30.5q-58 0 -103.5 -46.5t-45.5 -125.5t45.5 -125t103.5 -46zM690 88q58 0 103.5 46.5t45.5 125.5t-45.5 125t-103.5 46q-51 0 -90.5 -29.5t-52.5 -90.5v-102q13 -60 53 -90.5
t90 -30.5z" />
    <glyph glyph-name="uni0445" unicode="&#x445;" horiz-adv-x="586" 
d="M435 0l-142 191l-142 -191h-121l203 272l-185 248h121l124 -167l124 167h121l-184 -248l202 -272h-121z" />
    <glyph glyph-name="uni0446" unicode="&#x446;" horiz-adv-x="662" 
d="M602 95v-164h-109v69h-423v520h110v-425h258v425h110v-425h54z" />
    <glyph glyph-name="uni0447" unicode="&#x447;" horiz-adv-x="606" 
d="M541 520v-520h-110v247q-5 -11 -15.5 -25t-29 -32t-47.5 -30t-62 -12q-88 0 -150 55.5t-62 155.5v161h110v-162q0 -113 103 -113q55 0 94.5 34.5t58.5 86.5v154h110z" />
    <glyph glyph-name="uni0448" unicode="&#x448;" horiz-adv-x="838" 
d="M768 520v-520h-698v520h110v-425h184v425h110v-425h184v425h110z" />
    <glyph glyph-name="uni0449" unicode="&#x449;" horiz-adv-x="881" 
d="M821 95v-164h-109v69h-642v520h110v-425h184v425h110v-425h184v425h110v-425h53z" />
    <glyph glyph-name="uni044A" unicode="&#x44a;" horiz-adv-x="709" 
d="M264 306h170q94 0 149.5 -42.5t55.5 -114.5q0 -69 -55 -109t-150 -40h-280v425h-94v95h204v-214zM264 95h170q58 0 76.5 13.5t18.5 40.5q0 28 -19 45t-76 17h-170v-116z" />
    <glyph glyph-name="uni044B" unicode="&#x44b;" horiz-adv-x="800" 
d="M180 306h170q94 0 149.5 -42.5t55.5 -114.5q0 -69 -55 -109t-150 -40h-280v520h110v-214zM730 520v-520h-110v520h110zM180 95h170q58 0 76.5 13.5t18.5 40.5q0 28 -19 45t-76 17h-170v-116z" />
    <glyph glyph-name="uni044C" unicode="&#x44c;" horiz-adv-x="625" 
d="M180 306h170q94 0 149.5 -42.5t55.5 -114.5q0 -69 -55 -109t-150 -40h-280v520h110v-214zM180 95h170q58 0 76.5 13.5t18.5 40.5q0 28 -19 45t-76 17h-170v-116z" />
    <glyph glyph-name="uni044D" unicode="&#x44d;" horiz-adv-x="536" 
d="M247 526q43 0 87.5 -17t84 -48.5t64 -84t24.5 -117.5q-1 -124 -83 -195t-177 -71q-60 0 -120 30t-96 86l98 41q38 -61 118 -61q48 0 89 31t55 87h-115v100h116q-13 59 -54.5 91t-90.5 32q-80 0 -118 -61l-98 41q36 56 96 86t120 30z" />
    <glyph glyph-name="uni044E" unicode="&#x44e;" horiz-adv-x="815" 
d="M523 526q43 0 87 -17t83.5 -48.5t64.5 -84.5t25 -117q0 -65 -25 -117.5t-64.5 -84t-83.5 -48t-87 -16.5q-52 0 -104 22.5t-96 73t-56 118.5h-87v-207h-110v520h110v-213h87q17 102 95 160.5t161 58.5zM523 89q58 0 104 45t46 125q0 81 -46 126t-104 45t-104 -45t-46 -126
q0 -80 46 -125t104 -45z" />
    <glyph glyph-name="uni044F" unicode="&#x44f;" horiz-adv-x="643" 
d="M573 520v-520h-110v169h-117l-156 -169h-135l173 179q-64 19 -102 65.5t-38 106.5q0 74 60.5 121.5t154.5 47.5h270zM463 425h-160q-53 0 -79 -20.5t-26 -53.5q0 -35 27 -61t78 -26h160v161z" />
    <glyph glyph-name="uni0451" unicode="&#x451;" horiz-adv-x="595" 
d="M223 710v-119h-119v119h119zM472 710v-119h-119v119h119zM552 217h-398q8 -60 52 -94t94 -34q72 0 116 47l93 -50q-39 -46 -94.5 -69.5t-114.5 -23.5q-43 0 -87 16.5t-83.5 48t-64.5 84t-25 117.5q0 64 25 117t64.5 84.5t83.5 48.5t87 17q58 0 114.5 -28t98.5 -91
t42 -148q0 -23 -3 -42zM155 308h287q-10 58 -52 90t-90 32q-49 0 -92 -32t-53 -90z" />
    <glyph glyph-name="uni0454" unicode="&#x454;" horiz-adv-x="536" 
d="M300 89q80 0 118 61l98 -41q-36 -56 -96 -86t-120 -30q-95 0 -177 71t-83 195q0 65 24.5 117.5t64 84t84 48.5t87.5 17q60 0 120 -30t96 -86l-98 -41q-38 61 -118 61q-49 0 -90.5 -32t-54.5 -91h116v-100h-115q14 -56 55 -87t89 -31z" />
    <glyph glyph-name="uni0457" unicode="&#x457;" horiz-adv-x="260" 
d="M65 710v-119h-119v119h119zM314 710v-119h-119v119h119zM185 520v-520h-110v520h110z" />
    <glyph glyph-name="uni0490" unicode="&#x490;" horiz-adv-x="591" 
d="M521 747v-142h-341v-605h-110v700h341v47h110z" />
    <glyph glyph-name="uni0491" unicode="&#x491;" horiz-adv-x="600" 
d="M488 566v-141h-308v-425h-110v520h308v46h110z" />
    <glyph glyph-name="Wgrave" unicode="&#x1e80;" horiz-adv-x="1081" 
d="M540 947h-155l111 -145h98zM772 0h-11l-220 478l-221 -478h-11l-269 700h121l163 -447l206 447h21l207 -447l162 447h121z" />
    <glyph glyph-name="wgrave" unicode="&#x1e81;" horiz-adv-x="902" 
d="M450 767h-155l111 -145h98zM637 0h-13l-173 339l-173 -339h-13l-235 520h111l139 -313l163 313h16l163 -313l139 313h111z" />
    <glyph glyph-name="Wacute" unicode="&#x1e82;" horiz-adv-x="1081" 
d="M584 802l111 145h-155l-54 -145h98zM772 0h-11l-220 478l-221 -478h-11l-269 700h121l163 -447l206 447h21l207 -447l162 447h121z" />
    <glyph glyph-name="wacute" unicode="&#x1e83;" horiz-adv-x="902" 
d="M494 622l111 145h-155l-54 -145h98zM637 0h-13l-173 339l-173 -339h-13l-235 520h111l139 -313l163 313h16l163 -313l139 313h111z" />
    <glyph glyph-name="Wdieresis" unicode="&#x1e84;" horiz-adv-x="1081" 
d="M476 890v-119h-119v119h119zM725 890v-119h-119v119h119zM772 0h-11l-220 478l-221 -478h-11l-269 700h121l163 -447l206 447h21l207 -447l162 447h121z" />
    <glyph glyph-name="wdieresis" unicode="&#x1e85;" horiz-adv-x="902" 
d="M386 710v-119h-119v119h119zM635 710v-119h-119v119h119zM637 0h-13l-173 339l-173 -339h-13l-235 520h111l139 -313l163 313h16l163 -313l139 313h111z" />
    <glyph glyph-name="Ygrave" unicode="&#x1ef2;" horiz-adv-x="716" 
d="M357 947h-155l111 -145h98zM413 0h-110v323l-263 377h125l193 -279l193 279h125l-263 -377v-323z" />
    <glyph glyph-name="ygrave" unicode="&#x1ef3;" horiz-adv-x="588" 
d="M257 622l-111 145h155l54 -145h-98zM563 520l-288 -710h-108l83 205l-220 505h109l163 -376l152 376h109z" />
    <glyph glyph-name="endash" unicode="&#x2013;" horiz-adv-x="600" 
d="M555 322v-90h-510v90h510z" />
    <glyph glyph-name="emdash" unicode="&#x2014;" horiz-adv-x="660" 
d="M615 322v-90h-570v90h570z" />
    <glyph glyph-name="quoteleft" unicode="&#x2018;" horiz-adv-x="263" 
d="M119 700l-84 -155h148l35 155h-99z" />
    <glyph glyph-name="quoteright" unicode="&#x2019;" horiz-adv-x="248" 
d="M134 545l84 155h-148l-35 -155h99z" />
    <glyph glyph-name="quotesinglbase" unicode="&#x201a;" horiz-adv-x="293" 
d="M139 -135l84 155h-148l-35 -155h99z" />
    <glyph glyph-name="quotedblleft" unicode="&#x201c;" horiz-adv-x="475" 
d="M119 700l-84 -155h148l35 155h-99zM331 700l-84 -155h148l35 155h-99z" />
    <glyph glyph-name="quotedblright" unicode="&#x201d;" horiz-adv-x="474" 
d="M134 545l84 155h-148l-35 -155h99zM345 545l84 155h-148l-35 -155h99z" />
    <glyph glyph-name="quotedblbase" unicode="&#x201e;" horiz-adv-x="500" 
d="M139 -135l84 155h-148l-35 -155h99zM346 -135l84 155h-148l-35 -155h99z" />
    <glyph glyph-name="dagger" unicode="&#x2020;" horiz-adv-x="349" 
d="M304 470h-98l-19 -158h-24l-19 158h-99v95h87l-16 135h118l-16 -135h86v-95z" />
    <glyph glyph-name="daggerdbl" unicode="&#x2021;" horiz-adv-x="339" 
d="M299 565v-95h-101l-13 -96h-30l-13 96h-102v95h89l-18 135h118l-18 -135h88zM198 230h101v-95h-88l18 -135h-118l18 135h-89v95h102l13 96h30z" />
    <glyph glyph-name="bullet" unicode="&#x2022;" horiz-adv-x="226" 
d="M181 365v-136h-136v136h136z" />
    <glyph glyph-name="ellipsis" unicode="&#x2026;" horiz-adv-x="720" 
d="M164 123v-123h-124v123h124zM411 123v-123h-124v123h124zM658 123v-123h-124v123h124z" />
    <glyph glyph-name="perthousand" unicode="&#x2030;" horiz-adv-x="1024" 
d="M158 459q-51 0 -87 36t-36 87q0 52 36 87.5t87 35.5q52 0 88 -35.5t36 -87.5q0 -51 -36 -87t-88 -36zM518 702l86 -55l-434 -647l-87 55zM158 543q15 0 26 11.5t11 27.5t-11 27t-26 11q-17 0 -28.5 -11t-11.5 -27t11.5 -27.5t28.5 -11.5zM539 -5q-51 0 -87 36t-36 87
q0 52 36 87.5t87 35.5q52 0 88 -35.5t36 -87.5q0 -51 -36 -87t-88 -36zM865 -5q-51 0 -87 36t-36 87q0 52 36 87.5t87 35.5q52 0 88 -35.5t36 -87.5q0 -51 -36 -87t-88 -36zM539 79q15 0 26 11.5t11 27.5t-11 27t-26 11q-17 0 -28.5 -11t-11.5 -27t11.5 -27.5t28.5 -11.5z
M865 79q15 0 26 11.5t11 27.5t-11 27t-26 11q-17 0 -28.5 -11t-11.5 -27t11.5 -27.5t28.5 -11.5z" />
    <glyph glyph-name="guilsinglleft" unicode="&#x2039;" horiz-adv-x="215" 
d="M76 308l104 -99v-91l-155 90v199l155 90v-91z" />
    <glyph glyph-name="guilsinglright" unicode="&#x203a;" horiz-adv-x="205" 
d="M35 538l155 -90v-199l-155 -90v91l104 99l-104 98v91z" />
    <glyph glyph-name="fraction" unicode="&#x2044;" horiz-adv-x="108" 
d="M-190 0l436 700h42l-430 -700h-48z" />
    <glyph glyph-name="Euro" unicode="&#x20ac;" horiz-adv-x="693" 
d="M434 102q83 0 148 63l71 -85q-95 -87 -221 -87q-104 0 -196 64t-130 169h-71v84h52q-2 26 -2 39q0 19 1 28h-51v84h67q36 110 129.5 178t200.5 68q126 0 221 -87l-71 -85q-63 63 -148 63q-63 0 -118 -37.5t-84 -99.5h91v-84h-114q-1 -9 -1 -27q0 -20 3 -40h112v-84h-84
q30 -57 82.5 -90.5t112.5 -33.5z" />
    <glyph glyph-name="hryvnia" unicode="&#x20b4;" horiz-adv-x="589" 
d="M281 312l-6 -2h269v-84h-381q-6 -16 -6 -35q0 -49 40.5 -75t96.5 -26q46 0 90 30t60 74l95 -37q-27 -73 -96 -118.5t-149 -45.5q-94 0 -171.5 53.5t-77.5 144.5q0 19 3 35h-2v84h41q31 37 88 67h-129v84h328q32 24 32 64q0 38 -32.5 61.5t-80.5 23.5q-49 0 -85 -20.5
t-49 -53.5l-101 22q26 64 88 106.5t147 42.5q91 0 158 -51.5t67 -130.5q0 -34 -11 -64h37v-84h-108q-38 -26 -103 -48z" />
    <glyph glyph-name="trademark" unicode="&#x2122;" horiz-adv-x="571" 
d="M174 660v-140h-47v140h-62v40h171v-40h-62zM506 520h-45v83l-65 -83h-15l-65 83v-83h-45v180h23l94 -121l94 121h24v-180z" />
    <glyph glyph-name="oneeighth" unicode="&#x215b;" horiz-adv-x="556" 
d="M100 440h-37v221l-17 -11l-18 31l35 20h37v-261zM25 0l436 700h42l-430 -700h-48zM488 143q43 -21 43 -66q0 -34 -27 -56.5t-65 -22.5q-37 0 -64 22.5t-27 56.5q0 45 43 66q-30 19 -30 53q0 26 21.5 46.5t56.5 20.5q36 0 57.5 -20t21.5 -47q0 -34 -30 -53zM398 196
q0 -15 12.5 -27t28.5 -12q17 0 29 11.5t12 27.5q0 36 -41 36q-20 0 -30.5 -10.5t-10.5 -25.5zM439 29q24 0 39 13t15 35t-15 35.5t-39 13.5q-22 0 -38 -14t-16 -35q0 -20 16 -34t38 -14z" />
    <glyph glyph-name="threeeighths" unicode="&#x215c;" horiz-adv-x="574" 
d="M166 582q42 -18 42 -66q0 -34 -27.5 -57t-64.5 -23q-41 0 -67.5 27t-23.5 64h38q-4 -23 12 -41t41 -18q22 0 38 13.5t16 34.5q0 55 -74 45v31q63 3 63 43q0 15 -12.5 26t-30.5 11q-22 0 -35 -15.5t-11 -41.5h-38q-3 38 22 63t62 25q32 0 56 -20.5t24 -47.5q0 -32 -30 -53
zM45 0l436 700h42l-430 -700h-48zM506 143q43 -21 43 -66q0 -34 -27 -56.5t-65 -22.5q-37 0 -64 22.5t-27 56.5q0 45 43 66q-30 19 -30 53q0 26 21.5 46.5t56.5 20.5q36 0 57.5 -20t21.5 -47q0 -34 -30 -53zM416 196q0 -15 12.5 -27t28.5 -12q17 0 29 11.5t12 27.5
q0 36 -41 36q-20 0 -30.5 -10.5t-10.5 -25.5zM457 29q24 0 39 13t15 35t-15 35.5t-39 13.5q-22 0 -38 -14t-16 -35q0 -20 16 -34t38 -14z" />
    <glyph glyph-name="fiveeighths" unicode="&#x215d;" horiz-adv-x="576" 
d="M25 498l33 19q2 -20 17.5 -34.5t39.5 -14.5q23 0 40 17.5t17 43.5q0 25 -16.5 42.5t-36.5 17.5q-35 0 -57 -29l-32 8l18 133h138v-32h-104l-8 -58q22 10 45 10q35 0 63 -26.5t28 -65.5t-28 -66t-67 -27q-33 0 -58.5 18.5t-31.5 43.5zM45 0l436 700h42l-430 -700h-48z
M508 143q43 -21 43 -66q0 -34 -27 -56.5t-65 -22.5q-37 0 -64 22.5t-27 56.5q0 45 43 66q-30 19 -30 53q0 26 21.5 46.5t56.5 20.5q36 0 57.5 -20t21.5 -47q0 -34 -30 -53zM418 196q0 -15 12.5 -27t28.5 -12q17 0 29 11.5t12 27.5q0 36 -41 36q-20 0 -30.5 -10.5
t-10.5 -25.5zM459 29q24 0 39 13t15 35t-15 35.5t-39 13.5q-22 0 -38 -14t-16 -35q0 -20 16 -34t38 -14z" />
    <glyph glyph-name="seveneighths" unicode="&#x215e;" horiz-adv-x="556" 
d="M98 440h-39l89 229h-121v32h173zM25 0l436 700h42l-430 -700h-48zM488 143q43 -21 43 -66q0 -34 -27 -56.5t-65 -22.5q-37 0 -64 22.5t-27 56.5q0 45 43 66q-30 19 -30 53q0 26 21.5 46.5t56.5 20.5q36 0 57.5 -20t21.5 -47q0 -34 -30 -53zM398 196q0 -15 12.5 -27
t28.5 -12q17 0 29 11.5t12 27.5q0 36 -41 36q-20 0 -30.5 -10.5t-10.5 -25.5zM439 29q24 0 39 13t15 35t-15 35.5t-39 13.5q-22 0 -38 -14t-16 -35q0 -20 16 -34t38 -14z" />
    <glyph glyph-name="partialdiff" unicode="&#x2202;" horiz-adv-x="551" 
d="M272 439q11 0 24 -3l-193 264h122l132 -184q10 -14 36.5 -49.5t37 -50t29 -45t26 -51t14 -49.5t6.5 -59q0 -92 -71.5 -157t-162.5 -65q-90 0 -160.5 65t-70.5 157q0 90 71.5 158.5t159.5 68.5zM273 86q52 0 90.5 36.5t38.5 89.5t-35.5 89t-93.5 36q-51 0 -89 -37t-38 -88
q0 -53 37.5 -89.5t89.5 -36.5z" />
    <glyph glyph-name="product" unicode="&#x220f;" horiz-adv-x="708" 
d="M663 800v-990h-105v890h-408v-890h-105v990h618z" />
    <glyph glyph-name="summation" unicode="&#x2211;" horiz-adv-x="678" 
d="M221 700l219 -395l-219 -395h412v-100h-588l275 495l-275 495h588v-100h-412z" />
    <glyph glyph-name="minus" unicode="&#x2212;" horiz-adv-x="425" 
d="M380 322v-90h-335v90h335z" />
    <glyph glyph-name="radical" unicode="&#x221a;" horiz-adv-x="776" 
d="M465 -190h-125l-178 442h-117v120h190l161 -417l227 845h108z" />
    <glyph glyph-name="infinity" unicode="&#x221e;" horiz-adv-x="840" 
d="M610 427q73 0 126.5 -49t53.5 -116q0 -69 -53.5 -118.5t-126.5 -49.5q-100 0 -190 93q-90 -93 -189 -93q-74 0 -127.5 49.5t-53.5 118.5q0 67 54 116t127 49q99 0 189 -92q90 92 190 92zM233 180q40 0 67 17.5t60 64.5q-33 46 -60.5 63.5t-66.5 17.5q-35 0 -58 -24.5
t-23 -56.5q0 -33 23 -57.5t58 -24.5zM607 180q35 0 58 24.5t23 57.5q0 32 -23 56.5t-58 24.5q-39 0 -66.5 -17.5t-60.5 -63.5q33 -47 60 -64.5t67 -17.5z" />
    <glyph glyph-name="integral" unicode="&#x222b;" horiz-adv-x="295" 
d="M95 5v620q0 175 185 175v-95q-47 0 -61 -22.5t-14 -77.5v-620q0 -175 -185 -175v95q47 0 61 22.5t14 77.5z" />
    <glyph glyph-name="approxequal" unicode="&#x2248;" horiz-adv-x="507" 
d="M417 394h45q0 -52 -31 -84.5t-87 -32.5q-44 0 -105 38.5t-92 38.5q-26 0 -42 -12t-15 -27h-44q0 52 31.5 84.5t88.5 32.5q45 0 104.5 -34.5t87.5 -34.5q27 0 43 9t16 22zM417 234h45q0 -52 -31 -84.5t-87 -32.5q-44 0 -105 38.5t-92 38.5q-26 0 -42 -12t-15 -27h-44
q0 52 31.5 84.5t88.5 32.5q45 0 104.5 -34.5t87.5 -34.5q27 0 43 9t16 22z" />
    <glyph glyph-name="notequal" unicode="&#x2260;" horiz-adv-x="425" 
d="M271 312l-27 -70h136v-90h-171l-59 -152h-93l59 152h-71v90h106l27 70h-133v90h168l62 159h93l-62 -159h74v-90h-109z" />
    <glyph glyph-name="lessequal" unicode="&#x2264;" horiz-adv-x="423" 
d="M171 375l217 125v93l-343 -201v-34l343 -201v94zM388 91v-90h-335v90h335z" />
    <glyph glyph-name="greaterequal" unicode="&#x2265;" horiz-adv-x="434" 
d="M46 157l343 201v34l-343 201v-93l217 -125l-217 -124v-94zM381 1h-335v90h335v-90z" />
    <glyph glyph-name="lozenge" unicode="&#x25ca;" horiz-adv-x="552" 
d="M507 350l-155 -350h-152l-155 350l155 350h152zM395 350l-119 269l-119 -269l119 -269z" />
    <glyph glyph-name="Gdotaccent.001" horiz-adv-x="754" 
d="M443 825h-112v112h112v-112zM466 342h238q0 -155 -91 -252t-226 -97q-87 0 -166 44.5t-130 127.5t-51 185t51 185t130 127.5t166 44.5q79 0 143.5 -26.5t102.5 -70.5l-74 -78q-25 30 -70 48.5t-100 18.5q-89 0 -160.5 -72t-71.5 -176t72.5 -176.5t159.5 -72.5
q64 0 114.5 37.5t73.5 102.5h-111v100z" />
    <glyph glyph-name="i.loclTRK" horiz-adv-x="260" 
d="M186 757v-112h-112v112h112zM185 520v-520h-110v520h110z" />
    <glyph glyph-name="e.ss01" horiz-adv-x="595" 
d="M304 89q68 0 112 47l93 -50q-39 -46 -94.5 -69.5t-114.5 -23.5q-43 0 -87 16.5t-83.5 48t-64.5 84t-25 117.5q0 64 25 117t64.5 84.5t83.5 48.5t87 17t86.5 -17t82 -50t62.5 -88t24 -124l-390 -60q17 -46 53 -72t86 -26zM304 430q-64 0 -104.5 -41t-45.5 -109l287 43
q-7 40 -45 73.5t-92 33.5z" />
    <glyph glyph-name="w.ss01" horiz-adv-x="842" 
d="M812 520l-272 -520h-18l-99 189l-103 -189h-18l-272 520h116l165 -328l56 104l-117 224h116l165 -328l165 328h116z" />
    <glyph glyph-name="f_t" horiz-adv-x="743" 
d="M625 89q42 0 78 18v-95q-36 -18 -105 -18q-115 0 -115 140v291h-293v-425h-110v425h-60v95h60v28q0 48 16.5 82t44 49.5t53 21.5t54.5 6q45 0 85 -17.5t60 -42.5l-39 -76q-55 41 -106 41q-34 0 -46 -18t-12 -51v-23h293v90h110v-90h109v-95h-109v-287q0 -19 9 -34t23 -15
z" />
    <glyph glyph-name="t_t" horiz-adv-x="730" 
d="M612 89q42 0 78 18v-95q-36 -18 -105 -18q-115 0 -115 140v291h-255v-287q0 -49 42 -49q34 0 68 14v-91q-36 -18 -95 -18q-58 0 -91.5 30t-33.5 110v291h-70v95h70v90h110v-90h255v90h110v-90h109v-95h-109v-287q0 -19 9 -34t23 -15z" />
    <glyph glyph-name="zero.tf" horiz-adv-x="700" 
d="M355 707q124 0 208 -91t84 -253v-26q0 -162 -83.5 -253t-208.5 -91q-124 0 -208 91t-84 253v26q0 161 84 252.5t208 91.5zM537 337v26q0 67 -18 121.5t-60 91t-104 36.5t-104 -36.5t-60 -91t-18 -121.5v-26q0 -105 45.5 -177t136.5 -72t136.5 72t45.5 177z" />
    <glyph glyph-name="one.tf" horiz-adv-x="700" 
d="M405 0h-110v605h-108v95h218v-700z" />
    <glyph glyph-name="two.tf" horiz-adv-x="700" 
d="M119 31l175 205q30 35 67.5 76.5t52.5 58.5t31 40.5t21 41t5 40.5q0 59 -37 88t-84 29q-48 0 -85 -29t-37 -88v-18h-112v18q0 85 66 149.5t168 64.5q99 0 166 -64.5t67 -149.5q0 -61 -34 -114t-140 -177l-91 -107h256v-95h-455v31z" />
    <glyph glyph-name="three.tf" horiz-adv-x="700" 
d="M603 700l-163 -273q63 -15 110 -71t47 -142q0 -98 -74 -161t-177 -63q-105 0 -175.5 63t-70.5 154l110 1q0 -57 43 -90t93 -33q52 0 96.5 31.5t44.5 97.5q0 73 -54 111.5t-149 31.5l146 248h-306v95h479z" />
    <glyph glyph-name="four.tf" horiz-adv-x="700" 
d="M514 196v-196h-110v196h-319v20l389 484h40v-409h75v-95h-75zM404 470l-129 -179h129v179z" />
    <glyph glyph-name="five.tf" horiz-adv-x="700" 
d="M101 133l88 45q1 -2 10 -14.5t13.5 -18t15 -17t20.5 -17t24 -13t31.5 -10.5t37.5 -3q48 0 91 38.5t43 107.5q0 72 -42.5 108.5t-91.5 36.5q-39 0 -64.5 -8t-59.5 -33l-98 21l44 344h356v-95h-263l-19 -157q5 1 17 6t21.5 8t27.5 6t38 3q99 0 171.5 -67.5t72.5 -172.5
q0 -103 -71.5 -172t-172.5 -69q-168 0 -240 143z" />
    <glyph glyph-name="six.tf" horiz-adv-x="700" 
d="M350 439q88 0 159.5 -68.5t71.5 -158.5q0 -92 -70.5 -157t-160.5 -65q-91 0 -162.5 65t-71.5 157q0 30 6.5 59t14 49.5t26 51t29 45t37 50t36.5 49.5l132 184h122l-193 -264q13 3 24 3zM349 86q52 0 89.5 36.5t37.5 89.5q0 51 -38 88t-89 37q-58 0 -93.5 -36t-35.5 -89
t38.5 -89.5t90.5 -36.5z" />
    <glyph glyph-name="seven.tf" horiz-adv-x="700" 
d="M324 0h-116l234 605h-314v95h466z" />
    <glyph glyph-name="eight.tf" horiz-adv-x="700" 
d="M486 396q92 -63 92 -182q0 -96 -71.5 -158.5t-160.5 -62.5t-161 62t-72 159q0 119 92 182q-52 54 -52 126q0 78 53.5 131.5t139.5 53.5t139 -53.5t53 -131.5q0 -71 -52 -126zM262 522q0 -34 24.5 -60t59.5 -26t59.5 26t24.5 60q0 35 -24 61t-60 26t-60 -26t-24 -61z
M346 92q46 0 81 35t35 87q0 56 -34.5 89.5t-81.5 33.5q-43 0 -79 -34t-36 -89q0 -53 33.5 -87.5t81.5 -34.5z" />
    <glyph glyph-name="nine.tf" horiz-adv-x="700" 
d="M350 260q-88 0 -159.5 68.5t-71.5 158.5q0 92 70.5 157t160.5 65q91 0 162.5 -65t71.5 -157q0 -30 -6.5 -59t-14 -49.5t-26 -51t-29 -45t-37 -50t-36.5 -49.5l-132 -184h-122l193 264q-13 -3 -24 -3zM351 613q-52 0 -89.5 -36.5t-37.5 -89.5q0 -51 38 -88t89 -37
q58 0 93.5 36t35.5 89t-38.5 89.5t-90.5 36.5z" />
    <glyph glyph-name="zero.dnom" horiz-adv-x="260" 
d="M130 263q47 0 76 -35t29 -91v-13q0 -56 -29 -91t-76 -35q-45 0 -75 35t-30 91v13q0 56 30 91t75 35zM198 124v13q0 45 -18.5 70t-49.5 25q-29 0 -48.5 -25.5t-19.5 -69.5v-13q0 -44 19.5 -69.5t48.5 -25.5q31 0 49.5 25t18.5 70z" />
    <glyph glyph-name="one.dnom" horiz-adv-x="122" 
d="M97 0h-37v221l-17 -11l-18 31l35 20h37v-261z" />
    <glyph glyph-name="two.dnom" horiz-adv-x="221" 
d="M28 32l68 69q28 29 36.5 38.5t15.5 22.5t7 27q0 18 -14 31t-32 13q-19 0 -33 -13t-14 -37v-14h-37v14q0 35 24.5 58t59.5 23q34 0 59 -22.5t25 -52.5q0 -26 -14.5 -47t-53.5 -61l-47 -49h118v-32h-168v32z" />
    <glyph glyph-name="three.dnom" horiz-adv-x="233" 
d="M166 142q42 -18 42 -66q0 -34 -27.5 -57t-64.5 -23q-41 0 -67.5 27t-23.5 64h38q-4 -23 12 -41t41 -18q22 0 38 13.5t16 34.5q0 55 -74 45v31q63 3 63 43q0 15 -12.5 26t-30.5 11q-22 0 -35 -15.5t-11 -41.5h-38q-3 38 22 63t62 25q32 0 56 -20.5t24 -47.5q0 -32 -30 -53
z" />
    <glyph glyph-name="four.dnom" horiz-adv-x="246" 
d="M194 76v-76h-37v76h-132l132 185h37v-154h27v-31h-27zM157 202l-65 -95h65v95z" />
    <glyph glyph-name="five.dnom" horiz-adv-x="235" 
d="M25 58l33 19q2 -20 17.5 -34.5t39.5 -14.5q23 0 40 17.5t17 43.5q0 25 -16.5 42.5t-36.5 17.5q-35 0 -57 -29l-32 8l18 133h138v-32h-104l-8 -58q22 10 45 10q35 0 63 -26.5t28 -65.5t-28 -66t-67 -27q-33 0 -58.5 18.5t-31.5 43.5z" />
    <glyph glyph-name="six.dnom" horiz-adv-x="223" 
d="M106 165h6q34 0 60 -25t26 -59q0 -35 -26 -60t-60 -25t-60.5 25t-26.5 60q0 16 5.5 31.5t10 23t18 25t16.5 21.5l57 79h42zM112 28q18 0 33.5 15t15.5 38t-15 37.5t-34 14.5q-22 0 -36 -14t-14 -38q0 -23 15.5 -38t34.5 -15z" />
    <glyph glyph-name="seven.dnom" horiz-adv-x="223" 
d="M96 0h-39l89 229h-121v32h173z" />
    <glyph glyph-name="eight.dnom" horiz-adv-x="233" 
d="M165 143q43 -21 43 -66q0 -34 -27 -56.5t-65 -22.5q-37 0 -64 22.5t-27 56.5q0 45 43 66q-30 19 -30 53q0 26 21.5 46.5t56.5 20.5q36 0 57.5 -20t21.5 -47q0 -34 -30 -53zM75 196q0 -15 12.5 -27t28.5 -12q18 0 29.5 11.5t11.5 27.5q0 36 -41 36q-20 0 -30.5 -10.5
t-10.5 -25.5zM116 29q24 0 39 13t15 35t-15 35.5t-39 13.5q-22 0 -38 -14t-16 -35q0 -20 16 -34t38 -14z" />
    <glyph glyph-name="nine.dnom" horiz-adv-x="224" 
d="M117 95h-5q-35 0 -61 25.5t-26 59.5q0 35 26.5 59.5t60.5 24.5t60.5 -24.5t26.5 -59.5q0 -13 -2.5 -24t-9 -22.5t-10.5 -18t-14.5 -19.5t-14.5 -18l-56 -78h-43zM112 232q-19 0 -34.5 -15t-15.5 -37q0 -23 15.5 -38t34.5 -15q22 0 35.5 14.5t13.5 38.5q0 22 -15.5 37
t-33.5 15z" />
    <glyph glyph-name="zero.numr" horiz-adv-x="260" 
d="M130 703q47 0 76 -35t29 -91v-13q0 -56 -29 -91t-76 -35q-45 0 -75 35t-30 91v13q0 56 30 91t75 35zM198 564v13q0 45 -18.5 70t-49.5 25q-29 0 -48.5 -25.5t-19.5 -69.5v-13q0 -44 19.5 -69.5t48.5 -25.5q31 0 49.5 25t18.5 70z" />
    <glyph glyph-name="one.numr" horiz-adv-x="122" 
d="M97 440h-37v221l-17 -11l-18 31l35 20h37v-261z" />
    <glyph glyph-name="two.numr" horiz-adv-x="221" 
d="M28 472l68 69q28 29 36.5 38.5t15.5 22.5t7 27q0 18 -14 31t-32 13q-19 0 -33 -13t-14 -37v-14h-37v14q0 35 24.5 58t59.5 23q34 0 59 -22.5t25 -52.5q0 -26 -14.5 -47t-53.5 -61l-47 -49h118v-32h-168v32z" />
    <glyph glyph-name="three.numr" horiz-adv-x="233" 
d="M166 582q42 -18 42 -66q0 -34 -27.5 -57t-64.5 -23q-41 0 -67.5 27t-23.5 64h38q-4 -23 12 -41t41 -18q22 0 38 13.5t16 34.5q0 55 -74 45v31q63 3 63 43q0 15 -12.5 26t-30.5 11q-22 0 -35 -15.5t-11 -41.5h-38q-3 38 22 63t62 25q32 0 56 -20.5t24 -47.5q0 -32 -30 -53
z" />
    <glyph glyph-name="four.numr" horiz-adv-x="246" 
d="M194 516v-76h-37v76h-132l132 185h37v-154h27v-31h-27zM157 642l-65 -95h65v95z" />
    <glyph glyph-name="five.numr" horiz-adv-x="235" 
d="M25 498l33 19q2 -20 17.5 -34.5t39.5 -14.5q23 0 40 17.5t17 43.5q0 25 -16.5 42.5t-36.5 17.5q-35 0 -57 -29l-32 8l18 133h138v-32h-104l-8 -58q22 10 45 10q35 0 63 -26.5t28 -65.5t-28 -66t-67 -27q-33 0 -58.5 18.5t-31.5 43.5z" />
    <glyph glyph-name="six.numr" horiz-adv-x="223" 
d="M106 605h6q34 0 60 -25t26 -59q0 -35 -26 -60t-60 -25t-60.5 25t-26.5 60q0 16 5.5 31.5t10 23t18 25t16.5 21.5l57 79h42zM112 468q18 0 33.5 15t15.5 38t-15 37.5t-34 14.5q-22 0 -36 -14t-14 -38q0 -23 15.5 -38t34.5 -15z" />
    <glyph glyph-name="seven.numr" horiz-adv-x="223" 
d="M96 440h-39l89 229h-121v32h173z" />
    <glyph glyph-name="eight.numr" horiz-adv-x="233" 
d="M165 583q43 -21 43 -66q0 -34 -27 -56.5t-65 -22.5q-37 0 -64 22.5t-27 56.5q0 45 43 66q-30 19 -30 53q0 26 21.5 46.5t56.5 20.5q36 0 57.5 -20t21.5 -47q0 -34 -30 -53zM75 636q0 -15 12.5 -27t28.5 -12q18 0 29.5 11.5t11.5 27.5q0 36 -41 36q-20 0 -30.5 -10.5
t-10.5 -25.5zM116 469q24 0 39 13t15 35t-15 35.5t-39 13.5q-22 0 -38 -14t-16 -35q0 -20 16 -34t38 -14z" />
    <glyph glyph-name="nine.numr" horiz-adv-x="224" 
d="M117 535h-5q-35 0 -61 25.5t-26 59.5q0 35 26.5 59.5t60.5 24.5t60.5 -24.5t26.5 -59.5q0 -13 -2.5 -24t-9 -22.5t-10.5 -18t-14.5 -19.5t-14.5 -18l-56 -78h-43zM112 672q-19 0 -34.5 -15t-15.5 -37q0 -23 15.5 -38t34.5 -15q22 0 35.5 14.5t13.5 38.5q0 22 -15.5 37
t-33.5 15z" />
    </font>
</defs>
</svg>
